#TITLE:Nova (Mr.Funky Remix);
#SUBTITLE:;
#ARTIST:Remixed by Mr. Funky;
#TITLETRANSLIT:;
#SUBTITLETRANSLIT:;
#ARTISTTRANSLIT:;
#GENRE:NU SKOOL BREAKZ;
#CREDIT:;
#BANNER:Nova (Mr.Funky Remix).png;
#BACKGROUND:Nova (Mr.Funky Remix)-bg.png;
#LYRICSPATH:;
#CDTITLE:cdtitle.png;
#MUSIC:Nova (Mr.Funky Remix).mp3;
#MENUCOLOR:0.875,0.25,1,1;
#METERTYPE:DDR X;
#OFFSET:-0.029;
#SAMPLESTART:14.127;
#SAMPLELENGTH:12.000;
#SELECTABLE:YES;
#BPMS:0.000=136.000;
#STOPS:;
#BGCHANGES:;

//---------------dance-single - ----------------
#NOTES:
     dance-single:
     :
     Hard:
     12:
     0.559,0.582,0.018,0.231,0.435: // measure 1
0000
0000
0000
0000
,  // measure 2
0000
0000
0000
0000
,  // measure 3
0000
0000
0000
0000
,  // measure 4
0000
0000
0000
0000
,  // measure 5
1000
0000
0100
0000
0010
0000
0001
0000
1000
0100
0000
0001
0000
0010
0100
0000
,  // measure 6
0000
0000
0000
0000
,  // measure 7
1000
0000
0100
0000
0010
0000
0001
0000
1000
0100
0000
0010
0000
0001
0100
0000
,  // measure 8
0000
0000
0000
0002
,  // measure 9
1003
0000
0100
0000
0010
0000
0001
0000
0100
0000
0010
1000
0001
0000
0000
0000
,  // measure 10
0100
0010
0100
0000
0001
0000
0100
0000
0010
0000
1000
0100
0001
0000
1000
0010
,  // measure 11
0100
0000
0001
0010
0100
0000
0010
1000
0001
0000
0010
0100
1000
0000
0100
0000
,  // measure 12
0010
0001
0100
0010
0100
0001
1001
0000
,  // measure 13
0100
0000
0001
0000
1000
0000
0100
0010
0100
0000
0001
0000
1000
0000
0000
0000
,  // measure 14
0100
0000
0010
0000
0001
0000
0100
0000
0010
0001
1000
0000
0001
0000
0000
0000
,  // measure 15
0100
0000
0001
1000
0010
0000
0000
0000
0100
1000
0010
0000
0001
0000
0000
0000
,  // measure 16
0001
0000
0100
0001
1000
0000
0100
0000
0010
0000
1000
0002
0000
0000
0000
0000
,  // measure 17
1003
0000
1000
0000
0100
0000
0010
0000
0001
1000
0100
0000
0020
0000
0000
0000
,  // measure 18
0031
0000
0001
0000
0100
0000
1000
0001
1000
0001
0000
0000
0200
0000
0000
0000
,  // measure 19
0310
0000
1000
0000
1000
0000
0100
0010
0100
0000
0100
0000
0020
0000
0000
0000
,  // measure 20
1030
0000
1000
0000
0100
0000
0010
0000
0001
0000
0010
0200
0000
0000
0000
0000
,  // measure 21
0310
0000
1000
0000
0100
0000
0010
0000
0001
1000
0010
0000
0200
0000
0000
0000
,  // measure 22
0310
0000
0010
0000
1000
0000
0100
0001
0010
0000
0001
0000
2000
0000
0000
0000
,  // measure 23
3001
0000
0001
0000
0100
0000
1000
0001
0100
0000
0010
0000
0002
0000
0000
0000
,  // measure 24
0013
0010
0100
1000
0100
0010
0001
0100
,  // measure 25
1001
0000
0000
0001
0000
0000
0001
0000
0000
0001
0000
0000
2000
0000
0000
0000
,  // measure 26
3001
0000
0000
0001
0000
0000
0001
0000
0000
0001
0000
0000
2000
0000
0000
0000
,  // measure 27
3001
0000
0000
0001
0000
0000
0001
0000
0000
0000
0000
0000
0200
0000
0000
0000
,  // measure 28
0310
0000
0000
0010
0000
0000
0010
0000
0000
0000
0000
0000
0020
0000
0000
0000
,  // measure 29
1030
0000
0000
0100
0000
0000
0010
0000
0000
0010
0000
0000
2000
0000
0000
0000
,  // measure 30
3001
0000
0000
0001
0000
0000
0001
0000
0000
0100
0000
0000
0002
0000
0000
0000
,  // measure 31
1003
0000
0000
1000
0000
0000
0100
0000
0000
0010
0000
0000
2000
0000
0000
0000
,  // measure 32
3010
0000
0000
0010
0000
0000
0010
0000
0000
0100
0000
0000
0002
0000
0000
0000
,  // measure 33
1003
0000
0000
1000
0000
0000
0100
0000
0000
0100
0000
0000
0010
0000
0010
0000
,  // measure 34
1000
0000
0000
1000
0000
0000
1000
0000
0000
1000
0000
0000
1000
0000
1000
0000
,  // measure 35
0001
0000
0000
0001
0000
0000
0001
0000
0000
0001
0000
0000
0100
0000
0100
0000
,  // measure 36
0100
0000
0000
0010
0000
0000
0010
0000
0000
0010
0000
0000
1000
0000
1000
0000
,  // measure 37
0010
0000
0000
0100
0000
0000
0010
0000
0000
1000
0000
0000
0100
0000
0100
0000
,  // measure 38
0010
0000
0000
1000
0000
0000
0100
0000
0000
0010
0000
0000
0100
0000
0100
0000
,  // measure 39
0010
0000
1000
0000
0100
0000
0010
0000
0100
0010
0100
0000
0010
0000
0000
0000
,  // measure 40
1000
0000
0001
0000
0100
0000
0010
0000
0100
0010
0100
0000
0001
0000
0000
0000
,  // measure 41
0100
0000
0001
0000
1000
0000
0100
0000
0010
0001
0010
0000
0100
0000
0000
0000
,  // measure 42
0010
0001
0100
1000
0001
0100
0010
0000
,  // measure 43
1000
1000
0100
0010
0100
0010
2000
0000
,  // measure 44
3001
0000
0100
0000
0100
0000
0010
0001
0010
0001
0100
0000
0020
0000
0000
0000
,  // measure 45
0031
0000
0001
0000
0100
0000
1000
0001
0100
0000
0010
0000
0200
0000
0000
0000
,  // measure 46
0301
0000
0001
0000
1000
0000
0100
0000
0010
0000
0001
2000
0000
0000
0000
0000
,  // measure 47
3001
0000
0001
0010
0100
0000
1000
0000
0100
0010
0000
1000
0200
0000
0000
0000
,  // measure 48
0301
0000
0001
0100
1000
0000
0100
0000
0001
0010
0000
1000
0002
0000
0000
0000
,  // measure 49
1003
0000
1000
0001
0100
0000
0010
0000
1000
0100
0000
0001
0200
0000
0000
0000
,  // measure 50
0310
0000
1000
0001
0100
0000
0010
0000
0001
1000
0000
0020
0000
0000
0000
0000
,  // measure 51
1030
0000
0000
1000
0000
0000
1000
0000
0000
1000
0001
0000
1000
0000
1000
0000
,  // measure 52
0100
0000
0000
0100
0000
0000
0100
0000
0000
0100
0010
0000
0100
0000
0100
0000
,  // measure 53
0010
0000
0000
0010
0000
0000
0010
0000
0000
0010
0100
0000
0010
0000
0010
0000
,  // measure 54
0001
0000
0000
0001
0000
0000
0001
0000
0000
0001
1000
0000
0001
0000
0001
0000
,  // measure 55
1000
0000
0000
1000
0000
0000
1000
0000
0000
1000
0001
0000
1000
0000
1000
0000
,  // measure 56
0001
0000
0000
0001
0000
0000
0001
0000
0000
0001
1000
0000
0001
0000
0001
0000
,  // measure 57
0100
0000
0000
0100
0000
0000
0100
0000
0000
0100
0010
0000
0100
0000
0100
0000
,  // measure 58
0010
0000
0000
0010
0000
0000
0010
0000
0000
0010
0100
0000
0010
0000
0010
0000
,  // measure 59
1000
0000
0100
0000
0010
0000
0001
0000
1000
0001
0000
0010
0000
0100
1000
0000
,  // measure 60
0100
0000
0010
0000
0001
0000
0100
0000
0010
1000
0000
0001
0000
0100
0010
0000
;

//---------------dance-single - ----------------
#NOTES:
     dance-single:
     :
     Medium:
     9:
     0.443,0.443,0.009,0.129,0.208:
0000
0000
0000
0000
,
0000
0000
0000
0000
,
0000
0000
0000
0000
,
0000
0000
0000
0000
,
1000
0000
0001
0000
0100
0000
0010
0000
0100
0000
0000
0001
0000
0000
1000
0000
,
0000
0000
0000
0000
,
0100
0000
0010
0000
0001
0000
1000
0000
0001
0000
0000
1000
0000
0000
0001
0000
,
0000
0000
0000
0002
,
1003
0100
0010
0100
0010
0000
0010
0000
,
1000
0100
0010
0001
1000
0001
1000
0000
,
0010
0100
0010
0000
1000
0001
1000
0000
,
1000
0100
0010
0001
0100
0010
0001
0000
,
0100
0001
1000
0010
0200
0000
0310
0000
,
1000
0100
0010
0100
0020
0000
1030
0000
,
0100
0010
0200
0000
0310
1000
0020
0000
,
0130
0001
0200
0000
0310
1000
0010
0000
,
0100
0100
0010
1000
0100
0010
0001
0000
,
0010
0010
0100
0010
0001
1000
0100
0000
,
0001
0001
1000
0100
0010
0001
0100
0000
,
1000
1000
0100
0010
0001
0100
0010
0000
,
0010
0010
1000
0100
0010
0001
0100
0000
,
0100
0100
1000
0100
0010
0001
0100
0000
,
0001
0001
1000
0100
0010
0100
0001
0000
,
1000
1000
0100
0010
0001
1000
0010
0000
,
1001
0000
0000
0002
,
1003
0000
0000
2000
,
3001
0000
0000
0001
0000
0000
0001
0000
0000
0000
1000
0000
0020
0000
0000
0000
,
1030
0000
0000
0100
0000
0000
0100
0000
0000
0000
0000
0000
0020
0000
0000
0000
,
1030
0000
0000
0100
0000
0000
0010
0000
0000
0000
0000
0000
2000
0000
0000
0000
,
3001
0000
0000
0100
0000
0000
0100
0000
0000
0000
0000
0000
0020
0000
0000
0000
,
1030
0000
0000
1000
0000
0000
1000
0000
0000
0000
0000
0000
0020
0000
0000
0000
,
0031
0000
0000
0001
0000
0000
0001
0000
0000
0000
0000
0000
2000
0000
0000
0000
,
3001
0000
0000
0100
0000
0000
0010
0000
0000
1000
0000
0000
0100
0000
0100
0000
,
0010
0000
0001
0000
1000
0000
0100
0000
0010
0000
0000
0100
0000
0000
0001
0000
,
1000
0000
0000
0100
0000
0000
0100
0000
0000
0010
0000
0000
0010
0000
0010
0000
,
1000
0000
0000
0010
0000
0000
0100
0000
0000
0010
0000
0000
1000
0000
0001
0000
,
1000
0000
0000
0001
0000
0000
0001
0000
0000
1000
0000
0000
0001
0000
1000
0000
,
0001
0000
0000
1000
0000
0000
1000
0000
0000
1000
0000
0000
0001
0000
1000
0000
,
0001
0000
0000
0100
0000
0000
0100
0000
0000
0010
0000
0000
0100
0000
0010
0000
,
0100
0000
0000
1000
0000
0000
0100
0000
0000
0010
0000
0000
0001
0000
1000
0000
,
0001
0000
0000
1000
0000
0000
0001
0000
0000
1000
0000
0000
0001
0000
1000
0000
,
0001
0000
0000
0100
0000
0000
0100
0000
0000
0010
0000
0000
0100
0000
0000
0000
,
0001
0001
0000
1000
0100
0010
0001
0000
,
1000
1000
0000
0001
0010
0100
1000
0000
,
0010
0010
0000
0100
0010
1000
0001
0000
,
0100
0100
0000
0010
0100
0001
1000
0000
,
0001
0001
0000
0100
0010
0001
1000
0000
,
0100
0100
0000
0010
1000
0001
0100
0000
,
1000
1000
0000
0100
1000
0010
0001
0000
,
0010
0010
0000
0100
0001
1000
0010
0000
,
1000
0000
0000
0001
0000
0000
0100
0000
0000
0010
0000
0000
0001
0000
0001
0000
,
1000
0000
0000
0100
0000
0000
0100
0000
0000
0010
0000
0000
0001
0000
0001
0000
,
1000
0000
0000
0100
0000
0000
0010
0000
0000
0001
0000
0000
1000
0000
1000
0000
,
0010
0000
0000
0100
0000
0000
0010
0000
0000
0001
0000
0000
0010
0000
0010
0000
,
1000
0000
0000
1000
0000
0000
0100
0000
0000
0010
0000
0000
0001
0000
0001
0000
,
1000
0000
0000
1000
0000
0000
0100
0000
0000
0100
0000
0000
0010
0000
0010
0000
,
1000
0000
0000
1000
0000
0000
1000
0000
0000
0100
0000
0000
0010
0000
0010
0000
,
1000
0000
0000
1000
0000
0000
0001
0000
0000
0001
0000
0000
0001
0000
0001
0000
,
1000
0000
0100
0000
0010
0000
0001
0000
1000
0000
0000
0001
0000
0000
0001
0000
,
0100
0000
0010
0000
0001
0000
1000
0000
0010
0000
0000
0010
0000
0000
1000
0000
;

//---------------dance-single - ----------------
#NOTES:
     dance-single:
     :
     Easy:
     5:
     0.291,0.304,0.000,0.213,0.000:
0000
0000
0000
0000
,
0000
0000
0000
0000
,
0000
0000
0000
0000
,
0000
0000
0000
0000
,
1000
1000
0100
0010
,
0000
0000
0000
0000
,
0001
0001
0010
0100
,
0000
0000
0000
0002
,
1003
0000
0100
0000
0010
0001
1000
0000
,
0010
0000
0001
0000
0100
1000
0001
0000
,
0100
0001
1000
0001
,
1000
0000
0010
0000
0100
0010
0100
0000
,
0010
0001
2000
3001
,
0010
0100
0002
1003
,
0100
0010
1000
0001
,
1000
0001
1000
0010
,
1000
0001
0000
0000
0100
0000
0010
0000
,
1000
0001
0000
0000
0100
0000
0010
0000
,
0001
1000
0000
0000
0010
0000
0100
0000
,
0001
1000
0000
0000
0100
0000
0010
0000
,
1000
0001
0000
0000
0100
0000
0010
0000
,
1000
0001
0000
0000
1000
0000
0010
0000
,
0100
0010
0000
0000
0100
0000
0001
0000
,
0100
0010
0000
0000
1000
0000
0001
0000
,
0002
0000
0000
0203
,
0320
0000
0000
2030
,
3001
0100
0000
0000
0010
0000
1000
0000
,
0010
0100
0000
0000
0010
0000
1000
0000
,
0002
0000
0000
0203
,
0320
0000
0000
2030
,
3001
0000
0100
0000
0010
1000
0010
0000
,
0100
0000
0001
0000
1000
0001
1000
0000
,
0002
0000
0000
0203
,
2300
0000
0000
3020
,
0031
0000
0100
0001
0100
0000
0010
0000
,
1000
0000
0001
1000
0000
0000
0001
0000
,
1000
0000
0010
0000
1000
0001
0000
0000
,
0100
0000
0010
0000
1000
0001
0000
0000
,
0100
0000
0010
0000
0001
1000
0000
0000
,
0010
0000
1000
0000
0001
1000
0000
0000
,
1000
0000
0100
0000
0010
0001
0000
0000
,
1000
0000
0001
0000
0100
1000
0000
0000
,
0001
1000
0000
0000
0010
0000
0100
0000
,
0010
1000
0000
0000
0100
0000
0010
0000
,
0001
1000
0000
0000
1000
0000
0001
0000
,
1000
0001
0000
0000
0100
0000
0010
0000
,
1000
0001
0000
0000
0100
0000
0001
0000
,
0010
0100
0000
0000
0001
0000
1000
0000
,
0010
0100
0000
0000
0001
0000
1000
0000
,
0010
0100
0000
0000
0010
0000
1000
0000
,
0002
0000
0000
1003
,
0020
0000
0000
0130
,
2000
0000
0000
3001
,
0200
0000
0000
0310
,
0002
0000
0000
1003
,
0020
0000
0000
0130
,
0002
0000
0000
1003
,
0200
0000
0000
0310
,
1000
0001
1000
0000
0001
0000
1000
0000
,
0001
1000
0001
0000
1000
0000
0001
0000
;

//---------------dance-single - ----------------
#NOTES:
     dance-single:
     :
     Beginner:
     2:
     0.131,0.191,0.065,0.065,0.000:
0000
0000
0000
0000
,
0000
0000
0000
0000
,
0000
0000
0000
0000
,
0000
0000
0000
0000
,
1001
0000
0000
0000
,
0000
0000
0000
0000
,
0110
0000
0000
0000
,
0000
0000
0000
0000
,
1000
1000
0000
0000
,
0001
0001
0000
0000
,
0100
0100
0000
0000
,
0010
0010
0000
0000
,
2000
0000
0000
0000
,
3000
0000
0000
0000
,
0002
0000
0000
0000
,
0003
0000
0000
0000
,
1000
1000
0000
0000
,
0100
0100
0000
0000
,
0010
0010
0000
0000
,
0001
0001
0000
0000
,
1000
1000
0000
0000
,
0001
0001
0000
0000
,
0100
0100
0000
0000
,
0010
0010
0000
0000
,
1001
0000
0000
0020
,
0000
0000
0000
0000
,
0030
0000
0000
1000
,
1000
0000
0000
0001
,
0001
0000
0000
0200
,
0000
0000
0000
0000
,
0300
0000
0010
0010
,
0010
0000
1000
1000
,
1000
0000
0000
0002
,
0000
0000
0000
0000
,
0003
0000
1000
1000
,
0000
0000
0001
0001
,
0000
0000
0100
0000
,
0000
0000
1000
1000
,
0000
0000
0000
0001
,
0001
0000
0000
1000
,
1000
0000
0000
0100
,
0100
0000
0000
0010
,
1000
0000
0000
1000
,
1000
0000
0000
0001
,
0001
0000
0000
1000
,
1000
0000
0000
0000
,
0110
0000
0000
0000
,
0110
0000
0000
0000
,
1001
0000
0000
0000
,
1001
0000
0000
0000
,
0001
0001
1000
0000
,
1000
1000
0001
0000
,
0010
0010
0100
0000
,
0100
0100
0010
0000
,
0001
0000
0002
0000
,
0003
0000
0000
0000
,
1000
0000
2000
0000
,
3000
0000
0000
0000
,
0010
0000
0000
0000
,
0001
0000
0000
0000
;
