#TITLE:No pain, No game;
#SUBTITLE:BTOOOM! ~ブトゥーム~ OP;
#ARTIST:ナノ;
#TITLETRANSLIT:;
#SUBTITLETRANSLIT:BTOOOM! OP;
#ARTISTTRANSLIT:Nano;
#GENRE:GAME ROCK;
#CREDIT:;
#BANNER:No pain, No game.png;
#BACKGROUND:No pain, No game-bg.png;
#LYRICSPATH:;
#CDTITLE:cdtitle.png;
#MUSIC:No pain, No game.mp3;
#MENUCOLOR:1,0.625,0,1;
#METERTYPE:DDR X;
#OFFSET:-1.524;
#SAMPLESTART:61.586;
#SAMPLELENGTH:12.000;
#SELECTABLE:YES;
#BPMS:0.000=380
,64.000=95
,66.000=190
,68.000=380
,88.000=190
,104.000=380
,420.000=95
,422.000=190
,424.000=380;
#STOPS:383.000=0.158
,384.000=0.158
,385.000=0.158
,386.000=0.158
;
#BGCHANGES:;

//---------------dance-single - ----------------
#NOTES:
     dance-single:
     :
     Hard:
     17:
     0.893,1.000,0.883,0.170,0.037: // measure 1
0000
0000
0000
0000
,  // measure 2
0000
0000
0000
0000
,  // measure 3
0000
0000
0000
0000
,  // measure 4
0000
0000
0000
0000
,  // measure 5
0000
0000
0000
0000
,  // measure 6
0000
0000
0000
0000
,  // measure 7
0000
0000
0000
0000
,  // measure 8
0000
0000
0000
0002
,  // measure 9
0000
1000
1000
1000
,  // measure 10
1000
1000
0000
1000
,  // measure 11
1000
1000
0000
0000
,  // measure 12
1000
0000
1000
0000
,  // measure 13
2003
0000
0001
0001
,  // measure 14
0001
0000
0001
0001
,  // measure 15
0000
0001
0001
0001
,  // measure 16
0001
0000
0001
0000
,  // measure 17
3001
1000
0100
0010
0000
0001
0200
0000
0000
0000
0000
0000
0000
0000
0000
0000
,  // measure 18
1300
0100
0010
0001
0020
0000
0030
0000
,  // measure 19
1001
0100
0010
0110
,  // measure 20
0100
0010
0220
0000
,  // measure 21
0000
0000
0000
0000
,  // measure 22
0000
0000
0330
0000
,  // measure 23
1000
0100
0010
0100
0001
0100
0001
1000
,  // measure 24
0100
0001
0000
0100
0010
0100
0010
0000
,  // measure 25
0100
1000
0100
0010
0100
0001
1000
0100
,  // measure 26
0001
0000
0100
0000
0001
0000
1000
0000
0100
0000
0010
0000
0100
1000
0010
0100
,  // measure 27
0001
0100
0001
0100
,  // measure 28
0001
0100
0011
1000
,  // measure 29
0100
0010
0101
1000
,  // measure 30
0100
0001
1100
0000
,  // measure 31
0100
0001
0110
1000
,  // measure 32
0100
0010
1100
0001
,  // measure 33
0100
0001
0110
1000
,  // measure 34
0010
0001
1010
0000
,  // measure 35
0101
1000
0001
0100
,  // measure 36
0001
1000
0011
1000
,  // measure 37
0010
0100
0011
1000
,  // measure 38
0100
0001
1100
0000
,  // measure 39
1000
0001
1010
1000
,  // measure 40
0100
0001
0110
1000
,  // measure 41
0100
0010
1001
0100
,  // measure 42
0001
0000
0100
0010
0100
0000
1000
0100
,  // measure 43
0010
1000
0010
0100
,  // measure 44
0020
1000
1030
0100
,  // measure 45
0001
0100
0001
1000
,  // measure 46
0100
0010
0100
0010
,  // measure 47
1000
0100
0001
0100
,  // measure 48
2000
0010
3100
0001
,  // measure 49
1000
0010
0100
0010
,  // measure 50
0100
0001
0100
0010
,  // measure 51
0001
1000
0100
0010
,  // measure 52
0002
0100
0013
1000
,  // measure 53
0010
0100
0010
1000
,  // measure 54
0001
0100
0010
0100
,  // measure 55
0010
1000
0100
0001
,  // measure 56
0200
1000
0301
0010
,  // measure 57
1000
0000
0001
0000
0100
0000
0010
0001
,  // measure 58
1000
1001
0000
0011
,  // measure 59
0000
1010
0110
0000
,  // measure 60
1100
0000
0011
1100
,  // measure 61
0000
1010
0101
0000
,  // measure 62
1001
0000
1010
0011
,  // measure 63
0000
0101
1100
0000
,  // measure 64
0011
0000
0110
1001
,  // measure 65
0000
1001
0110
0000
,  // measure 66
0010
0100
0010
0000
,  // measure 67
1000
0100
0001
0100
,  // measure 68
0010
1000
0001
1000
,  // measure 69
0010
1000
0100
0001
,  // measure 70
0100
0000
1000
0001
0010
0000
0100
0000
,  // measure 71
0110
0100
0001
0101
,  // measure 72
0100
0001
1001
2002
,  // measure 73
0000
0000
0000
0000
,  // measure 74
0003
0000
3001
0010
0100
0010
0001
0000
,  // measure 75
0001
0100
1000
0000
0100
0000
0010
0000
,  // measure 76
0001
0010
0100
0000
0010
0000
0110
0000
,  // measure 77
1000
0001
0100
0000
0001
0000
0100
0000
,  // measure 78
1000
0001
0100
0000
0010
0000
1100
0000
,  // measure 79
0100
1000
0010
0000
0100
0000
0010
0000
,  // measure 80
0100
1000
0001
0000
0100
0000
0101
0000
,  // measure 81
1000
0010
0100
0000
0010
0000
0100
0000
,  // measure 82
0001
0010
0100
0000
0010
0000
0011
0000
,  // measure 83
0100
1000
0100
0000
0010
0000
1000
0000
,  // measure 84
0010
0001
0100
0000
0010
0000
0110
0000
,  // measure 85
1000
0001
0100
0000
0001
0000
0100
0000
,  // measure 86
0010
1000
0100
0000
0010
0000
1100
0000
,  // measure 87
0100
0001
0010
0000
0100
0000
0010
0000
,  // measure 88
0101
0001
0101
0100
,  // measure 89
1001
1000
1001
0100
,  // measure 90
0001
1000
0001
0000
0000
0000
1001
0000
,  // measure 91
0100
1000
0001
0000
1000
0000
0100
0000
,  // measure 92
0010
1000
0001
0000
0100
0000
0110
0000
,  // measure 93
1000
0001
0100
0000
0001
0000
0100
0000
,  // measure 94
0010
0001
0100
0000
0010
0000
0011
0000
,  // measure 95
0100
0010
1000
0000
0100
0000
0001
0000
,  // measure 96
0100
0010
0001
0000
0100
0000
1001
0000
,  // measure 97
1010
0110
0011
0101
,  // measure 98
1000
0010
0100
0000
0001
1000
0100
0000
,  // measure 99
0001
0010
1000
0000
0100
0001
0010
0000
,  // measure 100
0100
1000
0001
0000
1000
0100
0010
0000
,  // measure 101
0100
0001
0010
0000
0100
0001
0010
0000
,  // measure 102
0110
0000
1000
0001
0100
0000
0110
0000
,  // measure 103
0100
0010
0001
0000
0101
0000
0100
1000
,  // measure 104
0010
0000
0110
0000
1000
0001
0100
0000
,  // measure 105
1100
0000
0100
0001
0010
1000
0100
0001
,  // measure 106
0020
0000
1030
0100
0000
0001
0200
0000
0000
0000
0000
0000
0000
0000
0000
0000
,  // measure 107
0310
1000
0010
1000
0010
1000
0010
1000
,  // measure 108
0010
0100
0010
0110
,  // measure 109
0000
0100
0202
0000
,  // measure 110
0000
0000
0000
0000
,  // measure 111
0000
0000
0000
0303
,  // measure 112
1001
0100
0010
0100
,  // measure 113
0001
0100
0110
1000
,  // measure 114
0100
0001
0100
0010
,  // measure 115
1000
0100
0110
1000
,  // measure 116
0100
0001
0100
0010
,  // measure 117
1000
0100
0101
0100
,  // measure 118
0010
0100
1000
0010
,  // measure 119
0100
0010
0110
0000
,  // measure 120
0100
0100
0110
1000
,  // measure 121
0100
0010
0110
0100
,  // measure 122
0001
0100
0110
1000
,  // measure 123
0100
0100
1100
0100
,  // measure 124
1001
1000
0001
1001
,  // measure 125
0100
0101
0100
1010
,  // measure 126
0100
1100
0100
0110
,  // measure 127
1000
1001
1001
1001
;

//---------------dance-single - ----------------
#NOTES:
     dance-single:
     :
     Beginner:
     4:
     0.167,0.337,0.170,0.053,0.000: // measure 1
0000
0000
0000
0000
,  // measure 2
0000
0000
0000
0000
,  // measure 3
0000
0000
0000
0000
,  // measure 4
0000
0000
0000
0000
,  // measure 5
0000
0000
0000
0000
,  // measure 6
0000
0000
0000
0000
,  // measure 7
0000
0000
0000
0000
,  // measure 8
0000
0000
0000
0000
,  // measure 9
2000
0000
0000
0000
,  // measure 10
0000
0000
0000
0000
,  // measure 11
0000
0000
0000
0000
,  // measure 12
0000
0000
0000
0000
,  // measure 13
3002
0000
0000
0000
,  // measure 14
0000
0000
0000
0000
,  // measure 15
0000
0000
0000
0000
,  // measure 16
0000
0000
0000
0000
,  // measure 17
1003
0000
0000
1000
0000
0000
0000
0000
,  // measure 18
1000
0000
0000
0000
,  // measure 19
1001
0000
0000
0000
,  // measure 20
0000
0000
1001
0000
,  // measure 21
0000
0000
0000
0000
,  // measure 22
0000
0000
0000
0000
,  // measure 23
0010
0000
0000
0010
,  // measure 24
0000
0000
0001
0000
,  // measure 25
0001
0000
0000
1000
,  // measure 26
0000
0000
1000
0000
,  // measure 27
1001
0000
0000
0000
,  // measure 28
0100
0000
0000
0000
,  // measure 29
0010
0000
0000
0000
,  // measure 30
0001
0000
0001
0000
,  // measure 31
0001
0000
0000
0000
,  // measure 32
1000
0000
0000
0000
,  // measure 33
1000
0000
0000
0000
,  // measure 34
1000
0000
1000
0000
,  // measure 35
1000
0000
0000
0000
,  // measure 36
0001
0000
0000
0000
,  // measure 37
0000
0000
0000
0000
,  // measure 38
0001
0000
0001
0000
,  // measure 39
0001
0000
0000
0000
,  // measure 40
1000
0000
0000
0000
,  // measure 41
0000
0000
0000
0000
,  // measure 42
0100
0000
0100
0000
,  // measure 43
0100
0000
0000
0000
,  // measure 44
0100
0000
0000
0000
,  // measure 45
0000
0000
0000
0000
,  // measure 46
1000
0000
0000
0000
,  // measure 47
1000
0000
0000
0000
,  // measure 48
0000
0000
0000
0000
,  // measure 49
0001
0000
0000
0000
,  // measure 50
0001
0000
0000
0000
,  // measure 51
1000
0000
0000
0000
,  // measure 52
0000
0000
0000
0000
,  // measure 53
1000
0000
0000
0000
,  // measure 54
1000
0000
0000
0000
,  // measure 55
1000
0000
0000
0000
,  // measure 56
0000
0000
0000
0000
,  // measure 57
0100
0000
0000
0000
,  // measure 58
0100
0000
0000
0000
,  // measure 59
0100
0000
0000
0000
,  // measure 60
0100
0000
0000
0000
,  // measure 61
0001
0000
0000
0000
,  // measure 62
0001
0000
0000
0000
,  // measure 63
1000
0000
0000
0000
,  // measure 64
1000
0000
0000
0000
,  // measure 65
1000
0000
0000
0000
,  // measure 66
0001
0000
0000
0000
,  // measure 67
1001
0000
0000
0000
,  // measure 68
0000
0000
0000
0000
,  // measure 69
0100
0000
0000
0000
,  // measure 70
0000
0000
0000
0000
,  // measure 71
0110
0000
0000
0000
,  // measure 72
0000
0000
0000
0000
,  // measure 73
1001
0000
0000
0000
,  // measure 74
0000
0000
0000
0000
,  // measure 75
0110
0000
0000
0000
,  // measure 76
0000
0000
0000
0000
,  // measure 77
1000
0000
0000
0000
,  // measure 78
0000
0000
0000
0000
,  // measure 79
1000
0000
0000
0000
,  // measure 80
0000
0000
0000
0000
,  // measure 81
1000
0000
0000
0000
,  // measure 82
0010
0000
0000
0000
,  // measure 83
0000
0000
0000
0000
,  // measure 84
0000
0000
0010
0000
,  // measure 85
0000
0000
0000
0000
,  // measure 86
0000
0000
1000
0000
,  // measure 87
0000
0000
0000
0000
,  // measure 88
0000
0000
1000
0000
,  // measure 89
0000
0000
0000
0000
,  // measure 90
0000
0000
1001
0000
,  // measure 91
0000
0000
0000
0000
,  // measure 92
0000
0000
0100
0000
,  // measure 93
0000
0000
0000
0000
,  // measure 94
0000
0000
1000
0000
,  // measure 95
0000
0000
0000
0000
,  // measure 96
0000
0000
0000
2002
,  // measure 97
0000
0000
3003
0000
,  // measure 98
0000
0000
0000
0000
,  // measure 99
0000
0000
0000
0000
,  // measure 100
1000
0000
0000
0000
,  // measure 101
0000
0000
0000
0000
,  // measure 102
1001
0000
0000
0000
,  // measure 103
0000
0000
0000
0000
,  // measure 104
0001
0000
0000
0000
,  // measure 105
0000
0000
0000
0000
,  // measure 106
1000
0000
0000
2000
0000
0000
0000
0000
,  // measure 107
3000
0000
0000
0000
,  // measure 108
0110
0000
0000
0000
,  // measure 109
0000
0000
1001
0000
,  // measure 110
0000
0000
0000
0000
,  // measure 111
0000
0000
0000
0000
,  // measure 112
0001
0000
0000
0000
,  // measure 113
0001
0000
0000
0000
,  // measure 114
0001
0000
0000
0000
,  // measure 115
1000
0000
0000
0000
,  // measure 116
0100
0000
0000
0000
,  // measure 117
0100
0000
0000
0000
,  // measure 118
0010
0000
0000
0000
,  // measure 119
1000
0000
0000
0000
,  // measure 120
1001
0000
0000
0000
,  // measure 121
0001
0000
0000
0000
,  // measure 122
0001
0000
0000
0000
,  // measure 123
1000
0000
0000
0000
,  // measure 124
0110
0000
0000
0000
,  // measure 125
0000
0000
1001
0000
,  // measure 126
0000
0000
0000
0000
,  // measure 127
0000
0000
0000
1001
;

//---------------dance-single - ----------------
#NOTES:
     dance-single:
     :
     Easy:
     9:
     0.410,0.674,0.298,0.106,0.016: // measure 1
0000
0000
0000
0000
,  // measure 2
0000
0000
0000
0000
,  // measure 3
0000
0000
0000
0000
,  // measure 4
0000
0000
0000
0000
,  // measure 5
0000
0000
0000
0000
,  // measure 6
0000
0000
0000
0000
,  // measure 7
0000
0000
0000
0000
,  // measure 8
0000
0000
0000
0000
,  // measure 9
2000
0000
0000
0000
,  // measure 10
0000
0000
0000
0000
,  // measure 11
3002
0000
0000
0000
,  // measure 12
0000
0000
0000
0000
,  // measure 13
0203
0000
0000
0000
,  // measure 14
0000
0000
0000
0000
,  // measure 15
0320
0000
0000
0000
,  // measure 16
0000
0000
0000
0000
,  // measure 17
1030
0000
0000
0001
0000
0000
2000
0000
0000
0000
0000
0000
0000
0000
0000
0000
,  // measure 18
3001
0000
1000
0000
,  // measure 19
1001
0000
0000
1001
,  // measure 20
0000
0000
1001
0000
,  // measure 21
0000
0100
0000
0000
,  // measure 22
0010
0000
0100
0000
,  // measure 23
0010
0000
0000
0010
0000
0000
0010
0000
,  // measure 24
0000
0010
0000
0000
1000
0000
1000
0000
,  // measure 25
0001
0000
0000
0001
0000
0000
0001
0000
,  // measure 26
0000
0001
0000
0000
1000
0000
0001
0000
,  // measure 27
1001
0000
0100
0000
,  // measure 28
0010
0000
0001
0000
,  // measure 29
0100
0000
0010
0000
,  // measure 30
2000
0000
3100
0000
,  // measure 31
0010
0000
0001
0000
,  // measure 32
0100
0000
0010
0000
,  // measure 33
0001
0000
0100
0000
,  // measure 34
0002
0000
0103
0000
,  // measure 35
0010
0000
1000
0000
,  // measure 36
0100
0000
0001
0000
,  // measure 37
0100
0000
0010
0000
,  // measure 38
0200
0000
0310
0000
,  // measure 39
1000
0000
0100
0000
,  // measure 40
0010
0000
0001
0000
,  // measure 41
0100
0000
0010
0000
,  // measure 42
2000
0000
3001
0000
,  // measure 43
0101
0000
1000
0000
,  // measure 44
0100
0000
0010
0000
,  // measure 45
1000
0000
0100
0000
,  // measure 46
0001
0000
1000
0000
,  // measure 47
0001
0000
0100
0000
,  // measure 48
0010
0000
0100
0000
,  // measure 49
0001
0000
1000
0000
,  // measure 50
0100
0000
0010
0000
,  // measure 51
1001
0000
0100
0000
,  // measure 52
0010
0000
0001
0000
,  // measure 53
0100
0000
0010
0000
,  // measure 54
1000
0000
0001
0000
,  // measure 55
0100
0000
0010
0000
,  // measure 56
1000
0000
0100
0000
,  // measure 57
0001
0000
0100
0000
,  // measure 58
1000
0000
0000
1001
,  // measure 59
0000
0000
0000
0000
,  // measure 60
1001
0000
0000
0100
,  // measure 61
0000
0000
0010
0000
,  // measure 62
0100
0000
0000
0110
,  // measure 63
0000
0000
1000
0000
,  // measure 64
0001
0000
0000
1001
,  // measure 65
0000
0000
0100
0000
,  // measure 66
0010
0000
0000
0000
,  // measure 67
0001
0000
0100
0000
,  // measure 68
1000
0000
0000
0010
,  // measure 69
0001
0000
1000
0000
,  // measure 70
0010
0000
0100
0000
,  // measure 71
1001
0000
0000
1001
,  // measure 72
0000
0000
1001
0000
,  // measure 73
0000
0110
0000
0000
,  // measure 74
0000
0000
0000
0110
,  // measure 75
0000
1000
0000
0100
,  // measure 76
0000
0010
0000
0001
,  // measure 77
0000
0100
0000
0010
,  // measure 78
0000
1000
0000
0001
,  // measure 79
0000
0100
0000
1000
,  // measure 80
0000
0100
0000
0010
,  // measure 81
0000
0001
0000
1000
,  // measure 82
0000
0100
0000
0010
,  // measure 83
0000
0010
0000
0100
,  // measure 84
0000
0001
0000
1000
,  // measure 85
0000
0100
0000
0001
,  // measure 86
0000
0001
0000
1000
,  // measure 87
0000
0100
0000
0010
,  // measure 88
0000
1000
0000
0001
,  // measure 89
0000
1000
0000
0001
,  // measure 90
0000
1000
0000
1001
,  // measure 91
0000
1000
0000
0100
,  // measure 92
0000
0010
0000
0001
,  // measure 93
0000
0001
0000
1000
,  // measure 94
0000
1000
0000
0001
,  // measure 95
0000
0001
0000
0100
,  // measure 96
0000
0010
0000
1001
,  // measure 97
1001
1001
1001
1001
,  // measure 98
0000
0100
0000
0010
,  // measure 99
0000
0001
0000
1000
,  // measure 100
0000
0100
0000
0001
,  // measure 101
0000
0000
0100
0000
,  // measure 102
1010
0000
0000
0110
,  // measure 103
0000
0000
0101
0000
,  // measure 104
0000
1001
0000
0000
,  // measure 105
0100
0000
0010
0000
,  // measure 106
1000
0000
1000
0100
0000
0010
0002
0000
0000
0000
0000
0000
0000
0000
0000
0000
,  // measure 107
0103
0001
0100
0000
,  // measure 108
1001
0000
0000
0101
,  // measure 109
0000
0000
1010
0000
,  // measure 110
0000
0100
0010
0000
,  // measure 111
0100
0010
0100
0000
,  // measure 112
1000
0100
0010
0000
,  // measure 113
1000
0000
0001
0000
,  // measure 114
1000
0001
1000
0000
,  // measure 115
0010
0000
0100
0000
,  // measure 116
0001
1000
0001
0000
,  // measure 117
1000
0000
0100
0000
,  // measure 118
0010
0100
0010
0000
,  // measure 119
1000
1000
0001
0000
,  // measure 120
1000
0000
0001
0000
,  // measure 121
0001
0001
1000
0000
,  // measure 122
0100
0000
0010
0000
,  // measure 123
0100
0100
0010
0000
,  // measure 124
0001
0000
0010
0010
,  // measure 125
0000
0000
0100
0000
,  // measure 126
0010
0000
1000
0100
,  // measure 127
0000
1000
0001
1000
;

//---------------dance-single - ----------------
#NOTES:
     dance-single:
     :
     Medium:
     14:
     0.684,1.000,0.383,0.160,0.032: // measure 1
0000
0000
0000
0000
,  // measure 2
0000
0000
0000
0000
,  // measure 3
0000
0000
0000
0000
,  // measure 4
0000
0000
0000
0000
,  // measure 5
0000
0000
0000
0000
,  // measure 6
0000
0000
0000
0000
,  // measure 7
0000
0000
0000
0000
,  // measure 8
0000
0000
0000
0001
,  // measure 9
0000
0001
0002
0000
,  // measure 10
0000
0000
0000
0000
,  // measure 11
0000
0000
2003
0000
,  // measure 12
0010
3000
0200
0000
,  // measure 13
0320
0000
0000
0000
,  // measure 14
0230
0000
0000
0000
,  // measure 15
0000
0000
0000
0000
,  // measure 16
0001
0000
0001
0000
,  // measure 17
0301
0000
1000
0100
0000
0010
0002
0000
0000
0000
0000
0000
0000
0000
0000
0000
,  // measure 18
1003
0001
1000
0001
1000
0000
0000
0000
,  // measure 19
1001
0100
0010
0110
,  // measure 20
0000
0100
2002
0000
,  // measure 21
0000
0000
0000
0000
,  // measure 22
0000
0000
3003
0000
,  // measure 23
1000
0000
1000
0100
0000
0010
0001
0000
,  // measure 24
0001
0010
0000
0100
1000
0100
0010
0000
,  // measure 25
0001
0000
0010
0100
0000
1000
0100
0000
,  // measure 26
0010
0000
0001
0000
0000
0000
1000
0000
0001
0000
1000
0000
0001
1000
0001
1000
,  // measure 27
0001
0100
0001
0100
,  // measure 28
0010
0100
0001
0100
,  // measure 29
0001
1000
0100
0010
,  // measure 30
0001
0100
0001
0000
,  // measure 31
1000
0100
0001
0100
,  // measure 32
1000
0100
0010
0100
,  // measure 33
0001
1000
0100
0001
,  // measure 34
0010
1000
0010
0000
,  // measure 35
0100
0010
1000
0100
,  // measure 36
0010
0001
0100
0010
,  // measure 37
0100
1000
0100
0001
,  // measure 38
0100
0010
0100
0010
,  // measure 39
1000
0010
0100
0010
,  // measure 40
1000
0010
0100
0001
,  // measure 41
1000
0100
0010
0100
,  // measure 42
0001
1000
0001
0000
,  // measure 43
1001
0100
0010
0100
,  // measure 44
0020
0000
0130
0001
,  // measure 45
0100
0001
0100
1000
,  // measure 46
0100
0001
0100
1000
,  // measure 47
0000
0010
0100
0010
,  // measure 48
0100
0001
0100
0001
,  // measure 49
0000
0100
0010
0100
,  // measure 50
0010
1000
0100
1001
,  // measure 51
0000
0100
0001
0100
,  // measure 52
0001
0100
0001
0100
,  // measure 53
0000
0001
1000
0100
,  // measure 54
0001
0100
0001
1000
,  // measure 55
0100
0001
1000
0010
,  // measure 56
1000
0001
1000
0001
,  // measure 57
0100
0001
1000
0100
,  // measure 58
0010
0001
0000
1001
,  // measure 59
0000
1000
0001
0000
,  // measure 60
1001
0000
1000
1001
,  // measure 61
0000
1000
1001
0000
,  // measure 62
0100
0000
0010
1001
,  // measure 63
0000
1000
0001
0000
,  // measure 64
1001
0000
1000
1001
,  // measure 65
0000
0001
1001
0000
,  // measure 66
1000
0001
0100
0000
,  // measure 67
1000
0100
1000
0100
,  // measure 68
0010
0100
0010
0001
,  // measure 69
0010
0001
0010
0100
,  // measure 70
0010
0100
0000
1100
,  // measure 71
0010
0100
0010
1000
,  // measure 72
0100
0010
0001
2000
,  // measure 73
0000
0000
0000
0000
,  // measure 74
0000
0001
3000
1001
,  // measure 75
1000
0001
0100
0001
,  // measure 76
1000
0001
0000
1000
,  // measure 77
0100
0010
0100
0001
,  // measure 78
0100
0010
0000
0001
,  // measure 79
0010
0100
1000
0100
,  // measure 80
0010
0100
0000
0100
,  // measure 81
0001
0100
1000
1000
,  // measure 82
0010
1000
0000
1000
,  // measure 83
0100
0010
0100
0010
,  // measure 84
0010
0100
0000
0100
,  // measure 85
0001
0100
0001
0100
,  // measure 86
0100
0001
1000
0100
,  // measure 87
0010
0100
0020
0000
,  // measure 88
1030
0100
0001
0100
,  // measure 89
0010
1000
0100
0010
,  // measure 90
0100
0110
0000
1001
,  // measure 91
0000
0100
0010
0100
,  // measure 92
0010
0100
0000
1000
,  // measure 93
0100
0001
0100
1000
,  // measure 94
0010
1000
0001
1000
,  // measure 95
0100
0010
0001
0100
,  // measure 96
0010
1000
0000
1100
,  // measure 97
0110
0011
0110
1100
,  // measure 98
1000
0100
0010
0001
,  // measure 99
0100
1000
0100
0001
,  // measure 100
0100
1000
0100
0010
,  // measure 101
1000
0001
0100
0010
,  // measure 102
0100
0010
1000
0100
,  // measure 103
0001
0100
0001
1000
,  // measure 104
0100
0010
0100
0001
,  // measure 105
0100
0010
0100
0000
,  // measure 106
1000
0000
1000
0100
0000
0010
0002
0000
0000
0000
0000
0000
0000
0000
0000
0000
,  // measure 107
1003
0001
1000
0001
,  // measure 108
1001
0100
0010
0110
,  // measure 109
0000
0100
2002
0000
,  // measure 110
0000
0000
0000
0000
,  // measure 111
0000
0000
3003
0000
,  // measure 112
1001
1000
0001
0100
,  // measure 113
0001
1000
0100
0010
,  // measure 114
0100
0001
0100
0001
,  // measure 115
0100
0010
0200
0000
,  // measure 116
1300
0010
0100
0010
,  // measure 117
1000
0100
0001
0100
,  // measure 118
1000
0100
0010
0100
,  // measure 119
0001
0100
0001
0000
,  // measure 120
1001
0100
0001
0100
,  // measure 121
0010
0001
0010
0100
,  // measure 122
1000
0100
0001
0100
,  // measure 123
0010
1000
0001
0000
,  // measure 124
1001
0100
0001
0101
,  // measure 125
0000
1001
0000
1100
,  // measure 126
0000
0110
0000
0011
,  // measure 127
0000
1001
1001
1001
;

//---------------dance-single - ----------------
#NOTES:
     dance-single:
     :
     Challenge:
     18:
     1.000,1.000,0.978,0.330,0.037: // measure 1
0000
0000
0000
0000
,  // measure 2
0000
0000
0000
0000
,  // measure 3
0000
0000
0000
0000
,  // measure 4
0000
0000
0000
0000
,  // measure 5
0000
0000
0000
0000
,  // measure 6
0000
0000
0000
0000
,  // measure 7
0000
0000
0000
0000
,  // measure 8
0000
0000
0000
0002
,  // measure 9
0000
0010
0010
0010
,  // measure 10
0010
0010
0010
0010
,  // measure 11
0010
0010
0010
0010
,  // measure 12
0010
0010
0010
0010
,  // measure 13
0023
0001
0001
0001
,  // measure 14
0001
0001
0001
0001
,  // measure 15
0001
0001
0001
0001
,  // measure 16
0001
0001
0001
0001
,  // measure 17
0031
0010
1000
0100
0000
0001
2000
0000
0000
0000
0000
0000
0000
0000
0000
0000
,  // measure 18
3010
1000
0100
0001
0200
0000
0300
0000
,  // measure 19
0011
1000
0100
1100
,  // measure 20
1000
0100
2200
0000
,  // measure 21
0000
0000
0000
0000
,  // measure 22
0000
0000
3300
0000
,  // measure 23
0010
1000
0100
1000
0001
1000
0001
0010
,  // measure 24
1000
0001
0100
1000
0100
1000
0100
0001
,  // measure 25
1000
0010
1000
0100
1000
0001
0010
1000
,  // measure 26
0001
0000
1000
0000
0001
0000
0010
0000
1000
0000
0100
0000
1000
0010
0100
1000
,  // measure 27
0001
1000
0101
1000
,  // measure 28
0001
1000
0101
0010
,  // measure 29
1000
0100
1001
0010
,  // measure 30
1000
0001
1010
0000
,  // measure 31
1000
0001
1100
0010
,  // measure 32
1000
0100
1010
0001
,  // measure 33
1000
0001
1100
0010
,  // measure 34
0100
0001
0110
0000
,  // measure 35
1001
0010
0001
1000
,  // measure 36
0001
0010
0101
0010
,  // measure 37
0100
1000
0101
0010
,  // measure 38
1000
0001
1010
0000
,  // measure 39
0010
0001
0110
0001
,  // measure 40
1000
0001
1100
0010
,  // measure 41
1000
0100
0011
1000
,  // measure 42
0001
0000
2000
0100
3010
0002
0010
1003
,  // measure 43
0100
0010
0100
1000
,  // measure 44
0200
0010
0310
1000
,  // measure 45
0001
1000
0001
0010
,  // measure 46
2000
0100
3001
0100
,  // measure 47
0010
1000
0001
1000
,  // measure 48
0020
0100
1030
0001
,  // measure 49
0010
0100
1000
0100
,  // measure 50
2000
0001
3010
0100
,  // measure 51
0001
0010
1000
0100
,  // measure 52
0002
1000
0103
0010
,  // measure 53
0100
1000
0100
0010
,  // measure 54
0002
1000
0103
1000
,  // measure 55
0100
0010
1000
0001
,  // measure 56
2000
0010
3001
0100
,  // measure 57
0010
0000
0001
0000
1000
0000
0100
0001
,  // measure 58
0010
0011
0001
0101
,  // measure 59
0001
0110
1001
0001
,  // measure 60
1010
1000
0011
1010
,  // measure 61
0001
0110
1010
0100
,  // measure 62
0011
1000
0110
0011
,  // measure 63
0100
1001
0110
0001
,  // measure 64
0101
0100
1100
0101
,  // measure 65
1000
0011
1010
0000
,  // measure 66
0100
1000
0100
0000
,  // measure 67
0010
1000
0001
1000
,  // measure 68
0100
0010
0001
0010
,  // measure 69
0100
0010
1000
0001
,  // measure 70
1000
0000
0020
0001
0130
0010
1000
0000
,  // measure 71
1100
1000
0001
1001
,  // measure 72
1000
0001
0011
0011
,  // measure 73
0000
0000
0001
0010
0001
0010
0001
0010
,  // measure 74
0001
0010
0001
0100
1000
0100
0001
0000
,  // measure 75
0001
1000
0010
0000
1001
0000
0100
0000
,  // measure 76
0001
0100
1000
0000
0100
0000
1100
0000
,  // measure 77
0010
0001
1000
0000
0101
0000
1000
0000
,  // measure 78
0010
0001
1000
0000
0100
0000
1010
0000
,  // measure 79
1000
0010
0100
0000
1010
0000
0100
0000
,  // measure 80
1000
0010
0001
0000
1000
0000
1001
0000
,  // measure 81
0020
0100
1030
0000
0200
0001
1300
0000
,  // measure 82
0002
0100
1003
0000
0100
0000
0101
0000
,  // measure 83
1000
0010
1000
0000
0101
0000
0010
0000
,  // measure 84
0100
0001
1000
0000
0100
0000
1100
0000
,  // measure 85
0010
0001
1000
0000
0011
0000
1000
0000
,  // measure 86
0100
0010
1000
0000
0100
0000
1010
0000
,  // measure 87
1000
0001
0100
0000
1001
0000
0100
0000
,  // measure 88
1001
0001
1001
1000
,  // measure 89
0011
0010
0011
1000
,  // measure 90
0001
0010
0001
0000
0000
0000
0011
0000
,  // measure 91
1000
0010
0001
0000
0110
0000
1000
0000
,  // measure 92
0100
0010
0001
0000
1000
0000
1100
0000
,  // measure 93
0010
0001
1000
0000
0011
0000
1000
0000
,  // measure 94
0100
0001
1000
0000
0100
0000
0101
0000
,  // measure 95
1000
0100
0010
0000
1001
0000
0001
0000
,  // measure 96
1000
0100
0001
0000
1000
0020
0032
0203
,  // measure 97
0320
0032
0203
0320
0032
0000
1003
0000
,  // measure 98
0010
0100
0010
0100
0001
0010
0001
0010
,  // measure 99
0001
0100
0010
0100
1000
0100
0001
0100
,  // measure 100
1000
0010
0001
0010
0100
1000
0100
0001
,  // measure 101
1000
0001
0100
0010
1000
0001
0100
0001
,  // measure 102
1000
0000
0010
0001
1000
0000
1100
0000
,  // measure 103
1000
0100
0001
0000
1001
0000
1000
0010
,  // measure 104
0100
0000
1100
0000
0010
0001
1000
0000
,  // measure 105
1010
1001
0110
1100
,  // measure 106
0201
0000
0310
1000
0000
0001
2000
0000
0000
0000
0000
0000
0000
0000
0000
0000
,  // measure 107
3100
0010
0100
0010
0100
0010
0100
0010
,  // measure 108
0100
1000
0100
1100
,  // measure 109
0000
1000
1001
0000
,  // measure 110
0000
0000
0000
0000
0000
0000
1000
0001
,  // measure 111
1000
0001
0100
0010
0100
0001
1000
0100
,  // measure 112
0001
1000
0110
1000
,  // measure 113
0001
1000
1100
0010
,  // measure 114
1000
0001
1010
0100
,  // measure 115
0010
1000
1100
0010
,  // measure 116
1000
0100
0011
0100
,  // measure 117
0010
1000
1001
1000
,  // measure 118
0100
1000
0011
0100
,  // measure 119
1000
0000
2000
0010
3100
0000
0002
0100
,  // measure 120
1003
1000
1100
0010
,  // measure 121
1000
0100
1100
1000
,  // measure 122
0001
1000
1100
0010
,  // measure 123
1000
0000
1000
0000
1010
0000
1000
0010
,  // measure 124
0001
0010
0001
0011
,  // measure 125
1000
0101
1000
0011
,  // measure 126
0100
1010
0001
1100
,  // measure 127
0010
0011
0101
1001
;
