#TITLE:ニルヴァーナ;
#SUBTITLE:妖狐×僕SS OP;
#ARTIST:ムック;
#TITLETRANSLIT:Nirvana;
#SUBTITLETRANSLIT:Inu X Boku Secret Service OP;
#ARTISTTRANSLIT:MUCC;
#GENRE:EXTRA+ STANDARD ROUTE BEAT#1;
#CREDIT:;
#BANNER:Nirvana.png;
#BACKGROUND:Nirvana-bg.png;
#LYRICSPATH:;
#CDTITLE:cdtitle.png;
#MUSIC:Nirvana.mp3;
#MENUCOLOR:0,1,1,1;
#METERTYPE:DDR X;
#OFFSET:1.300;
#SAMPLESTART:45.354;
#SAMPLELENGTH:12.000;
#SELECTABLE:YES;
#BPMS:0.000=180.000;
#STOPS:;
#BGCHANGES:;

//---------------dance-single - ----------------
#NOTES:
     dance-single:
     :
     Hard:
     15:
     0.969,1.000,0.871,0.634,0.258:
0000
0000
0000
0000
,
0000
0000
0001
0020
0031
2000
3010
0200
,
0310
0002
0013
0200
0310
2000
3001
0020
,
0130
0020
1030
0200
0310
0002
0013
0200
,
0310
0200
0310
0200
0310
0200
0310
0200
,
0310
0002
1003
0200
0310
2000
3001
0020
,
0130
0002
0103
2000
3010
0200
0310
0002
,
0013
0200
0301
0020
0130
2000
3010
2002
,
0000
0000
0000
3003
,
0110
0110
0110
1010
,
1010
1010
1100
0110
,
1001
0101
1010
0110
,
0101
0000
0110
0000
0110
1000
0001
1001
,
0000
0010
0100
1000
0001
1000
0001
1000
,
0001
1000
0001
1000
0001
1000
0001
1000
0001
1000
0001
1000
0001
1000
0001
1000
,
0001
0000
0001
0010
0100
0000
0010
0001
0100
0000
0010
0000
0100
0010
0001
0000
,
1000
0000
1000
0100
0001
0000
0100
1000
0001
0000
0100
0000
0001
0100
1000
0000
,
0100
1100
0010
0101
,
0010
0000
0110
0000
0001
1000
0010
0000
,
0110
0000
0010
0010
0000
1000
0010
0100
,
0010
0001
0010
0100
0000
0100
0000
0100
,
0000
1000
0100
0020
0000
0031
0000
0100
,
0000
1000
0000
0001
0000
1000
0001
0000
,
0010
0100
0001
2000
0000
3010
0000
0010
,
0000
0001
0000
0100
0000
0001
1000
0000
,
1000
0100
0010
0002
0000
1003
0000
0010
,
0000
0010
0000
0110
0000
0000
0000
0100
,
0000
0100
0010
0100
1000
0000
0110
0000
,
0010
0101
0010
0110
,
0100
0101
0100
1100
,
0010
0000
0000
0000
0110
0000
0000
0000
0001
0100
0001
0100
0001
0100
0001
0100
,
0001
1000
0110
1000
0100
0010
0110
1000
,
0001
0000
0100
0000
0101
0000
1000
0000
0010
0000
1000
0010
0100
0000
0000
0000
,
1001
0110
1001
0110
,
1010
0000
0100
0010
0100
0010
0100
1000
0100
1000
0100
0000
0101
0000
0100
0000
,
1001
0000
0110
2000
0010
3100
0010
2000
,
0100
3010
0001
0200
0010
1300
0100
0020
,
0001
0130
1000
0020
0100
0031
1010
0100
,
0010
0100
0110
1000
0010
0110
0110
0110
,
0110
0000
1000
0200
0010
0301
0100
2000
,
0100
3010
0001
0200
1000
0310
0100
0002
,
1000
0103
0010
0110
1000
0010
0110
0110
,
1000
0000
0010
0000
0100
0000
0001
0000
0100
0010
0100
0010
0100
0010
0100
0000
,
0110
0000
1001
0200
0010
0301
0010
2000
,
0100
3010
0001
0200
1000
0310
0010
0200
,
1000
0301
0100
2000
0100
3010
0001
0200
,
0010
1300
0100
0010
0000
1001
1001
1001
,
0001
0100
0010
1000
0100
0010
0001
1000
,
0100
0000
0010
0000
0010
0000
0100
0000
0100
0000
0010
0100
0010
0100
0010
0000
,
1001
0000
0100
0010
0100
0000
0100
0010
1000
0000
0100
1000
0010
0000
0001
0000
,
0100
0010
0100
0010
0100
0010
0100
1000
0100
1000
0100
1000
0001
1000
0001
1000
,
0001
0100
0010
0020
1000
1030
0100
0200
,
0010
0310
1000
2000
0001
3001
0100
0200
,
0010
0310
1000
0200
0010
0301
0100
0200
,
0010
0310
1000
1000
0001
0001
0100
0100
,
0010
1000
0010
0020
0100
0130
1000
0200
,
0010
0301
0100
0020
1000
0031
0100
2000
,
0100
3010
0001
0100
0002
0100
1000
0103
,
0010
0100
0010
0100
0010
0110
0110
0110
,
0110
1000
0100
0010
0110
0100
0110
0100
,
0101
0100
1100
0100
0101
0100
1100
0100
,
0101
1000
1100
0100
0101
0100
0110
0100
,
0101
0100
1100
0100
0010
0110
0110
0110
,
1000
0100
0010
0001
0110
0000
0100
0010
,
0110
0000
1000
0010
1010
0000
0100
0001
,
0101
0000
1000
0010
1010
0000
0100
0010
,
0100
0010
1000
0001
0100
0010
1000
0100
0010
0100
0001
0100
,
1001
0000
0000
1001
0000
0000
2002
0000
0000
0000
0000
0000
0000
0000
0000
0000
,
0000
0000
0000
0000
,
0000
0000
0000
0000
,
0000
0000
0000
0000
,
3003
0000
0000
0000
;

//---------------dance-single - ----------------
#NOTES:
     dance-single:
     :
     Medium:
     12:
     0.502,0.649,0.151,0.344,0.005:
0000
0000
0000
0000
,
0000
1000
0010
0100
,
0010
1000
0100
0010
,
0001
0000
1000
0000
0010
0000
1000
0001
,
1000
0000
0010
0010
,
0100
1000
0100
0010
,
0001
1000
0010
0100
,
0001
0000
0100
0000
0010
0000
0001
1000
,
0001
0100
0010
0000
,
1000
1000
0100
0100
,
0010
0010
0001
0001
,
0010
0010
0100
0100
,
1000
0000
1000
0000
0001
0000
0000
1001
,
0000
0100
0010
0100
,
1000
0001
1000
0001
1000
0001
1000
0001
,
1000
0000
0001
0000
0100
0001
0100
0000
,
1000
0010
1000
0010
1000
0010
1000
0000
,
0010
0100
0010
0000
0100
0001
0100
0000
,
0010
1000
0010
1000
0010
1000
0010
0000
,
0100
0010
0100
0010
0000
0100
0000
0001
,
1000
0100
0010
0100
,
1000
0010
1000
0010
0000
0100
0000
0010
,
0000
0100
0001
0100
0000
0010
1000
0000
,
0010
0100
0010
0100
0000
0001
0000
1000
,
0000
0100
0000
0010
0000
0001
0100
0000
,
1000
0100
0010
0100
0000
0001
0000
0100
,
0000
0010
0000
1001
0000
0000
0000
0100
,
0010
0100
0010
0100
0010
1000
0000
0100
,
0000
0010
0000
0001
0000
0100
0001
0000
,
1000
0010
0100
0010
0000
1000
0000
0100
,
0000
0010
0000
0100
0000
0001
0100
0000
,
1000
0100
0010
0001
0000
0100
0000
0010
,
0000
1000
0000
0100
0000
0010
0100
0000
,
0010
0000
1000
0100
0010
0000
0001
0000
,
0001
0010
0100
1000
0100
0010
0001
0000
,
0100
0000
0010
2000
0000
0000
3001
0200
,
0000
0000
0301
2000
0000
0000
3010
0002
,
0000
0000
0103
0020
0000
0000
1030
0002
,
0000
0000
1000
1000
,
1003
0000
0100
0020
0000
0000
1030
0020
,
0000
0000
0130
0002
0000
0000
1003
0020
,
0000
0000
0130
2000
0000
0000
3010
0200
,
0000
0000
0001
0001
,
0301
0000
1000
0002
0000
0000
0103
0020
,
0000
0000
0031
0200
0000
0000
0310
2000
,
0000
0000
3010
0200
0000
0000
0301
0020
,
0000
0000
0000
0000
0030
0100
0001
0200
,
0000
0000
0000
0000
,
1000
1000
1000
1000
,
1000
0000
0001
0001
,
0002
0000
0000
0000
,
0303
1000
0010
0200
,
0310
0100
0010
0200
,
0301
1000
0010
0002
,
1003
0000
0100
0100
,
0100
0010
1000
0010
,
0002
0103
0010
1000
,
0002
1003
0100
0010
,
2000
3100
0010
0100
,
1000
1001
0101
0110
,
1100
0110
0011
0101
,
0110
1100
0110
0011
,
0100
0001
0100
0001
0100
0010
1000
0010
,
2000
0000
0001
0000
,
3020
0000
0100
0000
,
0032
0000
0010
0000
,
0203
0000
1000
0000
,
0310
0000
0000
0100
0000
0000
2002
0000
0000
0000
0000
0000
0000
0000
0000
0000
,
0000
0000
0000
0000
,
0000
0000
0000
0000
,
0000
0000
0000
0000
,
3003
0000
0000
0000
;

//---------------dance-single - ----------------
#NOTES:
     dance-single:
     :
     Easy:
     6:
     0.353,0.382,0.226,0.387,0.000: // measure 1
0000
0000
0000
0000
,  // measure 2
0000
1000
0100
0010
,  // measure 3
0001
1000
0001
0100
,  // measure 4
0010
1000
0001
1000
,  // measure 5
0001
0000
0000
0000
,  // measure 6
0000
0010
0100
0010
,  // measure 7
1000
0100
0001
0100
,  // measure 8
1000
0010
0001
1000
,  // measure 9
0001
0000
0000
0000
,  // measure 10
1000
0100
0010
0000
,  // measure 11
0001
0010
0100
0000
,  // measure 12
1000
0001
1000
0000
,  // measure 13
0001
0000
1000
0000
0001
0000
0000
1001
,  // measure 14
0000
0100
0010
0100
,  // measure 15
0010
0010
1000
0000
,  // measure 16
0001
1000
0100
0010
,  // measure 17
0010
0001
0100
1001
,  // measure 18
0000
0100
1000
0100
,  // measure 19
0010
0001
0100
1010
,  // measure 20
0100
0010
0100
0001
,  // measure 21
1000
0100
0001
0000
,  // measure 22
0010
1000
0100
0010
,  // measure 23
0100
0001
1001
0000
,  // measure 24
0010
0100
1000
0100
,  // measure 25
0010
0100
1001
0000
,  // measure 26
0001
0010
0100
0010
,  // measure 27
1000
0010
1001
0000
,  // measure 28
0100
0010
0001
0100
,  // measure 29
0001
1000
0110
0000
,  // measure 30
0001
0100
1000
0100
,  // measure 31
0010
0100
1001
0000
,  // measure 32
0010
0001
0100
1000
,  // measure 33
0100
0010
1000
0010
,  // measure 34
0011
0100
0001
1000
,  // measure 35
0002
0000
0000
0000
,  // measure 36
1003
0020
0000
0230
,  // measure 37
0000
0320
0000
2030
,  // measure 38
0000
3002
0000
0203
,  // measure 39
0000
0000
0000
0000
,  // measure 40
0000
0320
0000
2030
,  // measure 41
0000
3002
0000
0203
,  // measure 42
0000
0320
0000
0032
,  // measure 43
0000
0000
0000
0000
,  // measure 44
0000
2003
0000
3200
,  // measure 45
0000
0320
0000
2030
,  // measure 46
0000
3200
0000
0302
,  // measure 47
0000
0000
0000
0000
,  // measure 48
2000
0000
0000
0000
,  // measure 49
3003
0000
0000
0000
,  // measure 50
0110
0000
0000
0000
,  // measure 51
0220
0000
0000
0000
,  // measure 52
0330
2000
0000
3020
,  // measure 53
0000
0230
0000
0302
,  // measure 54
0000
2003
0000
3020
,  // measure 55
0000
0000
0000
0000
,  // measure 56
0000
0230
0000
0302
,  // measure 57
0000
2003
0000
3020
,  // measure 58
0000
0230
0000
0302
,  // measure 59
0000
0000
0000
0000
,  // measure 60
1003
0100
0010
0001
,  // measure 61
0100
0010
1000
0010
,  // measure 62
0100
0010
1000
0001
,  // measure 63
0100
0010
1000
0010
,  // measure 64
1001
0000
0110
0000
,  // measure 65
1100
0000
0110
0000
,  // measure 66
0011
0000
0110
0000
,  // measure 67
1100
0000
0011
0000
,  // measure 68
0110
0000
0000
2002
0000
0000
0000
0000
,  // measure 69
0000
0000
0000
0000
,  // measure 70
0000
0000
0000
0000
,  // measure 71
0000
0000
0000
0000
,  // measure 72
3003
0000
0000
0000
;

//---------------dance-single - ----------------
#NOTES:
     dance-single:
     :
     Beginner:
     4:
     0.207,0.267,0.108,0.097,0.000: // measure 1
0000
0000
0000
0000
,  // measure 2
0000
1000
1000
1000
,  // measure 3
1000
0000
0010
0010
,  // measure 4
0010
0000
0001
0001
,  // measure 5
0001
0000
0000
0000
,  // measure 6
0000
1000
1000
1000
,  // measure 7
1000
0000
0010
0010
,  // measure 8
0010
0000
0001
0001
,  // measure 9
0001
0000
0000
0000
,  // measure 10
1000
0000
1000
0000
,  // measure 11
1000
0000
1000
0000
,  // measure 12
0100
0000
0100
0000
,  // measure 13
0100
0000
0100
0000
,  // measure 14
0000
0100
0010
0100
,  // measure 15
0000
0010
0100
0010
,  // measure 16
0000
1000
0000
1000
,  // measure 17
0000
0010
0000
0001
,  // measure 18
0000
0100
0000
0010
,  // measure 19
0000
1000
0000
0000
,  // measure 20
1001
0000
0100
0000
,  // measure 21
0010
0000
0010
0000
,  // measure 22
0001
0000
0001
0000
,  // measure 23
1000
0000
1000
0000
,  // measure 24
0001
0000
0001
0000
,  // measure 25
0100
0000
0010
0000
,  // measure 26
1000
0000
1000
0000
,  // measure 27
0001
0000
1001
0000
,  // measure 28
0100
0000
0100
0000
,  // measure 29
0100
0000
0000
0000
,  // measure 30
0010
0000
0010
0000
,  // measure 31
0010
0000
0000
0000
,  // measure 32
1000
0000
1000
0000
,  // measure 33
1000
0000
0001
0000
,  // measure 34
0001
0000
0000
0000
,  // measure 35
2002
0000
0000
0000
,  // measure 36
3003
0000
0100
0000
,  // measure 37
0100
0000
0010
0000
,  // measure 38
0010
0000
1000
0000
,  // measure 39
2000
0000
0000
0000
,  // measure 40
3000
0000
0100
0000
,  // measure 41
0010
0000
0001
0000
,  // measure 42
0010
0000
0100
0000
,  // measure 43
0002
0000
0000
0000
,  // measure 44
0003
0000
0010
0000
,  // measure 45
1000
0000
0010
0000
,  // measure 46
0001
0000
0010
0000
,  // measure 47
0200
0000
0000
0000
,  // measure 48
0300
0000
1000
0000
,  // measure 49
0001
0000
1000
0000
,  // measure 50
0001
0000
0000
0000
,  // measure 51
1001
0000
0000
0000
,  // measure 52
0110
0000
0000
0010
,  // measure 53
0000
0010
0000
0010
,  // measure 54
0000
1000
0000
2000
,  // measure 55
0000
0000
0000
0000
,  // measure 56
3000
0000
0010
0000
,  // measure 57
0010
0000
0010
0000
,  // measure 58
0001
0000
0001
0000
,  // measure 59
0002
0000
0000
0000
,  // measure 60
0003
0000
1000
0000
,  // measure 61
0100
0000
0010
0000
,  // measure 62
0001
0000
0010
0000
,  // measure 63
0100
0000
1000
0000
,  // measure 64
1001
0000
0000
0000
,  // measure 65
0110
0000
0000
0000
,  // measure 66
1001
0000
0000
0000
,  // measure 67
0110
0000
0000
0000
,  // measure 68
2002
0000
0000
0000
,  // measure 69
0000
0000
0000
0000
,  // measure 70
0000
0000
0000
0000
,  // measure 71
0000
0000
0000
0000
,  // measure 72
3003
0000
0000
0000
;
