#TITLE:My Dearest;
#SUBTITLE:ギルティクラウン OP1;
#ARTIST:supercell;
#TITLETRANSLIT:;
#SUBTITLETRANSLIT:Guilty Crown OP1;
#ARTISTTRANSLIT:;
#GENRE:ENCORE STANDARD ROUTE BEAT#2;
#CREDIT:;
#BANNER:My Dearest.png;
#BACKGROUND:My Dearest-bg.png;
#LYRICSPATH:;
#CDTITLE:cdtitle.png;
#MUSIC:My Dearest.mp3;
#MENUCOLOR:0,1,1,1;
#METERTYPE:DDR X;
#OFFSET:1.025;
#SAMPLESTART:68.426;
#SAMPLELENGTH:12.000;
#SELECTABLE:YES;
#BPMS:0.000=168.000;
#STOPS:28.000=1.429
;
#BGCHANGES:;

//---------------dance-single - ----------------
#NOTES:
     dance-single:
     :
     Hard:
     15:
     0.683,0.866,0.677,0.194,0.070:
0000
0000
0000
0000
,
1000
0000
0001
0100
0000
0010
0000
1000
,
0000
0100
0000
0020
0000
0000
0031
0000
,
1000
0000
0010
0100
0000
0001
0000
1000
,
0000
0100
2000
0000
0000
3001
0000
0000
,
2000
0000
0010
0010
,
0001
0100
0010
0001
,
0002
3003
0000
0000
0100
0000
0010
0000
0200
0000
0000
0000
0020
0000
0330
0000
,
0110
0000
0000
0000
1000
0000
0010
0000
1000
0000
0010
0000
0100
0000
0010
0001
,
0100
1000
0010
0001
1000
0001
1000
0001
,
1000
0000
0001
0000
0100
0000
0010
0000
0100
0000
0001
0000
1000
0000
0100
1000
,
0010
1000
0001
0100
0010
1000
0100
0010
,
0001
0000
1000
0000
0100
0000
0010
0000
1000
0000
0010
0000
1000
0000
0001
0100
,
0010
1000
0001
0100
0001
1000
0001
0100
,
0011
1000
0010
1100
0010
0101
0010
0100
,
0001
0010
1000
0000
0010
0000
0001
0000
0100
0000
0010
0000
0100
0000
0000
0000
,
0002
0100
0010
0010
,
1000
0000
1000
0000
0100
0000
0010
0203
,
1000
1000
0010
0010
,
0001
0010
0001
0001
,
0320
1000
1000
0001
,
0001
0000
1000
0000
0100
0000
0031
0200
,
1000
1000
0010
0010
,
0001
0010
0010
0001
,
0320
0001
0001
1000
,
1000
0001
0001
0100
,
2030
0100
0100
0001
,
0001
0000
0010
0000
0010
0000
3010
0100
,
0002
0100
0100
0010
,
0010
1000
1000
0100
,
2000
0000
3003
0100
,
0010
0000
1000
0010
0000
0100
0001
0000
,
1010
0000
0100
0010
0000
0001
0000
0100
,
0000
0010
0000
1000
0000
0010
0000
0100
,
0010
0000
0010
1000
0000
0100
0000
0010
,
1000
0100
0010
0000
0001
0100
0010
0000
,
1100
0000
0100
0010
0000
1000
0100
0010
,
0000
0001
0000
0100
0000
0010
0000
1000
,
0010
0000
0100
0010
0000
1000
0100
0001
,
0010
0100
1000
0000
0010
0100
0010
0000
,
1001
1000
0001
1000
0001
1000
0001
1000
,
1001
1000
1001
1001
1001
1001
1001
1001
,
1001
0100
0001
0100
0010
0100
0010
0100
,
0110
0100
0110
0110
0110
0110
0110
0110
,
0110
0000
1000
0001
0100
0000
0100
0010
0100
0000
1000
0001
0100
0000
0100
0010
,
0001
0000
0100
1000
0010
0000
1000
0010
0100
0000
0100
0001
0100
0000
1000
0010
,
0100
1000
0100
0001
0100
0010
1000
2002
,
0000
0000
0000
0000
0000
0000
0000
3003
,
0110
0100
0001
0101
0100
0100
0110
1000
,
1000
1100
0100
0100
0101
0100
0110
0110
,
1001
1001
0100
0110
0100
0001
0110
0100
,
0010
1010
0100
1010
0100
0110
0100
0100
,
0110
0100
1000
1100
0100
0010
0100
0101
,
0010
0100
0110
1000
1100
0100
0110
0110
,
0110
0010
0001
0011
0100
0010
0110
1000
,
0100
0000
0011
0000
0100
0000
0010
0000
0110
0000
0100
0000
0100
0001
0100
0000
,
0110
1000
0100
0110
0100
0001
0101
1000
,
0010
1010
1000
0100
0101
0001
0011
0010
,
0110
1000
0100
1010
0100
0010
0101
0100
,
0010
1010
1000
0100
0110
0100
0101
1000
,
2002
0000
0000
0000
,
0000
0000
0000
0000
,
3003
0000
0000
0000
;

//---------------dance-single - ----------------
#NOTES:
     dance-single:
     :
     Medium:
     11:
     0.381,0.567,0.172,0.161,0.000:
0000
0000
0000
0000
,
1000
0000
0000
0001
0000
0000
0000
0000
,
0100
0010
0100
0000
,
0001
0000
0000
1000
0000
0000
0000
0000
,
0010
0100
0010
0000
,
2000
0000
0000
0000
,
0001
0000
0000
0000
,
0002
3003
0000
0000
0010
0000
0200
0000
,
0310
1000
0001
1000
,
0010
0100
0001
0001
,
1000
0100
0010
1000
,
1001
0100
0010
0001
,
0010
0100
1000
0010
,
0110
1000
0001
1000
,
1001
0000
0000
0010
0000
0100
0000
0000
,
1000
0100
0001
0100
,
2000
0000
0001
0000
,
0010
0000
0000
0000
0001
3000
0001
1000
,
0002
0000
0100
0000
,
0010
0000
1000
0000
,
0203
0000
0010
0000
,
0001
0000
0000
0000
1300
0000
0010
0100
,
0020
0000
1000
0000
,
0001
0000
0100
0000
,
2030
0000
0010
0000
,
0001
0000
0010
0000
,
3002
0000
0100
0000
,
0010
0000
0010
0000
,
0203
0000
1000
0000
,
0010
0000
0001
0000
,
0320
0000
1000
0000
,
0001
0000
0000
0000
1030
0001
1000
0000
,
0010
0000
0100
0010
0000
1000
0000
0100
,
0000
0001
0000
0100
0000
0010
0000
1000
,
0001
0000
0001
1000
0000
0010
0000
0100
,
0000
0010
0100
0000
0010
0000
0000
0000
,
1001
0000
0100
0010
0000
0001
0000
1000
,
0000
0100
0000
0010
0000
0001
0000
1000
,
0001
0000
0010
0100
0000
1000
0000
0100
,
0000
0010
0100
0000
0001
0000
0000
0000
,
1001
0000
1000
0001
1000
0001
1000
0001
,
1000
0001
1000
0001
1000
0001
1000
0001
,
1000
0000
0010
0100
0010
0100
0010
0100
,
0010
0100
0010
0100
0010
0100
0010
0100
,
0100
1001
0101
0110
,
1100
0110
0011
0101
,
1010
0000
0100
0001
0000
1000
0000
0010
,
0000
0100
0002
0000
0000
0000
0000
0000
,
1003
0000
0010
0100
0000
0010
0000
1000
,
0000
0100
0000
0010
0000
0100
0000
0001
,
1000
0000
0100
0010
0000
0000
0001
0000
,
0100
0001
1000
0000
0100
0000
0000
0000
,
0110
0000
1000
0100
0000
0001
0000
0100
,
0000
0010
0000
1000
0000
0100
0000
0010
,
0100
0000
0010
0100
0000
0001
1000
0001
,
0000
0100
0010
0000
1000
0000
0100
0000
,
1001
0000
0100
0010
0000
0001
0000
0100
,
0000
0001
0000
2000
0000
0000
3001
0000
,
0100
0000
0010
0100
0000
0010
0000
1000
,
0000
0100
0010
0000
0001
1000
0000
0000
,
2002
0000
0000
0000
,
0000
0000
0000
0000
,
3003
0000
0000
0000
;

//---------------dance-single - ----------------
#NOTES:
     dance-single:
     :
     Easy:
     7:
     0.252,0.300,0.054,0.172,0.000: // measure 1
0000
0000
0000
0000
,  // measure 2
1000
0000
0000
0100
0000
0000
0000
0010
,  // measure 3
0000
0010
0000
0010
0000
0000
0000
0000
,  // measure 4
0001
0000
0000
1000
0000
0000
0000
0010
,  // measure 5
0000
0010
0000
0000
,  // measure 6
0002
0000
0000
0000
,  // measure 7
0000
0000
0000
0000
,  // measure 8
2000
0000
0000
0000
,  // measure 9
3003
0100
0010
0100
,  // measure 10
0010
0000
1000
1000
,  // measure 11
1000
0100
0010
0001
,  // measure 12
1000
0000
0010
0010
,  // measure 13
0010
1000
0100
0010
,  // measure 14
0001
0000
0010
0010
,  // measure 15
0001
0000
0000
1001
0000
1001
0000
0000
,  // measure 16
0100
0010
0100
0000
,  // measure 17
0020
0000
0001
0000
,  // measure 18
0001
0000
0001
0000
,  // measure 19
0230
0000
1000
0000
,  // measure 20
1000
0000
1000
0000
,  // measure 21
2300
0000
0100
0000
,  // measure 22
0100
0000
0100
0000
,  // measure 23
3002
0000
0010
0000
,  // measure 24
0010
0000
0010
0000
,  // measure 25
0203
0000
0010
0000
,  // measure 26
0320
0000
1000
0000
,  // measure 27
2030
0000
0000
0000
0100
0000
0000
3000
,  // measure 28
0020
0000
0001
0000
,  // measure 29
0032
0000
0010
0000
,  // measure 30
0203
0000
1000
0000
,  // measure 31
0002
0000
0000
0000
,  // measure 32
0303
0000
0000
0000
,  // measure 33
1001
0000
0100
0010
0000
0000
0000
0000
,  // measure 34
0010
0000
0100
0010
,  // measure 35
0100
0000
0000
1000
0000
0000
0000
0100
,  // measure 36
0000
0010
0000
0000
,  // measure 37
1001
0000
0000
0100
0000
0000
0000
0010
,  // measure 38
0000
0000
0000
0001
0000
0000
1000
0000
,  // measure 39
0001
0000
0000
0100
0000
0000
0000
0010
,  // measure 40
0000
0100
0000
0000
,  // measure 41
0001
0000
0000
1000
0000
0010
0000
0000
,  // measure 42
0100
0000
0010
0100
,  // measure 43
0010
0000
0000
1000
0000
0000
0000
0000
,  // measure 44
0001
1000
0001
0000
,  // measure 45
0100
0000
0000
0100
0000
0000
0100
0000
,  // measure 46
0010
0000
0000
0010
0000
0000
0010
0000
,  // measure 47
0001
0000
0000
1000
0000
0000
0000
1000
,  // measure 48
0000
0002
0000
0000
,  // measure 49
1003
0000
0000
0100
0000
0000
0000
0010
,  // measure 50
0000
0001
0000
0000
0100
0000
0010
0000
,  // measure 51
1000
0000
0100
0010
,  // measure 52
0000
0100
0000
0000
0001
0000
1000
0000
,  // measure 53
0001
0000
0000
0100
0000
0000
0010
0000
,  // measure 54
0000
1000
0000
0000
0001
0000
1000
0000
,  // measure 55
0001
0000
0000
0100
0000
0000
0010
0000
,  // measure 56
0000
0100
0000
0000
0010
0000
0100
0000
,  // measure 57
0010
0000
0000
1000
0000
0000
0001
0000
,  // measure 58
0000
1000
0000
0000
0001
0000
1000
0000
,  // measure 59
0001
0000
0000
0100
0000
0000
0001
0000
,  // measure 60
0000
0010
0000
0000
0100
0000
0001
0000
,  // measure 61
2002
0000
0000
0000
,  // measure 62
0000
0000
0000
0000
,  // measure 63
3003
0000
0000
0000
;

//---------------dance-single - ----------------
#NOTES:
     dance-single:
     :
     Beginner:
     4:
     0.167,0.233,0.011,0.161,0.000: // measure 1
0000
0000
0000
0000
,  // measure 2
1000
0000
0000
0000
,  // measure 3
0001
0000
0000
0000
,  // measure 4
0010
0000
0000
0000
,  // measure 5
0100
0000
0000
0000
,  // measure 6
0002
0000
0000
0000
,  // measure 7
0000
0000
0000
0000
,  // measure 8
0000
0000
2000
0000
,  // measure 9
3003
0000
0100
0000
,  // measure 10
0010
0000
1000
0000
,  // measure 11
0001
0000
0100
0000
,  // measure 12
0010
0000
1000
0000
,  // measure 13
0001
0000
1000
0000
,  // measure 14
0001
0000
1000
0000
,  // measure 15
0010
0000
0100
0000
,  // measure 16
0100
0000
0001
0000
,  // measure 17
2000
0000
0001
0000
,  // measure 18
0000
0000
0000
0000
,  // measure 19
3020
0000
0100
0000
,  // measure 20
0000
0000
0000
0000
,  // measure 21
0230
0000
0001
0000
,  // measure 22
0000
0000
0000
0000
,  // measure 23
0302
0000
1000
0000
,  // measure 24
0000
0000
0000
0000
,  // measure 25
0203
0000
1000
0000
,  // measure 26
0000
0000
0000
0000
,  // measure 27
0320
0000
0001
0000
,  // measure 28
0000
0000
0000
0000
,  // measure 29
2030
0000
0001
0000
,  // measure 30
0000
0000
0000
0000
,  // measure 31
3002
0000
0100
0000
,  // measure 32
0000
0000
0000
0000
,  // measure 33
1003
0000
0100
0000
,  // measure 34
0010
0000
0010
0000
,  // measure 35
0001
0000
1000
0000
,  // measure 36
0002
0000
0000
0000
,  // measure 37
1003
0000
0100
0000
,  // measure 38
0010
0000
0001
0000
,  // measure 39
1000
0000
0100
0000
,  // measure 40
0020
0000
0000
0000
,  // measure 41
1030
0000
0100
0000
,  // measure 42
0001
0000
1000
1000
,  // measure 43
1000
0000
0010
0000
,  // measure 44
0100
0000
0001
0001
,  // measure 45
0001
0000
1000
0000
,  // measure 46
0001
0000
1000
0000
,  // measure 47
0001
0000
1000
0000
,  // measure 48
2002
0000
0000
0000
,  // measure 49
3003
0000
0100
0000
,  // measure 50
0000
0000
0010
0010
,  // measure 51
0010
0000
1000
0000
,  // measure 52
0000
0000
0001
0001
,  // measure 53
0001
0000
0000
0000
,  // measure 54
0000
0000
0100
0100
,  // measure 55
0100
0000
0000
0000
,  // measure 56
0000
0000
0001
0001
,  // measure 57
0001
0000
1000
0000
,  // measure 58
0100
0100
0100
0000
,  // measure 59
0010
0000
0000
0001
,  // measure 60
0001
0001
0001
0001
,  // measure 61
0002
0000
0000
0000
,  // measure 62
0000
0000
0000
0000
,  // measure 63
0003
0000
0000
0000
;
