#TITLE:M3;
#SUBTITLE:;
#ARTIST:Ryu☆;
#TITLETRANSLIT:;
#SUBTITLETRANSLIT:;
#ARTISTTRANSLIT:Ryu*;
#CREDIT:;
#GENRE:TRANCE;
#BANNER:M3.png;
#BACKGROUND:M3-bg.png;
#LYRICSPATH:;
#CDTITLE:cdtitle.png;
#MUSIC:M3.mp3;
#METERTYPE:DDR X;
#MENUCOLOR:0.4375,0.625,0,1;
#OFFSET:-0.493;
#SAMPLESTART:30.289;
#SAMPLELENGTH:12.000;
#SELECTABLE:YES;
#BPMS:0.000=145.000;
#STOPS:;
#BGCHANGES:;

//---------------dance-single - ----------------
#NOTES:
     dance-single:
     :
     Hard:
     16:
     0.747,0.886,0.722,0.225,0.455:
0000
0000
0000
0000
,
0000
0000
0000
0000
,
2002
0003
3020
0000
,
0230
0000
0302
0000
,
2003
0000
3020
0230
,
0302
0000
2003
0000
,
3200
0000
0320
0000
,
0230
0000
0302
0000
,
2003
0000
3020
0000
,
0230
0000
0000
0000
0001
0000
0001
0300
,
1001
0000
0000
0000
0100
0000
0000
0000
0110
0000
0000
0000
1000
0010
0000
0010
,
1000
0000
0000
0000
0100
0000
0000
0000
0010
0000
0100
0000
0010
1000
0010
1000
,
0010
0000
0000
0000
0100
0000
0000
0000
0010
0000
0000
0000
1000
0010
0000
0010
,
1000
0000
0000
0000
0100
0000
0000
0000
0010
0000
0010
0000
1000
0010
1000
0010
,
1000
0000
0100
0000
0010
0000
0100
0000
0001
0000
0100
0000
0010
0100
0010
0100
,
0010
0000
0100
0000
0010
0000
0100
0000
0001
0010
0001
0010
0100
0010
0100
0010
,
0100
0010
0000
0010
0100
0010
0100
0010
0100
0010
0000
1000
0010
1000
0010
1000
,
0010
0100
0010
0100
0010
0000
0100
0001
0100
0000
0100
0010
0100
0000
0100
0002
,
2000
0000
0000
3003
,
0100
0000
0100
0000
0010
0100
0000
0100
0000
0010
0000
1000
0010
0000
0100
0000
,
0110
0000
0010
0000
0100
0000
0010
0000
0100
0000
0010
0000
0100
0010
0000
0010
,
0100
0000
0100
0000
0010
0000
1000
0000
0100
0000
0100
0000
0010
0100
0010
0100
,
0110
0000
1000
0000
0100
0000
0010
0000
0001
0000
0100
0000
0010
0100
0010
0100
,
1001
0000
0100
0000
0010
0000
0100
0000
1001
0000
0100
0000
0100
0010
0100
0010
,
0101
0100
0010
0100
0110
0100
0010
0100
,
0110
0000
0110
0000
0110
0000
0110
0110
0000
0110
0000
0110
0110
0000
0110
0000
,
1001
0000
0000
1001
0000
0000
1001
0000
1001
0000
0000
1001
0000
0000
1001
0000
,
0001
1000
0001
1000
0001
1000
0001
1000
0002
0000
0000
0000
0003
0000
0000
0000
,
0110
0000
0100
0000
1000
0000
0100
0000
0010
0100
0010
0000
0001
1000
0001
0000
,
1000
0000
0100
0000
0010
0000
0001
0000
1000
0001
1000
0000
0001
1000
0001
0000
,
0100
0000
1000
0000
0100
0000
0010
0000
0001
0100
0001
0000
0010
1000
0010
0000
,
1000
0000
0100
0000
0010
0000
0001
0000
1000
0010
1000
0000
0001
0100
0001
0000
,
1001
1000
0010
0010
0100
0100
0010
0010
,
1001
0100
0010
0100
0001
1000
0100
0010
,
0110
1000
0001
0100
0101
1000
0100
0010
,
0110
0000
0000
0000
0000
0000
0000
0000
0110
0110
0000
0110
0110
0000
0110
0000
,
0110
0000
0100
0000
0110
0000
0100
0010
0000
0010
0100
0000
0011
0000
0100
0000
,
0110
0000
0100
0000
0110
0000
0100
0010
0000
0001
0100
0000
1100
0000
0100
0000
,
1100
0000
0100
0000
0110
0000
0100
0001
0000
0001
0100
0000
0110
0000
0100
0000
,
0101
0000
0100
0000
1100
0000
0010
0001
0000
0010
0100
0000
0110
0000
0100
0000
,
0101
0000
0100
0000
0101
0000
0100
0010
0000
1000
0001
0000
0001
0100
0000
1000
,
0001
0000
0001
0000
0101
0000
0100
0001
0000
1000
0100
0000
0001
0100
0010
0001
,
0100
0000
0001
0000
0101
0000
0001
0100
0000
0100
0001
0000
0001
0100
0000
0010
,
1001
0000
0000
0000
1001
0000
0100
0000
0010
0110
0000
0100
0110
0000
0100
0000
,
1001
0000
0100
0000
0010
0000
0100
0000
0010
0000
1000
0000
0010
0100
0000
0100
,
0010
0000
1000
0000
0001
0000
0100
0000
0010
0000
0010
0000
1000
0010
1000
0010
,
0110
0000
1000
0000
0001
0000
0100
0000
0010
0000
1000
0000
0010
1000
0010
1000
,
1010
0000
1000
0000
0100
0000
0010
0000
0110
0000
1000
0000
0100
0010
0100
0010
,
0110
1000
0001
0001
1001
0001
0001
0001
,
1001
0000
0001
0000
1001
0000
0010
1010
0000
1010
0000
0010
1010
0000
1010
0000
,
1010
0000
0000
1010
0000
0000
1010
0000
1010
0000
0000
1010
0000
0000
1010
0000
,
0010
1000
0010
0100
0010
0001
0010
0100
2002
0000
0000
0000
0000
0000
3003
0000
,
0110
0100
0010
0001
0100
0100
0010
0100
,
1000
0100
0010
0001
0001
1000
1000
0010
,
0110
0100
0010
0100
0010
1000
0010
0100
,
0010
0010
1000
0001
0100
0010
1000
1000
,
0010
1000
0100
0010
0001
0001
0100
0100
,
0010
0010
1000
0100
0010
0001
0100
0010
,
0010
0010
0010
0010
1000
1000
1000
1000
,
0001
0001
0001
0001
0100
0100
0010
0100
,
2002
0000
0000
0000
,
0000
0000
0000
0000
,
0000
0000
0000
0000
,
3003
0000
0000
0000
;

//---------------dance-single - ----------------
#NOTES:
     dance-single:
     :
     Medium:
     12:
     0.632,0.650,0.347,0.216,0.347: // measure 1
0000
0000
0000
0000
,  // measure 2
0000
0000
0000
0000
,  // measure 3
2001
0000
3020
0000
,  // measure 4
0230
0000
0302
0000
,  // measure 5
0023
0000
0230
0320
,  // measure 6
2030
0000
3200
0000
,  // measure 7
0320
0000
0032
0000
,  // measure 8
0023
0000
0230
0000
,  // measure 9
0320
0000
2030
0000
,  // measure 10
3002
0000
0000
0000
,  // measure 11
1003
0000
0000
0000
0010
0000
0000
0000
0100
0000
0000
0000
1000
0100
0000
0010
,  // measure 12
0001
0000
0000
0000
0100
0000
0000
0000
0001
0000
0100
0000
0010
0001
0000
0001
,  // measure 13
0100
0000
0000
0000
0010
0000
0000
0000
1000
0000
0000
0000
0001
1000
0000
1000
,  // measure 14
0001
0000
0000
0000
0100
0000
0000
0000
0010
0000
1000
0000
0010
0100
0000
0100
,  // measure 15
0010
0000
1000
0000
0100
0000
0010
0000
0001
0000
0100
0000
0010
1000
0000
0010
,  // measure 16
0100
0000
0010
0000
0100
0000
0001
0000
1000
0010
1000
0000
0010
0100
0010
0000
,  // measure 17
0100
0000
1000
0001
1000
0000
0010
0000
0001
0010
0100
0000
1000
0000
0100
0000
,  // measure 18
0010
0100
0010
0000
1000
0001
1000
0000
0001
1000
0001
0000
0010
0000
0000
0000
,  // measure 19
2002
0000
0000
3003
,  // measure 20
1000
0000
0100
0000
0010
0001
0000
1000
0000
0001
0000
0100
1000
0000
0001
0000
,  // measure 21
0101
0000
0000
0000
1000
0000
0010
0000
0100
0000
0010
0000
1000
0100
0000
0100
,  // measure 22
0010
0000
0100
0000
0010
0000
1000
0000
0100
0000
0010
0000
0100
0010
0000
0010
,  // measure 23
0001
0000
0100
0000
1000
0000
0100
0000
0010
0000
0001
0000
1000
0010
0000
0010
,  // measure 24
1000
0100
0010
0001
0101
1000
0010
0100
,  // measure 25
0110
1000
0100
0010
0001
0100
0010
0100
,  // measure 26
0110
0000
1000
0000
0100
0000
0001
0010
0000
0010
0000
0001
0100
0000
0010
0000
,  // measure 27
1010
0000
0000
0110
0000
0000
0010
0000
0110
0000
0000
0101
0000
0000
1000
0000
,  // measure 28
0110
0000
0000
1000
0100
0000
0010
0001
0000
0010
0100
0000
1000
0000
0001
0000
,  // measure 29
1001
0100
0010
0100
0001
0001
0100
0100
,  // measure 30
0010
1000
0100
0010
1000
1000
0010
0010
,  // measure 31
0100
0001
0100
0010
0100
0100
0010
0010
,  // measure 32
1000
0001
0100
0010
0100
0100
0010
0010
,  // measure 33
1001
0100
0010
0100
0001
0100
0010
0100
,  // measure 34
0101
1000
0100
0010
0001
0100
0010
0001
,  // measure 35
0011
0100
0001
0100
0101
1000
0001
0100
,  // measure 36
2010
0000
0000
0000
0000
0000
0000
0000
3010
0100
0000
0100
0010
0000
0100
0000
,  // measure 37
0110
0000
1000
0000
0100
0000
0001
0100
0000
1000
0010
0000
0100
0000
0100
0000
,  // measure 38
0010
0000
1000
0000
0100
0000
0010
1000
0000
0100
0001
0000
0100
0000
0100
0000
,  // measure 39
0010
0000
1000
0000
0100
0000
0001
0100
0000
1000
0010
0000
0010
0000
0001
0000
,  // measure 40
0100
0000
0100
0000
0001
0000
1000
0100
0000
0100
0010
0000
0001
0000
0100
0000
,  // measure 41
0101
0000
1000
0000
0010
0000
0100
0010
0000
0010
0100
0000
0010
0000
0100
0000
,  // measure 42
0110
0000
1000
0000
0100
0000
0001
0100
0000
1000
0010
0000
1000
0000
0010
0000
,  // measure 43
0110
1000
0010
0100
0011
0100
0001
0100
,  // measure 44
1001
0000
0100
0000
0010
0000
0100
0000
0100
0010
0000
0010
0001
0000
1000
0000
,  // measure 45
1001
0000
0100
0000
0010
0000
0100
0000
0010
0000
0100
0000
0001
1000
0000
1000
,  // measure 46
0001
0000
0100
0000
0010
0000
0100
0000
0010
0000
0100
0000
0010
0100
0000
0100
,  // measure 47
0010
0100
0010
0100
0010
0001
0100
0010
,  // measure 48
0101
0100
0010
0100
0101
1000
0110
0100
,  // measure 49
0110
1000
0100
0001
0100
0010
0100
0010
,  // measure 50
1010
0000
0100
0000
0010
0000
0100
0010
0000
0010
0000
1000
0010
0000
0100
0000
,  // measure 51
0101
0000
0000
0110
0000
0000
1000
0000
0110
0000
0000
0110
0000
0000
1001
0000
,  // measure 52
0220
0000
0000
0000
0000
0030
0300
0010
,  // measure 53
1001
0000
0100
0000
0010
0000
0100
0000
0010
0000
0000
0010
0000
0000
1000
0000
,  // measure 54
0100
0000
0010
0000
0001
0000
0100
0001
0000
0010
0000
0001
1000
0000
1000
0000
,  // measure 55
0100
0000
0010
0000
0001
0000
0100
0000
0010
0000
0000
0010
0000
0000
1000
0000
,  // measure 56
0001
0000
0100
0000
0010
0000
1000
0001
0000
0001
0000
0001
1000
0000
0001
0000
,  // measure 57
0100
0000
0010
0000
0100
0000
0010
0000
0001
0000
0000
0001
0000
0000
1000
0000
,  // measure 58
0100
0000
0010
0000
0001
0000
0100
0010
0000
1000
0000
0001
0010
0000
1000
0000
,  // measure 59
0100
0000
0000
0010
0000
0000
0100
0000
0010
0000
0000
0010
0000
0000
1000
0000
,  // measure 60
0100
0010
0001
0100
0010
0100
0010
0100
,  // measure 61
2002
0000
0000
0000
,  // measure 62
0000
0000
0000
0000
,  // measure 63
0000
0000
0000
0000
,  // measure 64
3003
0000
0000
0000
;

//---------------dance-single - ----------------
#NOTES:
     dance-single:
     :
     Easy:
     8:
     0.482,0.591,0.216,0.262,0.000:
0000
0000
0000
0000
,
0000
0000
0000
0000
,
1002
0000
0203
0000
,
0320
0000
0032
0000
,
2003
0000
3200
0320
,
0032
0000
0203
0000
,
0302
0000
2003
0000
,
3020
0000
0230
0000
,
0302
0000
2003
0000
,
0002
0000
0000
3003
,
1000
0000
0100
0000
0010
0000
1000
0001
,
1000
0000
0010
0000
0001
1000
0001
1000
,
0001
0000
0100
0000
0010
0000
0100
0010
,
0100
0000
0010
0000
1000
0001
1000
0001
,
1000
0000
0100
0010
0100
0000
0001
1000
,
0001
0000
0100
0000
0010
0100
0010
0100
,
0010
0000
1000
0001
1000
0000
0100
0010
,
0100
0010
0100
0010
0100
0010
0100
0000
,
2002
0000
0000
0000
,
3003
0000
0000
0000
0000
0000
0100
0010
,
1001
0000
0100
0010
0100
0001
1000
1000
,
1001
0000
0100
0000
0010
0001
0100
0001
,
0100
0000
0010
0000
1000
0000
0001
1000
,
1001
0000
0100
0000
0010
0100
0010
0100
,
0110
1000
0001
1000
0001
1000
0001
1000
,
0110
1000
0001
0100
0010
1000
0010
0100
,
0110
0000
1000
0001
1001
0000
0100
0001
,
0200
0000
0000
0000
,
0310
1000
0010
1000
0000
0010
0000
0000
,
0100
0010
0100
0010
0100
0000
0010
0000
,
0100
0010
0100
0010
0100
0010
0000
0100
,
0010
0100
0010
0100
0010
1000
0100
0000
,
0010
0100
0010
0100
1000
0100
0010
0000
,
1001
0100
0010
0000
0100
0010
0100
0000
,
1001
0100
0010
0000
0101
0100
0010
0000
,
1001
0000
0000
0000
0100
0010
0100
0000
,
1001
0100
0010
0100
0010
1000
0002
0000
,
1003
0100
0010
0100
0001
0100
2000
0000
,
3100
0010
0100
0010
0100
0010
0002
0000
,
0103
0100
0010
0010
1000
0100
0200
0000
,
0310
1000
0100
0010
0001
0100
0020
0000
,
0031
1000
0100
0010
0100
0001
2000
0000
,
3001
0100
1001
0100
,
0110
0000
0000
0000
1000
0001
1000
0000
,
0110
0000
1000
0001
1000
0000
0100
0010
,
0100
0000
0001
0000
1000
0100
0010
0001
,
0101
0000
1000
0000
0010
0000
0001
0010
,
0110
0100
0110
0100
,
1000
0100
0010
0001
0100
0010
0100
0010
,
1000
0100
0010
0100
0001
0100
0001
0100
,
1100
0000
0100
0010
0110
0000
0001
0010
,
0002
0000
0000
0000
0000
0000
1003
0010
,
1000
0000
0100
0010
0100
0000
0100
0100
,
0010
1000
0010
1000
0100
0010
0100
0100
,
0001
0000
1000
0001
1000
0000
0001
1000
,
0001
0000
0100
0010
0100
0010
0100
0010
,
0100
0000
0010
1000
0010
0000
0100
0001
,
0100
0000
0010
0100
0010
1000
0100
0010
,
0001
0000
0100
0001
0100
0000
0010
0001
,
0010
0000
0100
0000
0001
0000
1000
0010
,
2002
0000
0000
0000
,
0000
0000
0000
0000
,
0000
0000
0000
0000
,
3003
0000
0000
0000
;

//---------------dance-single - ----------------
#NOTES:
     dance-single:
     :
     Beginner:
     4:
     0.181,0.295,0.150,0.103,0.000:
0000
0000
0000
0000
,
0000
0000
0000
0000
,
2000
0000
0000
0000
,
3000
0000
0000
0000
,
0020
0000
0000
0000
,
0030
0000
0000
0000
,
0002
0000
0000
0000
,
0003
0000
0000
0000
,
2000
0000
0000
0000
,
3000
0000
0000
0000
,
1000
1000
1000
0000
,
0001
0001
0001
0000
,
0010
0010
0010
0000
,
0100
0100
0100
0000
,
1000
1000
1000
0000
,
0001
0001
0001
0000
,
0100
0100
0100
0000
,
0010
0010
0010
0010
,
0010
0000
0000
0000
,
1000
0000
0000
0000
,
1001
0000
0001
0001
,
0001
0000
0100
0100
,
0100
0000
0010
0010
,
0010
0000
1000
1000
,
1000
0000
1000
1000
,
1000
0000
0001
0001
,
0001
0000
0001
0001
,
0002
0000
0000
0000
,
0003
0000
0100
0100
,
0100
0000
0010
0010
,
0010
0000
1000
1000
,
1000
0000
0001
0001
,
1001
0000
0000
0000
,
1001
0000
0000
0000
,
0110
0000
0110
0000
,
0220
0000
0000
0000
,
0330
0000
0000
1000
,
1000
0000
0000
0010
,
0010
0000
0000
0001
,
0001
0000
0000
0100
,
0100
0000
0000
0010
,
0010
0000
0000
0000
,
1001
0000
1001
0000
,
0110
0000
0110
0000
,
1001
0000
1000
0000
,
1000
0000
0001
0000
,
0001
0000
0100
0000
,
0100
0000
0010
0000
,
0010
0000
0000
0000
,
1001
0000
0000
0000
,
0110
0000
1001
0000
,
2002
0000
0000
0000
,
3003
0000
1000
0000
,
1000
0000
0000
0000
,
0001
0000
0001
0000
,
0001
0000
0000
0000
,
0100
0000
0100
0000
,
0100
0000
0000
0000
,
0010
0000
0010
0000
,
0010
0000
0000
0000
,
2002
0000
0000
0000
,
0000
0000
0000
0000
,
0000
0000
0000
0000
,
3003
0000
0000
0000
;
