#TITLE:Little Busters!;
#SUBTITLE:リトルバスターズ! PC OP;
#ARTIST:理多;
#TITLETRANSLIT:;
#SUBTITLETRANSLIT:Little Busters! PC OP;
#ARTISTTRANSLIT:Rita;
#GENRE:VISUAL NOVEL BEAT#1;
#CREDIT:;
#BANNER:Little Busters!.png;
#BACKGROUND:Little Busters!-bg.png;
#LYRICSPATH:;
#CDTITLE:cdtitle.png;
#MUSIC:Little Busters!.mp3;
#MENUCOLOR:0.25,0,1,1;
#METERTYPE:DDR X;
#OFFSET:-1.102;
#SAMPLESTART:64.600;
#SAMPLELENGTH:12.000;
#SELECTABLE:YES;
#BPMS:0.000=151.000;
#STOPS:;
#BGCHANGES:;

//---------------dance-single - ----------------
#NOTES:
     dance-single:
     :
     Hard:
     11:
     0.514,0.528,0.234,0.178,0.000: // measure 1
0000
0000
0000
0000
,  // measure 2
0000
0000
0000
0000
,  // measure 3
0000
0000
0000
0000
,  // measure 4
0000
0000
0000
0000
,  // measure 5
0000
0000
0000
0000
,  // measure 6
0000
0000
0000
0000
,  // measure 7
0000
0000
0000
0000
,  // measure 8
0000
0000
0000
0000
,  // measure 9
1001
0100
0010
1000
,  // measure 10
0001
0000
1000
0000
0001
0000
1000
0001
,  // measure 11
1000
0000
0100
0000
0010
0100
0010
0000
,  // measure 12
1000
0100
0001
0100
1000
0010
0001
0000
,  // measure 13
1001
0000
0100
0001
0100
0000
1000
0100
,  // measure 14
0010
0000
0001
0100
0000
0001
0100
0000
,  // measure 15
1001
0000
0100
0010
0100
0000
0001
0010
,  // measure 16
0100
0000
0001
1000
0000
0001
1000
0000
,  // measure 17
1001
0000
0100
0010
0100
0001
0010
0100
,  // measure 18
1000
0100
0001
0100
0010
1000
0020
0000
,  // measure 19
0130
0001
0100
1000
0100
0001
0100
0010
,  // measure 20
2000
0000
3100
0010
0100
0001
0010
0000
,  // measure 21
0101
0000
1000
0100
0010
0001
0100
0010
,  // measure 22
0200
0000
0310
1000
0100
0010
0100
0000
,  // measure 23
0101
0000
0001
0100
0001
0000
0001
0010
,  // measure 24
0100
1000
0100
0010
0100
0001
0100
0000
,  // measure 25
0001
1000
0001
1000
0200
0000
0310
1000
,  // measure 26
0100
0020
0000
1030
0100
0001
0100
0010
,  // measure 27
0002
0000
0013
0100
0001
0200
0000
0320
,  // measure 28
0000
1030
0100
0010
0100
0010
0100
0000
,  // measure 29
1000
0010
0100
0020
0000
0000
1030
0001
,  // measure 30
0100
0002
0000
0103
0010
0100
0010
1000
,  // measure 31
0100
0000
0100
1000
0010
0100
0001
2000
,  // measure 32
0000
3001
0100
0000
0001
0100
0001
0000
,  // measure 33
1001
0000
0101
0000
1100
0000
1000
0010
,  // measure 34
1000
0100
0010
0001
0100
0020
0000
0000
,  // measure 35
0130
0000
0110
0000
0110
0000
1000
0100
,  // measure 36
0010
0001
0100
0010
0100
0001
0200
0000
,  // measure 37
0310
0100
0001
0000
0100
0001
0100
0000
,  // measure 38
1000
0100
0020
0000
1030
0001
0100
0000
,  // measure 39
0001
0100
1000
0100
0010
0001
1000
0010
,  // measure 40
1000
0001
1000
0001
1000
0000
0001
0000
,  // measure 41
1000
0001
0100
0010
0001
0000
0100
0001
,  // measure 42
0100
1000
0010
0000
0100
0010
1000
0001
,  // measure 43
0100
0000
1000
0100
0001
0010
1000
0010
,  // measure 44
2000
3002
0103
0100
,  // measure 45
0001
0100
0001
1000
0100
0010
0002
0000
,  // measure 46
1003
0001
0100
0010
0200
0000
0310
0000
,  // measure 47
1000
0100
0010
0001
0020
0000
0130
0001
,  // measure 48
0100
0000
1000
0100
0010
0000
0100
0010
,  // measure 49
0100
0000
1000
0100
0001
0100
0001
0000
,  // measure 50
0010
0001
0100
0010
0100
0000
0100
0001
,  // measure 51
0100
0010
0100
0000
1000
0001
2000
0000
,  // measure 52
0001
0000
0001
0000
3001
1000
0001
1000
,  // measure 53
0100
0010
0002
0000
0103
0000
0100
0010
,  // measure 54
1000
0000
1000
0010
0100
0001
0010
0100
,  // measure 55
0010
0000
1000
0100
0001
0000
0100
0000
,  // measure 56
1001
1100
1010
1001
,  // measure 57
0001
1000
0100
0010
0100
0001
0100
0000
,  // measure 58
1001
0101
0011
1100
,  // measure 59
1000
0001
0100
0010
0001
0100
0010
0000
,  // measure 60
1001
0101
0011
1100
,  // measure 61
1000
0001
1000
0100
0010
0001
0100
0000
,  // measure 62
1001
1100
1010
1001
,  // measure 63
0001
1000
0001
1000
0010
0100
0010
0000
,  // measure 64
1001
0000
0100
0010
0100
0001
1000
0100
,  // measure 65
0010
0000
0001
0100
1000
0010
0100
0010
,  // measure 66
1000
0000
1000
0100
0010
0001
0100
0010
,  // measure 67
0000
0001
0100
1000
0010
0001
1000
0010
,  // measure 68
1000
0000
0001
0100
0010
1000
0001
1000
,  // measure 69
0000
1000
0100
0010
0001
0100
0010
0000
,  // measure 70
0001
0010
0100
1000
0100
0010
0001
1000
,  // measure 71
0000
1000
0100
0010
1000
0001
0100
0000
,  // measure 72
1000
0001
0000
1001
0000
1000
0002
0000
,  // measure 73
0000
0000
0000
0000
,  // measure 74
0000
0000
0000
0000
,  // measure 75
0000
0000
0000
0000
,  // measure 76
0000
0000
0000
0000
,  // measure 77
0000
0000
0000
0000
,  // measure 78
0003
0000
0000
0000
;

//---------------dance-single - ----------------
#NOTES:
     dance-single:
     :
     Medium:
     8:
     0.371,0.497,0.081,0.186,0.000:
0000
0000
0000
0000
,
0000
0000
0000
0000
,
0000
0000
0000
0000
,
0000
0000
0000
0000
,
0000
0000
0000
0000
,
0000
0000
0000
0000
,
0000
0000
0000
0000
,
0000
0000
0000
0000
,
1001
0100
0010
1000
,
0001
1000
0001
1000
,
1001
0100
0001
0010
,
0100
0010
0100
0010
,
0110
1000
0001
0100
,
0110
1000
0100
0001
,
1001
0100
0001
1000
,
1000
0001
1000
0001
,
1001
0100
0010
0100
,
0001
0000
1000
0000
0001
1000
0002
0000
,
1000
0000
0000
0000
,
2003
0000
0020
0000
,
3030
0100
0010
1000
,
0002
0000
0203
0000
,
0310
1000
0100
0010
,
1001
0100
0001
0000
,
1000
0010
1000
0020
0000
0000
0130
0001
,
0100
0001
0000
0010
0001
0010
0000
0100
,
0010
0000
1000
0100
0001
2000
0000
3010
,
0000
0100
0000
0010
0000
0100
0010
0000
,
1000
0001
1000
0002
0000
0000
0103
0010
,
0100
0010
0000
1000
0001
0100
0000
0010
,
0001
0000
0100
0001
0100
0002
0000
1003
,
0000
0001
0100
0000
0001
0000
0100
0000
,
1100
0000
1001
0000
0101
0000
0000
1000
,
0010
1000
0100
0010
0001
0200
0000
0310
,
2000
0010
0010
0000
,
3001
0100
0001
1000
0100
0020
0000
0000
,
0130
0010
0100
0010
,
1000
0000
0002
0000
0000
0000
0000
1003
,
0001
0000
0100
0010
0100
0000
0001
0100
,
0001
1000
0100
0010
0001
0000
0100
0000
,
0001
1000
0000
1000
0100
0000
0100
0010
,
0000
0010
0001
0000
0001
0010
0000
0010
,
0100
0000
0100
1000
0000
1000
0100
0010
,
0001
0020
0230
0000
,
0300
0010
1000
0100
0010
0001
0100
0000
,
0010
0000
0100
0010
1000
0000
1000
0000
,
0100
0010
0100
0020
0000
0000
1030
0001
,
0000
0000
0000
0100
0010
0000
0010
1000
,
0010
0000
1000
0100
0000
0100
0010
0000
,
0010
0001
0000
0001
0010
0000
0001
0010
,
0000
0100
1000
0000
1000
0100
0020
0000
,
2030
0000
0000
0000
0000
3001
1000
0001
,
1000
0002
0000
0000
0203
0000
0000
0000
,
0310
0000
1000
0100
0000
0100
0010
0100
,
0010
0000
0010
0100
0001
0000
0000
0000
,
1000
0000
1000
0001
1000
0000
1000
0010
,
1000
0100
0000
0100
0000
0000
0000
0000
,
0010
0000
0010
0100
0010
0000
0100
1000
,
0100
0100
0001
0001
,
0100
0000
0100
0001
0100
0000
0100
0010
,
0001
0010
0100
0000
0100
0000
0010
0000
,
1000
0000
1000
0001
1000
0000
0100
0010
,
0200
0000
0302
0000
,
1003
0100
0010
0001
,
1000
0001
0100
1000
,
0010
0001
1000
0100
,
0001
0000
0010
0000
0001
0010
0001
0000
,
1000
0100
1000
0001
,
0100
0010
0001
0010
,
1000
0001
1000
0001
,
1000
0001
1000
0001
,
1000
0001
0000
1000
0000
0001
2000
0000
,
0000
0000
0000
0000
,
0000
0000
0000
0000
,
0000
0000
0000
0000
,
0000
0000
0000
0000
,
0000
0000
0000
0000
,
3000
0000
0000
0000
;

//---------------dance-single - ----------------
#NOTES:
     dance-single:
     :
     Easy:
     6:
     0.312,0.404,0.169,0.169,0.000:
0000
0000
0000
0000
,
0000
0000
0000
0000
,
0000
0000
0000
0000
,
0000
0000
0000
0000
,
0000
0000
0000
0000
,
0000
0000
0000
0000
,
0000
0000
0000
0000
,
0000
0000
0000
0000
,
1000
0100
0010
0001
,
1000
0100
0010
0001
,
1000
0001
1000
0001
,
0010
0100
1000
0001
,
0100
0010
0001
1000
,
0010
0001
1000
0001
,
1000
0100
0010
0001
,
1000
0100
0010
0001
,
1001
0001
1000
0001
,
1000
0100
0010
0002
,
0000
0000
0000
0000
,
2003
0000
0000
0000
,
3001
1000
0100
0010
,
0001
1000
0010
0100
,
0110
1000
0001
1000
,
1001
1000
0001
0000
,
1001
0001
0020
0000
,
0031
1000
0001
1000
,
0002
0000
0103
0010
,
1000
0020
0000
0030
,
1000
0000
0010
0001
,
1000
0100
0010
0001
,
1000
1000
0001
0010
,
0100
0010
0001
1000
,
1001
0001
0001
0000
,
1000
0001
1000
0001
,
1001
1000
1000
0000
,
1000
0100
0010
0001
,
1001
0001
0100
0010
,
1000
0002
0000
0000
,
1003
0100
0010
0001
,
1000
0001
1000
0000
,
1001
0001
0100
0010
,
1000
0100
0010
0001
,
1000
0100
0010
0001
,
1000
0002
1003
1000
,
0100
0010
0001
2000
,
3001
0100
0020
0031
,
0001
1000
2000
3100
,
0001
0100
2000
3100
,
0200
0310
0020
0031
,
0002
0103
0200
1300
,
2000
3010
0020
0032
,
1000
0000
0000
1003
,
1000
0100
0010
0001
,
1000
1000
0100
0010
,
0001
1000
0001
0000
,
1001
0101
1010
0100
,
0001
1000
0100
0000
,
0011
1001
0101
1000
,
0010
0001
1000
0000
,
1001
1001
1100
1000
,
0100
0010
0001
0000
,
1001
1001
0101
1000
,
0020
0000
2030
0000
,
3001
0100
0010
0001
,
1000
0100
0010
0001
,
1000
0001
0010
0001
,
1000
0100
0010
0001
,
1001
0100
0001
0010
,
1000
0100
0010
0001
,
0001
1000
0100
0010
,
0001
1000
0001
1000
,
1000
0000
0001
2000
,
0000
0000
0000
0000
,
0000
0000
0000
0000
,
0000
0000
0000
0000
,
0000
0000
0000
0000
,
0000
0000
0000
0000
,
3000
0000
0000
0000
;

//---------------dance-single - ----------------
#NOTES:
     dance-single:
     :
     Beginner:
     2:
     0.101,0.186,0.153,0.065,0.000:
0000
0000
0000
0000
,
0000
0000
0000
0000
,
0000
0000
0000
0000
,
0000
0000
0000
0000
,
0000
0000
0000
0000
,
0000
0000
0000
0000
,
0000
0000
0000
0000
,
0000
0000
0000
0000
,
1001
0000
0000
0000
,
0001
0000
0000
0000
,
0100
0000
0000
0000
,
0010
0000
0000
0000
,
0110
0000
0000
0000
,
1001
0000
0000
0000
,
1001
0000
0000
0000
,
0001
0000
0000
0000
,
0110
0000
0000
0000
,
0001
0000
0000
0000
,
1000
0000
0000
0000
,
0001
0000
0000
0000
,
1001
0000
0000
0000
,
0010
0000
0000
0000
,
0110
0000
0000
0000
,
1001
0000
0000
0000
,
0001
0000
0000
0000
,
1000
0000
0000
0000
,
0100
0000
0000
0000
,
0010
0000
0000
0000
,
0001
0000
0000
0000
,
1000
0000
0000
0000
,
0010
0000
0000
0000
,
0100
0000
0000
0000
,
2002
0000
0000
0000
,
3003
0000
0000
0000
,
0220
0000
0000
0000
,
0330
0000
0000
0000
,
1001
0000
0000
0000
,
0001
0000
0000
0000
,
1000
0000
0000
0000
,
1000
0000
0000
0000
,
1001
0000
0000
0000
,
1000
0000
0000
0000
,
1001
0000
0000
0000
,
1001
0000
0000
0000
,
0000
0000
0001
0000
,
0001
0000
1000
0000
,
0000
0000
0100
0000
,
0100
0000
0110
0000
,
0000
0010
0000
0000
,
0100
0000
0000
1000
,
0000
0000
0002
0000
,
0000
0000
0000
0000
,
0003
0000
0000
0000
,
1000
0000
0000
0000
,
0100
0000
0000
0000
,
0110
0000
0000
0000
,
0010
0000
0000
0000
,
0100
0000
0000
0000
,
0001
0000
0000
0000
,
1000
0000
0000
0000
,
0001
0000
0000
0000
,
1001
0000
0000
0000
,
2000
0000
0000
0000
,
3002
0000
0000
0000
,
0000
0000
0000
0000
,
0000
0000
0000
0000
,
0003
0000
0000
0000
,
1001
0000
0000
0000
,
0010
0000
0000
0000
,
0100
0000
0000
0000
,
1000
0000
0000
0000
,
1001
0000
0000
0002
,
0000
0000
0000
0000
,
0000
0000
0000
0000
,
0000
0000
0000
0000
,
0000
0000
0000
0000
,
0000
0000
0000
0000
,
0003
0000
0000
0000
;
