#TITLE:Little Busters! ~TV Animation Ver.~;
#SUBTITLE:リトルバスターズ! OP;
#ARTIST:理多;
#TITLETRANSLIT:;
#SUBTITLETRANSLIT:Little Busters! OP;
#ARTISTTRANSLIT:Rita;
#GENRE:ANIMATION BEAT#1;
#CREDIT:;
#BANNER:Little Busters! ~TV Animation Ver.~.png;
#BACKGROUND:Little Busters! ~TV Animation Ver.~-bg.png;
#LYRICSPATH:;
#CDTITLE:cdtitle.png;
#MUSIC:Little Busters! ~TV Animation Ver.~.mp3;
#MENUCOLOR:0,0,1,1;
#METERTYPE:DDR X;
#OFFSET:0.339;
#SAMPLESTART:39.396;
#SAMPLELENGTH:12.000;
#SELECTABLE:YES;
#BPMS:0.000=151.000;
#STOPS:;
#BGCHANGES:;

//---------------dance-single - ----------------
#NOTES:
     dance-single:
     :
     Hard:
     11:
     0.552,0.529,0.162,0.223,0.005:
0000
0000
0000
0000
,
0000
0000
0000
0000
,
0000
0000
0000
0000
,
0000
0000
0000
0000
,
0000
0000
0000
0000
,
1000
0001
0100
0010
,
0001
0000
1000
0000
0100
0000
0010
1000
,
0001
0100
0010
1000
,
0001
0000
1000
0001
0000
1001
0000
1000
,
0101
0000
0100
0010
0100
0010
1000
0100
,
0010
0001
0100
0010
0100
0010
0100
0000
,
0010
1000
0010
0100
0010
0001
0010
0100
,
0010
0100
0001
1000
0100
0010
0001
0000
,
0100
0001
0100
0001
1000
0100
0010
0001
,
0100
0010
0100
0001
1000
0100
0010
0000
,
0001
0100
0010
0100
0010
1000
0100
0010
,
1000
0010
0100
0010
0100
0010
0001
0000
,
1000
0001
1000
0002
0000
0000
0103
0010
,
1000
0100
0020
0000
1030
0010
0100
0010
,
2000
0000
3100
0001
0100
0020
0000
2030
,
0000
3200
0000
0301
0000
0100
0001
0000
,
1000
0010
1000
0020
0000
0000
0130
1000
,
0100
0020
0000
1030
0100
0010
0100
0001
,
0200
0000
0310
0001
1000
0020
0000
0230
,
0000
0302
0000
1003
0001
1000
0001
0000
,
1001
0000
0101
0000
1100
0100
0000
0100
,
0010
0100
0010
1000
0100
0010
0001
0100
,
1100
0000
0110
0000
0011
0001
0010
1000
,
0100
0010
0001
0100
0010
0100
0020
0000
,
1030
0000
0100
0010
0100
0010
0100
0010
,
1000
0100
0010
0001
0100
0010
1000
0001
,
1001
0100
0001
0100
0001
0100
0010
1000
,
0100
0010
0001
0100
0010
0100
1100
0000
,
0110
0100
0010
1000
0100
0010
0001
0100
,
0010
0100
0010
0100
1001
0100
0010
0100
,
0010
0001
0100
1000
0100
0010
0100
0001
,
1000
0001
2000
0000
3001
0100
0010
0100
,
0010
0001
1000
0100
0010
0002
0000
1003
,
0100
0000
0010
0100
0020
0000
1030
0100
,
0001
0100
0010
1000
0010
0100
0010
0100
,
0010
0000
1000
0000
0100
0000
0010
0000
0001
0000
0000
1000
0000
0000
0001
0000
,
1000
0000
0100
0010
0000
0001
1000
0010
,
1000
0010
0100
0010
0100
0000
0010
1000
,
0000
0010
0100
0000
0010
0000
2000
0000
,
3001
0000
0100
0010
0100
0010
1000
0100
,
0010
0002
0000
0000
1003
0000
0100
0010
,
0200
0000
0310
1000
0100
0010
0001
0100
,
0020
0000
0031
0100
0001
0000
0100
0001
,
1000
0100
0100
1000
0100
1000
1000
0100
,
0100
0100
0010
0100
0100
0100
0100
0010
,
0100
0010
0100
0100
0010
0010
0001
0001
,
1000
1000
0010
1000
0001
1000
0100
0010
,
1001
0100
0010
0100
0010
0100
0001
0010
,
0100
1000
0100
0010
0100
0010
1000
0100
,
0001
0100
1000
1000
0010
0001
1000
0100
,
0010
0001
0100
1100
0000
0110
0000
0022
,
0000
0000
0000
0000
,
0000
0000
0000
0000
,
0033
0000
0000
0000
;

//---------------dance-single - ----------------
#NOTES:
     dance-single:
     :
     Challenge:
     13:
     0.653,0.735,0.416,0.264,0.147:
0000
0000
0000
0000
,
0000
0000
0000
0000
,
0000
0000
0000
0000
,
0000
0000
0000
0000
,
0000
0000
0000
0000
,
1100
0110
0011
0101
,
1100
1010
0011
0101
,
1100
0011
0101
1100
,
0010
0000
1000
0001
0000
1001
0000
0101
,
1000
0100
0010
0100
0010
0100
0010
0001
,
0100
1000
0100
0010
1000
0001
0200
0000
,
0310
1000
0100
0010
0001
0100
1000
0100
,
0010
0001
0100
0010
0100
0010
0200
0000
,
0310
1000
0100
0001
0100
1000
0100
1000
,
0100
0010
0100
0010
0001
0100
0020
0000
,
0031
0100
0001
1000
0100
0010
0001
0100
,
1000
0100
0010
0100
0001
0100
0001
0100
,
1001
0100
0010
0200
0000
0000
0310
1000
,
0100
0020
0000
0031
1000
0100
0010
0100
,
0002
0000
0103
1000
0100
0020
0000
2030
,
0000
3200
0000
0302
0000
1003
0001
1100
,
0001
1000
0100
0020
0000
0000
0031
0100
,
0001
2000
0000
3100
0010
1000
0010
0100
,
0020
0000
0031
0100
0001
1000
0100
0020
,
0000
1030
0100
0010
1000
0001
1100
0000
,
0011
0000
0101
0000
1100
0100
0010
0110
,
0000
0010
0100
0010
0100
0001
0100
0010
,
0011
0000
0110
0000
1100
1000
0100
0110
,
0001
0000
0100
0000
0010
0000
0100
0000
0010
0000
1000
0001
0010
0100
0010
0000
,
1010
0100
0010
0100
0010
0100
0010
1000
,
0100
0010
0001
0100
0010
0100
0001
1000
,
1100
1000
0100
0010
0100
0010
0100
0010
,
0100
0000
0010
0000
0100
0000
0001
0000
1000
0000
0100
0010
0001
0000
0000
0000
,
0101
1000
0100
0010
0100
0001
1100
0100
,
0010
0100
0010
1000
0011
0100
0001
0100
,
0010
0100
0010
1000
0100
0010
0100
0010
,
1100
0000
0001
0000
1000
0001
1000
0001
1000
0000
0100
0000
0010
0000
0100
0000
,
0010
1000
0100
0010
0001
0100
0020
0000
,
1030
0100
0010
0001
1200
0000
0301
1000
,
0001
1100
0010
0011
0200
0000
0310
1000
,
0100
0000
0010
0000
0001
0000
0100
0001
1000
0000
1000
0001
1000
0000
0001
0000
,
0101
0000
0000
0000
1000
0000
0200
0000
0000
0000
0310
0000
1000
0000
0010
0100
,
0001
1000
0100
0010
0002
0000
1003
0200
,
0000
0000
0310
0000
1000
0000
0010
0000
0100
0000
0010
0000
1000
0001
1000
0001
,
1000
0000
0100
0010
0100
0010
0100
0010
,
1000
0100
0020
0000
1030
0000
0100
0001
,
0200
0000
0310
1000
0010
1100
1000
0110
,
0002
0000
0000
0000
0103
0000
1000
0000
0100
0001
0010
1000
0100
0010
0001
0100
,
1000
0000
0100
0010
1000
0000
0010
0100
0001
0000
0010
1000
0001
0000
0100
0001
,
1000
0000
0100
0010
1000
0000
0100
1000
0010
0000
0001
0100
0010
0000
0001
0010
,
0100
0000
1000
0001
0100
0000
0001
1000
0100
0000
1000
0001
0010
0000
0001
0100
,
0010
0000
1000
0001
0100
0000
0001
0010
0200
0000
0000
0000
0301
0000
1000
0000
,
1001
0100
0010
0100
0010
1000
0100
0010
,
0001
0100
0100
0010
0010
1000
1000
0100
,
0001
1000
0100
0010
0100
0100
0001
1000
,
0100
0000
0010
1000
0001
0000
1100
0000
0000
0000
0110
0000
0000
0000
0022
0000
,
0000
0000
0000
0000
,
0000
0000
0000
0000
,
0033
0000
0000
0000
;

//---------------dance-single - ----------------
#NOTES:
     dance-single:
     :
     Medium:
     8:
     0.410,0.529,0.213,0.233,0.015:
0000
0000
0000
0000
,
0000
0000
0000
0000
,
0000
0000
0000
0000
,
0000
0000
0000
0000
,
0000
0000
0000
0000
,
1000
0100
0010
0001
,
1000
0100
0010
0001
,
0001
0010
0100
1000
,
0010
0000
0000
1000
0000
0001
0000
0000
,
1001
0100
0010
0100
,
0010
0000
1000
0000
0001
1000
0002
0000
,
0103
0001
1000
0010
,
0200
0000
0310
0000
1000
0001
1000
0000
,
0101
1000
0100
0010
,
0100
0000
0001
0000
1000
0001
1000
0000
,
0020
0000
0130
0010
0000
0100
0010
0000
,
1000
0000
0100
0000
0001
1000
0001
0000
,
1000
0001
0100
0010
0000
0000
1000
0010
,
0100
0010
0000
0001
1000
0100
0000
0010
,
0100
0000
0010
1000
0010
0100
0000
0010
,
0000
2000
0000
0000
0000
0000
0000
0000
,
3001
1000
0001
1000
0000
0000
0100
0010
,
0100
0010
0000
0100
0001
0100
0000
0010
,
0100
0000
0001
0100
0001
2000
0000
3200
,
0000
0320
0000
0000
0000
0000
1030
0000
,
1001
0000
0100
0000
0010
0000
0100
0010
,
0000
1000
0100
0010
0001
0200
0000
0310
,
2000
0000
3010
0000
0100
0000
0000
0010
,
0100
0010
1000
0100
0010
0200
0000
0000
,
0301
0000
1000
0000
0100
0000
0010
0100
,
0010
0000
2000
0000
3010
0000
0100
0010
,
0100
0000
0000
0010
0000
0000
1000
0000
0100
0000
0000
0010
0000
0000
0001
0000
,
1000
0100
0000
0010
0100
0000
0101
0000
,
1000
0200
0000
0310
1000
0000
0100
0020
,
0000
0031
0100
0000
0001
0200
0000
1300
,
0010
0000
1000
0200
0000
0301
0100
0010
,
1000
0010
1000
0000
1001
0000
0100
0000
,
0001
0100
0001
0000
1000
0100
0010
0000
,
0101
0000
1000
0100
0020
0000
1030
0000
,
0100
0001
0100
0001
0000
0100
0001
0000
,
0100
0000
0000
0000
0010
0000
1000
0000
0001
0000
0000
1000
0000
0000
0001
0000
,
1000
0000
0100
0010
0000
0010
0100
0000
,
0010
1000
0000
1000
0100
0000
0010
0001
,
0000
0100
0001
0000
1000
0001
2000
0000
,
3001
0000
0100
0000
0010
0001
0010
0000
,
0100
0002
0000
0000
1003
0000
0100
0010
,
0100
0000
0010
1000
0000
0010
0100
0010
,
0100
0000
1000
0100
0000
0010
0100
0000
,
1001
0101
1100
0110
,
0011
0101
1100
1010
,
0011
0101
1100
1010
,
0012
0000
2003
0000
,
3200
0000
0000
0000
,
0000
0000
0000
0300
,
1000
0100
0010
0001
,
1000
0000
0010
1000
0000
1001
0000
0202
,
0000
0000
0000
0000
,
0000
0000
0000
0000
,
0303
0000
0000
0000
;

//---------------dance-single - ----------------
#NOTES:
     dance-single:
     :
     Easy:
     6:
     0.311,0.382,0.071,0.294,0.000:
0000
0000
0000
0000
,
0000
0000
0000
0000
,
0000
0000
0000
0000
,
0000
0000
0000
0000
,
0000
0000
0000
0000
,
1000
0100
1000
0100
,
0001
0010
0001
0010
,
0100
0010
0100
0010
,
0100
0010
0100
0010
,
1001
0100
0010
0001
,
1000
0010
0002
0000
,
1003
0100
0010
0001
,
0200
0000
0310
1000
,
0100
0010
0001
1000
,
0010
0100
0001
1000
,
0002
0000
1003
0100
,
0010
0001
2000
0000
,
3010
0100
0010
1000
,
0001
0100
0010
1000
,
0001
0100
0010
1000
,
0001
2000
0000
0000
,
3001
0100
0010
0001
,
1000
0100
0001
0100
,
0010
0010
1000
0100
,
0001
0100
0000
1000
,
2002
0000
0000
3003
,
0100
0010
0001
0100
,
0002
0000
0000
0003
,
0010
0100
1000
0200
,
0310
1000
0100
0010
,
2000
0000
0000
0000
,
3001
0100
0010
0100
,
0010
1000
0001
1001
,
1001
0100
0010
1000
,
0001
0100
0110
1000
,
0100
0001
0100
0010
,
1000
0002
1003
0100
,
0010
0001
0100
0020
,
1030
0100
0002
1003
,
0200
0310
2000
3100
,
0010
0001
2000
3001
,
0001
2000
3001
0001
,
0002
1003
1000
0002
,
1003
1000
0020
0230
,
0310
1000
0100
0010
,
2000
3001
0100
0010
,
0002
0103
0010
0001
,
0200
0310
0001
0000
,
1100
0100
0010
0001
,
0010
0010
0001
0001
,
0100
0100
0010
0010
,
2000
0000
3002
0000
,
0203
0010
0000
0010
,
0000
0010
0000
0010
,
0000
0001
0000
0001
,
0000
0000
0300
0001
0000
1000
0000
2002
,
0000
0000
0000
0000
,
0000
0000
0000
0000
,
3003
0000
0000
0000
;

//---------------dance-single - ----------------
#NOTES:
     dance-single:
     :
     Beginner:
     3:
     0.142,0.265,0.051,0.081,0.000: // measure 1
0000
0000
0000
0000
,  // measure 2
0000
0000
0000
0000
,  // measure 3
0000
0000
0000
0000
,  // measure 4
0000
0000
0000
0000
,  // measure 5
0000
0000
0000
0000
,  // measure 6
1000
1000
0000
0001
,  // measure 7
0001
0000
1000
0000
,  // measure 8
1000
1000
0000
0010
,  // measure 9
0010
0000
0001
0000
,  // measure 10
1000
1000
0000
0010
,  // measure 11
0000
0000
0100
0100
,  // measure 12
0000
0001
0000
0010
,  // measure 13
0010
0000
0000
1000
,  // measure 14
1000
0000
0000
0010
,  // measure 15
0010
0000
0000
0001
,  // measure 16
0002
0000
0000
0000
,  // measure 17
1003
0000
0000
0000
,  // measure 18
1001
0000
0000
0000
,  // measure 19
0010
0000
0000
0000
,  // measure 20
0100
0000
0000
0000
,  // measure 21
0001
0001
0000
0000
,  // measure 22
1000
0000
0000
0000
,  // measure 23
0100
0000
0000
0000
,  // measure 24
0010
0010
0000
0000
,  // measure 25
0001
0001
0000
0000
,  // measure 26
1001
0000
0000
0000
,  // measure 27
0100
0000
0000
0000
,  // measure 28
0010
0010
0010
0000
,  // measure 29
0001
0000
0000
0000
,  // measure 30
1001
0000
0000
0000
,  // measure 31
1000
0000
0000
0000
,  // measure 32
0100
0000
0000
0000
,  // measure 33
0020
0000
0000
0000
,  // measure 34
0130
0000
0000
0100
,  // measure 35
0000
0000
0001
0000
,  // measure 36
0000
1000
0000
0000
,  // measure 37
0002
0000
1003
0000
,  // measure 38
0000
0000
0001
0000
,  // measure 39
0000
0000
1001
0000
,  // measure 40
0000
0000
0010
0000
,  // measure 41
0000
0000
1000
1000
,  // measure 42
1000
0010
0010
0010
,  // measure 43
0001
0001
0001
0100
,  // measure 44
0100
0100
2000
0000
,  // measure 45
3001
0000
0000
0001
,  // measure 46
0001
0000
0001
0000
,  // measure 47
1000
1000
0000
0010
,  // measure 48
0010
0000
0000
0000
,  // measure 49
1000
0000
1000
0000
,  // measure 50
1000
0000
0000
0000
,  // measure 51
0001
0000
0001
0000
,  // measure 52
0002
0000
0000
0000
,  // measure 53
2000
0000
0000
0000
,  // measure 54
0000
0000
0000
0000
,  // measure 55
3003
0000
0000
0000
,  // measure 56
1000
0000
0000
0000
,  // measure 57
2002
0000
0000
0000
,  // measure 58
0000
0000
0000
0000
,  // measure 59
3003
0000
0000
0000
;
