#TITLE:Little Busters! -Little Jumper Ver.-;
#SUBTITLE:リトルバスターズ! PC;
#ARTIST:理多;
#TITLETRANSLIT:;
#SUBTITLETRANSLIT:Little Busters! PC;
#ARTISTTRANSLIT:Rita;
#GENRE:VISUAL NOVEL BEAT#1;
#CREDIT:;
#BANNER:Little Busters! -Little Jumper Ver.-.png;
#BACKGROUND:Little Busters! -Little Jumper Ver.--bg.png;
#LYRICSPATH:;
#CDTITLE:cdtitle.png;
#MUSIC:Little Busters! -Little Jumper Ver.-.mp3;
#MENUCOLOR:0.25,0,1,1;
#METERTYPE:DDR X;
#OFFSET:-0.238;
#SAMPLESTART:50.934;
#SAMPLELENGTH:12.000;
#SELECTABLE:YES;
#BPMS:0.000=151.000;
#STOPS:;
#BGCHANGES:;

//---------------dance-single - ----------------
#NOTES:
     dance-single:
     :
     Hard:
     10:
     0.536,0.551,0.840,0.155,0.000: // measure 1
0000
0000
0000
0000
,  // measure 2
0000
0000
0000
0000
,  // measure 3
0000
0000
0000
0000
,  // measure 4
0000
0000
0000
0000
,  // measure 5
1001
0000
0110
0000
1000
0100
0010
0000
,  // measure 6
0100
1010
0110
0011
,  // measure 7
0100
0000
0001
0000
1000
0010
1000
0000
,  // measure 8
0101
0011
0101
1000
,  // measure 9
0010
0000
1000
0010
1000
0000
0100
0000
,  // measure 10
0010
0100
0010
0000
1000
0100
0020
0000
,  // measure 11
1030
0000
0100
0001
0100
0000
0020
0000
,  // measure 12
1030
0100
0010
0200
,  // measure 13
0301
0000
1000
0000
0010
0100
0010
0000
,  // measure 14
1000
0001
1000
0000
0200
0000
0310
0000
,  // measure 15
0002
1003
2000
3100
,  // measure 16
0010
0100
0010
0000
1000
0001
1000
0000
,  // measure 17
1000
0001
0100
0020
0000
0030
1000
0010
,  // measure 18
0100
0010
0000
0100
0010
0000
0010
0100
,  // measure 19
0010
0000
1000
0100
0010
2000
0000
3001
,  // measure 20
0000
0100
0000
0010
0000
0100
0010
0000
,  // measure 21
1001
0000
0101
0000
1000
0000
0010
1000
,  // measure 22
0010
1000
0000
0100
0010
0000
0001
0000
,  // measure 23
0101
0000
1001
0000
0100
0010
0000
1000
,  // measure 24
0000
0100
0010
0000
0001
0000
0101
0000
,  // measure 25
1001
1100
1010
0000
,  // measure 26
1001
0101
0101
0000
,  // measure 27
1010
0110
0011
0000
,  // measure 28
0101
1010
0110
0000
,  // measure 29
1001
0100
0010
1000
,  // measure 30
1100
0110
0001
0100
,  // measure 31
0010
1000
0001
1000
,  // measure 32
0001
1000
0000
1000
0001
0000
1001
0000
,  // measure 33
0101
1010
1100
0110
,  // measure 34
0011
0101
1100
1010
,  // measure 35
0101
1001
0110
0011
,  // measure 36
1001
2002
0000
0000
,  // measure 37
3003
0000
0100
0001
1000
0100
0020
0000
,  // measure 38
0130
0001
2000
3100
,  // measure 39
0010
0100
0010
0100
0020
0000
0031
0100
,  // measure 40
0000
0010
0011
0101
,  // measure 41
1001
1100
1010
0101
,  // measure 42
1100
1010
0011
0101
,  // measure 43
1001
0110
1100
2002
,  // measure 44
0000
0000
0000
0000
3003
0000
0100
0001
,  // measure 45
1000
0010
0100
0000
0100
0000
0010
0000
,  // measure 46
2000
0000
3100
0010
0000
0100
0010
0001
,  // measure 47
0020
0000
0130
0010
0100
0000
0010
0000
,  // measure 48
1100
1010
0101
0101
,  // measure 49
0011
0101
1100
1010
,  // measure 50
1100
1100
1010
1010
,  // measure 51
1100
1100
1010
1010
,  // measure 52
0101
0101
0011
0011
,  // measure 53
0101
0101
0011
0011
,  // measure 54
1001
1100
0110
0011
,  // measure 55
0110
1010
0101
1010
,  // measure 56
0101
0000
1000
0010
0100
0010
1000
0100
,  // measure 57
0010
0000
0001
0100
0010
1000
0100
0000
,  // measure 58
0010
0100
0010
1000
0100
0010
0001
0100
,  // measure 59
0000
0100
0010
1000
0100
0010
0001
0000
,  // measure 60
0101
0000
1000
0010
1000
0000
0100
0010
,  // measure 61
0000
1000
0100
0000
0010
0100
0010
0100
,  // measure 62
0010
0000
1000
0100
0000
0100
0010
1000
,  // measure 63
0000
1000
0100
0010
0001
1000
0010
0000
,  // measure 64
0101
0000
0100
0000
0100
0010
0100
0010
,  // measure 65
1000
0000
0100
0010
0100
0001
1000
0100
,  // measure 66
0010
0000
0010
0100
0001
1000
0100
0010
,  // measure 67
0000
0001
0100
1000
0010
0100
0010
0100
,  // measure 68
0010
0000
0000
0000
;

//---------------dance-single - ----------------
#NOTES:
     dance-single:
     :
     Medium:
     7:
     0.438,0.551,0.548,0.301,0.000:
0000
0000
0000
0000
,
0000
0000
0000
0000
,
0000
0000
0000
0000
,
0000
0000
0000
0000
,
1001
1001
0101
0000
,
1000
0100
0010
0001
,
1001
0110
1100
0000
,
1000
0100
0010
0001
,
0101
1001
0000
0100
,
0010
1000
0001
2000
,
3001
0101
1010
0100
,
0010
0001
1000
0010
,
0100
0101
1010
0100
,
0010
0001
1000
0100
,
0011
1100
1000
0100
,
0010
1000
0001
1000
,
1100
1000
0001
0100
,
0010
0001
1000
1000
,
0010
1000
0001
2000
,
3001
0100
0010
0100
,
0001
1001
0100
0010
,
1000
0100
0010
0001
,
0101
1010
1100
1000
,
0100
0010
0001
1001
,
2002
0000
0000
0000
3003
0000
0000
0100
,
0000
0010
1000
0100
,
0110
0110
0110
0000
,
1001
0101
1100
0000
,
1001
0100
0010
1000
,
0020
1030
1000
0010
,
2000
3100
0010
0100
,
0001
1000
0001
0000
,
1001
1001
0101
0101
,
1001
1001
1100
1100
,
1010
1010
1100
1100
,
1010
2020
0000
0000
,
3030
1000
0100
0020
,
0031
0100
0002
1003
,
2000
3100
0010
0001
,
0100
0000
0101
0101
,
1001
1001
0101
0101
,
0011
0011
0101
0101
,
0011
0011
0101
0202
,
0000
0000
0000
0303
,
1000
0200
0310
0100
,
0002
1003
0100
0010
,
2000
3001
0100
0000
,
2000
3100
0200
0310
,
0020
0031
0001
0000
,
0002
0013
0020
0130
,
0200
1300
1000
0000
,
2000
3100
0200
0310
,
0020
0031
0002
0013
,
0200
1300
2000
3100
,
2000
3100
0200
0310
,
0011
0100
0002
1003
,
0200
0310
0002
0013
,
1000
0100
0010
0000
0100
0000
0010
0000
,
0001
0010
0100
0000
1000
0000
0010
0000
,
1001
0100
0010
1000
,
1000
0010
0100
0000
0001
0010
0100
0000
,
0010
1000
0100
0001
,
1000
0010
0100
0000
0001
0100
0010
0000
,
1001
0000
0100
0000
1000
0001
0100
0000
,
0001
1000
0100
0000
0001
0000
1000
0000
,
0100
0000
0010
0000
1000
0001
0100
0000
,
0001
1000
0100
0000
1000
0000
0010
0000
,
0110
0000
0000
0000
;

//---------------dance-single - ----------------
#NOTES:
     dance-single:
     :
     Easy:
     5:
     0.275,0.306,0.274,0.091,0.000:
0000
0000
0000
0000
,
0000
0000
0000
0000
,
0000
0000
0000
0000
,
0000
0000
0000
0000
,
1001
0000
0100
0010
,
0100
0010
1000
0000
,
1001
0000
0100
0010
,
0001
0010
0100
0000
,
0110
0000
1000
0001
,
0100
0000
2000
0000
,
3001
0000
0100
0000
,
0002
0000
1003
0000
,
1001
0000
0100
0000
,
0010
0000
1000
0000
,
0200
0000
0000
0000
,
0302
0000
0000
0000
,
1003
0100
0010
0001
,
0100
1000
0100
0010
,
0001
0001
1000
1000
,
0001
1000
0000
0000
,
0110
1000
0100
0010
,
0001
0100
0010
0001
,
2000
3100
0100
0000
,
0001
1000
0000
0000
,
1001
0000
0110
0000
,
1000
0100
0010
0001
,
0110
0000
1001
0000
,
0100
0010
0001
0000
,
1001
0000
0100
0010
,
1000
0200
0000
0000
,
0310
1000
0100
0010
,
0001
1000
0001
0000
,
1001
0000
1001
0000
,
0110
0000
1100
0000
,
0110
0000
0011
0000
,
1001
0000
1001
0000
,
0000
1000
1000
0000
,
0001
0000
1001
0000
,
0100
0000
0010
0000
,
0100
0000
1001
0000
,
1010
0000
1100
0000
,
1010
0000
1001
0000
,
0101
0000
1001
0000
,
0110
0000
0000
0000
,
1000
0100
0010
0000
,
2000
0000
3001
0000
,
0002
0000
1003
0000
,
1000
1000
0100
0100
,
0010
0010
0001
0001
,
0010
0010
0100
0100
,
1000
1000
0001
0000
,
1000
0100
0010
0001
,
0010
0100
1000
0000
,
0001
0100
1000
0100
,
0020
0000
0032
0000
,
1003
0100
0010
0000
,
0001
1000
0001
0000
,
1000
1000
0001
0000
,
0001
0001
1000
0000
,
0110
0000
0100
0010
,
1000
0000
1000
0100
,
0010
0000
0001
0010
,
0100
0000
0001
1000
,
1001
0000
0100
0010
,
1000
0000
0100
0010
,
0001
0000
0001
0100
,
1000
0000
1000
0000
,
1001
0000
0000
0000
;

//---------------dance-single - ----------------
#NOTES:
     dance-single:
     :
     Beginner:
     2:
     0.136,0.184,0.283,0.009,0.000:
0000
0000
0000
0000
,
0000
0000
0000
0000
,
0000
0000
0000
0000
,
0000
0000
0000
0000
,
1001
0000
0000
0000
,
0000
0000
0000
0000
,
0110
0000
0000
0000
,
0000
0000
0000
0000
,
1001
0000
0000
0000
,
0001
0000
0000
0000
,
1000
0000
0000
0000
,
0100
0000
0000
0000
,
0110
0000
0000
0000
,
0010
0000
0000
0000
,
0001
0000
0000
0000
,
1000
0000
0000
0000
,
1001
0000
0000
0000
,
0001
0000
0000
0000
,
0100
0000
0000
0000
,
0010
0000
0000
0000
,
0110
0000
0000
0000
,
0010
0000
0000
0000
,
1000
0000
0000
0000
,
0001
0000
0000
0000
,
1001
0000
0000
0000
,
0110
0000
0000
0000
,
1001
0000
0000
0000
,
0110
0000
0000
0000
,
1001
0000
0000
0000
,
1000
0000
0000
0000
,
0001
0000
0000
0000
,
0010
0000
0000
0000
,
1001
0000
0000
0000
,
0110
0000
0000
0000
,
1001
0000
0000
0000
,
1001
0000
0000
0000
,
0110
0000
0000
0000
,
1000
0000
0100
0000
,
0100
0000
1000
0000
,
0100
0000
0110
0000
,
0000
0110
0000
0000
,
0110
0000
0000
1001
,
0000
0000
1001
0000
,
0000
0000
0000
0000
,
2000
0000
3000
0000
,
0100
0000
0010
0000
,
0010
0000
0000
0000
,
1001
0000
0000
0000
,
0110
0000
0000
0000
,
0110
0000
0000
0000
,
1001
0000
0000
0000
,
0110
0000
0000
0000
,
0110
0000
0000
0000
,
1001
0000
0000
0000
,
1001
0000
0000
0000
,
0110
0000
0000
0000
,
1000
0000
1000
0000
,
1000
0000
0000
0000
,
0001
0000
0001
0000
,
0001
0000
0000
0000
,
0100
0000
0100
0000
,
0100
0000
0000
0000
,
0010
0000
0010
0000
,
0010
0000
0000
0000
,
0001
0000
0001
0000
,
0001
0000
0000
0000
,
1000
0000
1000
0000
,
1001
0000
0000
0000
;
