#TITLE:Little Busters! -Ecstasy Ver.-;
#SUBTITLE:リトルバスターズ!エクスタシー PC OP;
#ARTIST:理多;
#TITLETRANSLIT:;
#SUBTITLETRANSLIT:Little Busters! Ecstasy PC OP;
#ARTISTTRANSLIT:Rita;
#GENRE:VISUAL NOVEL BEAT#1;
#CREDIT:;
#BANNER:Little Busters! -Ecstasy Ver.-.png;
#BACKGROUND:Little Busters! -Ecstasy Ver.--bg.png;
#LYRICSPATH:;
#CDTITLE:cdtitle.png;
#MUSIC:Little Busters! -Ecstasy Ver.-.mp3;
#MENUCOLOR:0.25,0,1,1;
#METERTYPE:DDR X;
#OFFSET:-0.104;
#SAMPLESTART:71.500;
#SAMPLELENGTH:12.000;
#SELECTABLE:YES;
#BPMS:0.000=151.003;
#STOPS:;
#BGCHANGES:;

//---------------dance-single - ----------------
#NOTES:
     dance-single:
     :
     Hard:
     13:
     0.594,0.773,0.214,0.160,0.157: // measure 1
0000
0000
0000
0000
,  // measure 2
0000
0000
0000
0000
,  // measure 3
0000
0000
0000
0000
,  // measure 4
0000
0000
0000
0000
,  // measure 5
0000
0000
0000
0000
,  // measure 6
0000
0000
0000
0000
,  // measure 7
2000
0000
0000
0000
,  // measure 8
0000
0000
3200
0000
,  // measure 9
0302
0000
0000
0000
,  // measure 10
2003
0000
0000
0000
,  // measure 11
3200
0000
0320
0000
,  // measure 12
0000
0000
0000
0000
,  // measure 13
0031
0000
0000
0000
,  // measure 14
1000
0100
0010
0001
,  // measure 15
0100
0000
0010
0000
1000
0000
0001
1000
,  // measure 16
0001
0100
0100
0010
,  // measure 17
0010
0000
1000
0000
0100
0010
0100
0010
,  // measure 18
0100
0010
0010
1000
,  // measure 19
1000
0000
0100
0000
0100
0000
0001
1000
,  // measure 20
0001
0100
0100
0010
,  // measure 21
0010
0000
0001
0100
1000
0000
0110
0000
0000
0000
1100
0000
0000
0000
0110
0000
,  // measure 22
0010
0001
0100
0001
0100
0001
1000
0100
,  // measure 23
0010
0001
0100
0010
0100
0100
0010
0100
,  // measure 24
1000
0100
0010
0100
0010
0001
0010
0100
,  // measure 25
1000
0000
0100
0000
0010
0000
0001
0000
0100
0000
0010
0001
0010
0000
0001
0000
,  // measure 26
0011
0100
0001
1000
0100
0010
0001
1000
,  // measure 27
0100
0010
0010
0100
0001
0001
0100
1000
,  // measure 28
0001
0100
0010
1000
0100
0010
0010
0100
,  // measure 29
1000
0000
0100
0000
0001
0000
0100
0000
1000
0100
0010
0001
0100
0000
0000
0000
,  // measure 30
1000
0100
0010
0200
0000
0000
0310
0100
,  // measure 31
0010
0002
0000
0103
0001
0100
0010
0001
,  // measure 32
0100
0000
0010
1000
0100
0020
0000
2030
,  // measure 33
0000
3002
0000
0103
0000
0010
0100
0001
,  // measure 34
1000
0100
0010
0200
0000
0000
0310
1000
,  // measure 35
0100
0020
0000
0031
0100
0001
0100
0010
,  // measure 36
0200
0000
0310
1000
0100
0020
0000
2030
,  // measure 37
0000
3200
0000
0310
0000
0100
0010
0000
,  // measure 38
1100
0000
0110
0000
0011
0001
0100
0001
,  // measure 39
0100
0001
1000
0100
0010
0001
0100
0010
,  // measure 40
0011
0000
0110
0000
1100
1000
0100
0010
,  // measure 41
0100
0000
0010
0000
1000
0000
0100
0000
0010
0000
0001
0000
0100
0010
0100
0010
,  // measure 42
0100
1000
0010
0100
0010
1000
0100
0010
,  // measure 43
0001
0100
0020
0000
0031
0100
0001
0100
,  // measure 44
2000
0000
3100
0010
0100
0001
0100
0010
,  // measure 45
1000
0000
0100
0000
0010
0000
0001
0000
1000
0000
0100
0001
0100
0000
0000
0000
,  // measure 46
0101
0000
1000
0000
0100
0000
0010
1000
0100
0000
0001
0000
1000
0000
0010
0000
,  // measure 47
0100
0010
0001
0010
0100
0000
0010
0000
1100
0000
1000
0000
0100
0000
0010
1000
,  // measure 48
0001
0100
0010
1000
0100
0010
0001
0100
,  // measure 49
0011
0000
0100
0000
0010
0100
0010
1000
0010
0000
0010
0000
0100
0000
0010
0000
,  // measure 50
1000
0100
0001
0100
0010
1000
0020
0000
,  // measure 51
0031
1000
0001
0100
0120
0000
0031
0100
,  // measure 52
0001
0100
1000
0110
0002
0000
1003
0100
,  // measure 53
0001
0000
0100
0000
0010
0000
1000
0100
0010
0000
1000
0000
0010
0000
0100
0001
,  // measure 54
0010
0000
1000
0000
0100
0000
0010
1000
0001
0000
0100
0001
0010
0000
0100
0000
,  // measure 55
0110
0000
1000
0000
0100
0000
0010
1000
0001
0000
0100
0000
1000
0000
0100
0000
,  // measure 56
0010
1000
0001
0000
0100
0000
0010
0000
0100
0000
0010
0000
0001
0010
0001
0010
,  // measure 57
0001
0100
0001
0100
1000
0100
0010
1000
,  // measure 58
0010
0100
0010
0001
0100
0010
0100
0001
,  // measure 59
0011
0100
1000
0100
0001
1000
0010
0011
,  // measure 60
0100
0010
0100
0001
0100
0010
0100
0010
,  // measure 61
1100
0000
0010
0100
1000
0000
0100
0010
0001
0000
0100
0010
0001
0000
0100
0010
,  // measure 62
0100
0000
0010
1000
0100
0000
0100
0010
0100
0000
0010
1000
0001
0000
0001
0100
,  // measure 63
0001
0000
0100
0010
0100
0000
0100
1000
0100
0000
0010
0001
0010
0000
1000
0001
,  // measure 64
1000
0000
0100
0000
0011
0000
0100
0000
0010
0000
1000
0000
0100
0010
0100
0000
,  // measure 65
1100
0000
0010
0001
0100
0000
0100
1000
0010
0000
0100
0001
0010
0000
0100
0001
,  // measure 66
0010
0000
0100
0010
0100
0000
0010
0001
0010
0000
0100
0010
0100
0000
0100
1000
,  // measure 67
0100
0100
0100
0010
1000
0100
0010
0001
,  // measure 68
1000
0000
0100
0000
0010
0000
0001
0000
0100
0000
0010
1000
0001
0000
1000
0000
,  // measure 69
0011
0100
0001
0100
0001
1000
0100
0010
,  // measure 70
0001
0100
0010
0100
0010
0100
0010
1100
,  // measure 71
0100
0100
0010
0100
0010
0100
0010
1000
,  // measure 72
0100
0010
0001
0100
0010
0100
0010
1100
,  // measure 73
0100
0100
0010
0100
0010
1000
0100
0010
,  // measure 74
0001
0100
0010
0001
0100
0010
0100
0110
,  // measure 75
1000
0100
0010
0100
0001
0010
0100
0010
,  // measure 76
1000
0000
0100
0000
0010
0100
0001
0000
0100
0001
0010
0000
0100
1000
0010
0000
,  // measure 77
1100
0100
0010
0100
0010
1000
0100
0010
,  // measure 78
0001
0100
0010
0001
1000
0100
0010
0110
,  // measure 79
1000
0100
0010
0001
1000
0100
0010
0001
,  // measure 80
0100
0010
0100
0001
0100
0010
0001
0011
,  // measure 81
0100
1000
0001
0100
1000
0010
0001
1000
,  // measure 82
0010
0001
0010
0100
1000
0010
0001
0110
,  // measure 83
1000
0100
0010
0001
0100
0010
0001
0100
,  // measure 84
1000
0000
0100
0001
0010
0000
1100
0000
0000
0000
0110
0000
0000
0000
0022
0000
,  // measure 85
0000
0000
0000
0000
,  // measure 86
0000
0000
0000
0000
,  // measure 87
0000
0000
0000
0000
,  // measure 88
0000
0000
0000
0000
,  // measure 89
0000
0000
0000
0000
,  // measure 90
0033
0000
0000
0000
;

//---------------dance-single - ----------------
#NOTES:
     dance-single:
     :
     Medium:
     9:
     0.404,0.535,0.267,0.160,0.010:
0000
0000
0000
0000
,
0000
0000
0000
0000
,
0000
0000
0000
0000
,
0000
0000
0000
0000
,
0000
0000
0000
0000
,
0000
0000
0000
0000
,
0020
0000
0000
0000
,
0000
0000
0032
0000
,
0203
0000
0000
0000
,
0320
0000
0000
0000
,
0032
0000
2003
0000
,
0000
0000
0000
0000
,
3100
0000
0000
0000
,
1000
0001
0100
0010
,
1000
0000
0001
0000
1000
0000
0001
1000
,
0001
0100
0010
0001
,
0010
0000
0100
0000
1000
0000
1000
0001
,
1000
0100
0100
0010
,
0010
0000
0001
0000
0001
0000
1000
0001
,
1000
0100
0010
0001
,
0100
0000
0000
0011
0000
0110
0000
0000
,
0011
1000
0100
0010
,
0001
0000
1000
0000
0001
1000
0002
0000
,
1003
0100
0010
0001
,
0100
0010
0100
0002
,
1003
0100
0010
0001
,
0100
0010
2000
3100
,
0020
0130
0010
2000
,
3100
0010
0001
0000
,
1000
0100
0010
0100
0000
0000
0010
0100
,
0010
0100
0000
0000
0010
0001
1000
0001
,
0010
0000
0100
1000
0100
0010
0000
0100
,
0000
0010
0000
0000
0000
0000
0000
0000
,
0001
1000
0001
2000
0000
0000
3010
0100
,
0010
0100
0000
0010
0001
0010
0000
0100
,
0010
0000
0010
0001
0010
0100
0000
1000
,
0000
0100
0010
0000
0100
0000
0010
0000
,
1100
0000
0110
0000
0011
0000
0000
0100
,
0010
0100
0010
1000
0100
0010
0000
0100
,
0010
0000
0011
0000
0110
0000
0000
1000
,
0100
0010
0100
0010
0100
0020
0000
0000
,
0031
0000
0100
0000
0010
0000
0100
0001
,
1000
0000
0002
0000
1000
0000
1003
0001
,
1000
0010
1000
0001
0100
0001
0010
0100
,
1000
0000
0100
0000
1000
0000
0010
0000
0001
0000
0001
0010
0001
0000
0000
0000
,
0110
0001
1000
0100
0010
0000
0010
0001
,
1000
0001
0100
0000
1000
0100
0001
0010
,
0001
0000
1000
0100
0010
0001
0100
1000
,
0100
0010
0002
0000
1003
0000
0100
0000
,
0010
0100
0010
0001
1000
0010
2000
0000
,
3010
0000
0100
0001
1000
0000
0001
0000
,
0100
0010
0100
0010
0100
0001
0010
1000
,
0010
0000
0000
0000
0100
0000
0010
0000
1000
0000
0000
1010
0000
0000
0100
0000
,
0010
0000
0010
0001
1000
0001
0010
0000
,
0100
1000
0001
1000
0100
0000
0100
0010
,
1000
0000
0001
0000
0010
0000
0000
0000
0001
0000
0010
0000
0100
0010
0100
0000
,
0010
0000
0010
0001
0100
1000
0010
1000
,
0010
1000
0020
0000
0130
0000
0100
0010
,
0200
0000
0301
0100
0000
0010
0001
0010
,
0002
0000
1003
0010
1000
0000
0010
0000
,
1100
0110
0011
0101
,
1100
0110
0011
0100
,
0110
1100
0110
0011
,
0110
1100
0110
0010
,
0011
0101
1100
0110
,
0011
0101
1100
1010
,
0011
0101
1100
1010
,
0012
0000
2003
0000
,
3002
0103
0010
1000
,
0100
0000
0010
0000
0001
0000
1000
0001
,
1000
0010
0100
0010
,
1000
0000
0001
0000
1000
0000
0001
1000
,
0001
0100
1000
0100
,
0010
0000
0001
0000
1000
0000
0100
0010
,
0100
0010
0001
1000
,
0010
0000
0001
0000
0100
0000
0010
0100
,
0010
1000
0100
0010
,
0001
0000
0100
0000
0010
0000
0100
0010
,
0100
1000
0100
0010
,
0001
0000
0010
0000
1000
0000
0010
0001
,
1000
0010
1000
1000
,
0100
0000
0010
0000
0001
0000
0100
1000
,
0001
0100
0010
0001
,
1000
0000
0000
1100
0000
0110
0000
0022
,
0000
0000
0000
0000
,
0000
0000
0000
0000
,
0000
0000
0000
0000
,
0000
0000
0000
0000
,
0000
0000
0000
0000
,
0033
0000
0000
0000
;

//---------------dance-single - ----------------
#NOTES:
     dance-single:
     :
     Easy:
     6:
     0.308,0.357,0.080,0.194,0.000:
0000
0000
0000
0000
,
0000
0000
0000
0000
,
0000
0000
0000
0000
,
0000
0000
0000
0000
,
0000
0000
0000
0000
,
0000
0000
0000
0000
,
0020
0000
0000
0000
,
0000
0000
0032
0000
,
0203
0000
0000
0000
,
0320
0000
0000
0000
,
0032
0000
2003
0000
,
0000
0000
0000
0000
,
3100
0000
0000
0000
,
1000
0100
0010
0001
,
1000
0001
1000
0000
,
0001
0100
0010
1000
,
0100
0010
0001
0000
,
0010
1000
0100
0010
,
1000
0100
0001
0010
,
0000
1000
0100
0010
,
0001
0000
0000
1000
0000
0100
0000
0000
,
0001
1000
0100
0010
,
0001
1000
0001
1000
,
0001
0100
0010
0001
,
1000
0100
0001
0100
,
1000
0100
0010
0001
,
0100
1000
0100
0010
,
0002
1003
2000
3001
,
0200
0310
0020
0130
,
1000
0100
0020
1030
,
0100
0010
0001
1000
,
0002
0103
1000
0010
,
2000
3001
0100
0000
,
0100
1000
0100
0010
,
0001
0100
1000
0100
,
0002
0013
0020
0130
,
0200
1300
1000
0001
,
1001
0100
0010
0001
,
1000
0100
0001
0010
,
0110
0110
0110
1000
,
0100
0001
0100
0010
,
1001
0100
0010
0001
,
2000
3001
0100
0010
,
0002
0103
0100
0010
,
1000
0100
0010
1001
,
0200
0310
0010
0002
,
1003
1000
0200
0310
,
0010
0002
0103
0100
,
0010
2000
3001
1000
,
0100
0010
0001
2000
,
3010
0100
0110
1000
,
0100
0002
0103
1000
,
0100
0010
1100
0100
,
0100
0010
0010
0010
,
0011
0001
0001
0001
,
1000
1000
1000
1000
,
1001
0100
1000
0100
,
0010
0002
1003
0100
,
0110
1000
0100
0010
,
1000
0100
0001
0000
,
1000
0100
0010
0001
,
0100
0010
0001
0010
,
0001
0010
0100
1000
,
0010
0100
1000
0100
,
1000
0010
0100
0010
,
0001
1000
0100
0010
,
0100
0001
0010
0100
,
0020
1030
0200
0310
,
1001
0100
0010
1000
,
0100
0010
1000
0001
,
0100
0100
0010
0010
,
1000
1000
0100
0000
,
0100
0100
0100
0100
,
0010
0010
1000
1000
,
0100
0100
0010
0010
,
0001
0001
0100
0010
,
1000
0100
0010
0001
,
1000
0100
0010
0000
,
1000
0100
0010
0001
,
0000
0010
0100
0001
,
1000
0100
0010
1000
,
0100
0010
0001
0100
,
0001
1000
0100
0010
,
1000
0000
0000
0100
0000
0010
0000
0002
,
0000
0000
0000
0000
,
0000
0000
0000
0000
,
0000
0000
0000
0000
,
0000
0000
0000
0000
,
0000
0000
0000
0000
,
0003
0000
0000
0000
;

//---------------dance-single - ----------------
#NOTES:
     dance-single:
     :
     Beginner:
     2:
     0.098,0.178,0.120,0.040,0.000:
0000
0000
0000
0000
,
0000
0000
0000
0000
,
0000
0000
0000
0000
,
0000
0000
0000
0000
,
0000
0000
0000
0000
,
0000
0000
0000
0000
,
2000
0000
0000
0000
,
0000
0000
0000
0000
,
0000
0000
0000
0000
,
3002
0000
0000
0000
,
0000
0000
0000
0000
,
2003
0000
0000
0000
,
3000
0000
0000
0000
,
1000
0000
0000
0000
,
0001
0000
0000
0000
,
0001
0000
0000
0000
,
0100
0000
0000
0000
,
0010
0000
0000
0000
,
0010
0000
0000
0000
,
0001
0000
0000
0000
,
0001
0000
0000
0000
,
1001
0000
0000
0000
,
0100
0000
0000
0000
,
0010
0000
0000
0000
,
1000
0000
0000
0000
,
0110
0000
0000
0000
,
0010
0000
0000
0000
,
1001
0000
0000
0000
,
0001
0000
0000
0000
,
1000
0000
1000
0000
,
1000
0000
0000
0000
,
0001
0000
0001
0000
,
0001
0000
0000
0000
,
0100
0000
0100
0000
,
0100
0000
0000
0000
,
0010
0000
0010
0000
,
0010
0000
0000
0000
,
1001
0000
0000
0000
,
0010
0000
0001
0000
,
0001
0000
0000
0000
,
0100
0000
1000
0000
,
1000
0000
0000
0000
,
1000
0000
0000
0000
,
0010
0000
0000
0000
,
0001
0000
0000
0000
,
1001
0000
0000
0000
,
0001
0000
0000
0000
,
1000
0000
0000
0000
,
0100
0000
0110
0000
,
0000
0000
0010
0000
,
0000
0000
0110
0000
,
0000
0000
0010
0000
,
0000
0000
1001
0000
,
0000
0100
0000
0000
,
0010
0000
0000
0000
,
0100
0000
0000
0000
,
1001
0000
0000
0000
,
0010
0000
0000
0000
,
0110
0000
0000
0000
,
1001
0000
0000
0000
,
1001
0000
0000
0000
,
1001
0000
0000
0000
,
0110
0000
0000
0000
,
0110
0000
0000
0000
,
1001
0000
0000
0000
,
1001
0000
0000
0000
,
0110
0000
0000
0000
,
2000
0000
0000
0000
,
3002
0000
0000
0000
,
0000
0000
0000
0000
,
0000
0000
0000
0000
,
0000
0000
0000
0000
,
1003
0000
0000
0000
,
0100
0000
0000
0000
,
0010
0000
0000
0000
,
0001
0000
0000
0000
,
0001
0000
0000
0000
,
0010
0000
0000
0000
,
0001
0000
0000
0000
,
0001
0000
0000
0000
,
0010
0000
0000
0000
,
0100
0000
0000
0000
,
1000
0000
0000
0000
,
0001
0000
0000
0000
,
0002
0000
0000
0000
,
0000
0000
0000
0000
,
0000
0000
0000
0000
,
0000
0000
0000
0000
,
0000
0000
0000
0000
,
0003
0000
0000
0000
;
