#TITLE:Little Busters! -Ecstasy Ver.- (Punk Dirty Channel Style);
#SUBTITLE:[Remix] リトルバスターズ!エクスタシー PC OP;
#ARTIST:Remixed by Punk Dirty Channel feat. LIA;
#TITLETRANSLIT:;
#SUBTITLETRANSLIT:[Remix] Little Busters! Ecstasy PC OP;
#ARTISTTRANSLIT:;
#GENRE:VISUAL NOVEL REMIX;
#CREDIT:;
#BANNER:Little Busters! -Ecstasy Ver.- (Punk Dirty Channel Style).png;
#BACKGROUND:Little Busters! -Ecstasy Ver.- (Punk Dirty Channel Style)-bg.png;
#LYRICSPATH:;
#CDTITLE:cdtitle.png;
#MUSIC:Little Busters! -Ecstasy Ver.- (Punk Dirty Channel Style).mp3;
#MENUCOLOR:0.25,0,1,1;
#METERTYPE:DDR X;
#OFFSET:-0.180;
#SAMPLESTART:57.280;
#SAMPLELENGTH:12.000;
#SELECTABLE:YES;
#BPMS:0.000=151.000;
#STOPS:;
#BGCHANGES:;

//---------------dance-single - ----------------
#NOTES:
     dance-single:
     :
     Hard:
     11:
     0.556,0.590,0.503,0.197,0.000: // measure 1
0000
0000
0000
0000
,  // measure 2
0000
0000
0000
0000
,  // measure 3
0000
0000
0000
0000
,  // measure 4
0000
0000
0000
0000
,  // measure 5
0000
0000
0000
0000
,  // measure 6
0000
0000
0000
0000
,  // measure 7
0000
0000
0000
0000
,  // measure 8
0000
0000
0000
0000
0000
0000
0000
1001
,  // measure 9
0000
0100
0010
0100
0010
0100
0010
0110
,  // measure 10
0000
0001
0100
1000
0100
0001
0100
1000
,  // measure 11
0001
0100
0010
1000
0100
0010
0001
1001
,  // measure 12
0000
0100
0010
1001
0000
1000
0001
0110
,  // measure 13
0000
1000
0001
1000
0001
0100
0001
0101
,  // measure 14
0000
1000
0010
0100
0010
1000
0010
0010
,  // measure 15
0100
0100
0010
0010
0100
0010
0100
0110
,  // measure 16
0000
1000
0010
0110
0000
0101
0000
0101
,  // measure 17
0000
1000
0010
0000
0100
0000
0010
0000
,  // measure 18
1000
0010
0100
0000
0110
0000
1000
0001
,  // measure 19
1000
0000
0100
0000
0110
0000
0100
0001
,  // measure 20
0100
0010
0000
0000
,  // measure 21
1000
0010
0100
0020
0000
0000
0031
0010
,  // measure 22
0100
0020
0000
1030
0100
0002
0000
0103
,  // measure 23
1000
0000
0010
0100
0001
2000
0000
3200
,  // measure 24
0000
0301
0000
0000
0000
0000
0000
0000
,  // measure 25
1000
0100
0010
0002
0000
0000
0103
0010
,  // measure 26
1000
0200
0000
0310
0100
0010
0000
1000
,  // measure 27
0200
0000
1300
0100
0010
0200
0000
0302
,  // measure 28
0000
0103
0000
0000
0000
0000
1000
0000
,  // measure 29
1001
0000
0100
0000
0101
0000
0100
0001
,  // measure 30
0000
0100
0001
0000
1000
0001
1000
0000
,  // measure 31
1001
0000
0101
0000
1000
0001
0100
0000
,  // measure 32
0010
0100
0010
1000
0100
0010
0001
0000
,  // measure 33
1000
0001
0100
0001
0100
0010
1000
0100
,  // measure 34
0010
0001
0200
0000
0310
1000
0010
0000
,  // measure 35
1000
0010
0100
0010
1000
0010
1000
0100
,  // measure 36
0010
0001
0100
0010
0100
0010
0100
0000
,  // measure 37
1000
0100
0001
0100
1100
0000
0100
0100
,  // measure 38
0010
0100
0101
0000
0100
1000
0100
0010
,  // measure 39
0110
0000
0001
0100
0001
0100
0101
1000
,  // measure 40
0100
0010
2000
0000
3001
0100
0001
0000
,  // measure 41
0100
1000
0100
0010
1000
0001
0200
0000
,  // measure 42
0310
1100
2000
3100
,  // measure 43
0010
0100
0010
1000
0200
0000
0310
0100
,  // measure 44
0001
0000
0100
0010
2000
0000
3100
0010
,  // measure 45
0100
0000
0100
0020
0000
1030
0100
0000
,  // measure 46
0100
2000
0000
3100
0010
0000
0010
0002
,  // measure 47
0000
0103
0001
0000
1000
0000
0002
0000
,  // measure 48
0100
0000
0010
0000
1003
0001
1000
0001
,  // measure 49
0100
0010
2000
0000
3100
0000
0010
0100
,  // measure 50
0020
0000
0031
0100
0010
0100
1000
0100
,  // measure 51
0002
0000
0103
1000
0010
0000
0100
0000
,  // measure 52
1100
1010
1001
1001
,  // measure 53
1100
1001
1001
0101
,  // measure 54
0011
0101
1100
1001
,  // measure 55
0101
1001
0011
0101
,  // measure 56
1100
1010
0101
1100
,  // measure 57
1010
0101
1100
1010
,  // measure 58
0101
1001
1001
0101
,  // measure 59
1001
1000
0001
1000
0001
1000
0001
1000
,  // measure 60
0101
0000
0101
1000
0001
0100
0010
0110
,  // measure 61
0000
0100
1000
0100
0100
0010
0100
0010
,  // measure 62
0100
0010
1000
0010
0100
0010
0100
1010
,  // measure 63
0000
0100
0010
0110
0000
0101
0000
0101
,  // measure 64
0000
1000
0010
0100
0010
0100
0010
0110
,  // measure 65
0000
1000
0100
0010
0001
0100
0010
0100
,  // measure 66
0001
0100
0010
1000
0100
0001
0100
0101
,  // measure 67
0000
1000
0100
1010
0000
0101
0000
0101
,  // measure 68
0000
1001
0100
0001
0100
0001
0100
0001
,  // measure 69
0100
0010
1000
0100
0010
0001
0100
0010
,  // measure 70
0100
0010
1000
0100
0010
0001
0100
0001
,  // measure 71
0100
0001
1000
0100
0010
0100
0010
0100
,  // measure 72
0010
1000
0100
0001
0100
1000
0010
0001
,  // measure 73
0010
1000
0100
0001
0100
1000
0010
0001
,  // measure 74
0100
0001
0100
1000
0100
0010
1000
0001
,  // measure 75
0100
0001
1000
0010
0100
0001
0100
2002
,  // measure 76
0000
0000
0000
0000
,  // measure 77
0000
0000
0000
0000
,  // measure 78
0000
0000
0000
0000
,  // measure 79
0000
0000
0000
0000
,  // measure 80
3003
0000
0000
0000
;

//---------------dance-single - ----------------
#NOTES:
     dance-single:
     :
     Challenge:
     13:
     0.664,0.807,0.927,0.134,0.059:
0000
0000
0000
0000
,
0000
0000
0000
0000
,
0000
0000
0000
0000
,
0000
0000
0000
0000
,
0000
0000
0000
0000
,
0000
0000
0000
0000
,
0000
0000
0000
0000
,
0000
0000
0000
0000
0000
0000
0000
1001
,
0000
0010
0011
0010
0011
0010
0110
0110
,
0000
0100
1100
0100
0110
0100
0101
0100
,
1100
0100
0110
0010
0011
0010
0011
0011
,
0000
0001
0100
0101
0000
1000
0001
1001
,
0000
1000
1001
1000
1001
1000
0101
0101
,
0000
0100
0101
0100
0110
0100
0101
0100
,
1100
0100
0110
0010
0011
0100
0101
0101
,
0000
0001
1000
1001
0000
1001
0000
0001
,
1001
0000
1000
0000
0100
0000
0010
0100
,
0000
0100
0010
0000
0100
0000
1000
0000
,
0100
0000
1000
0000
1001
0000
0100
0010
,
0000
0001
0100
0000
0000
0000
0000
0000
,
1000
0100
0010
0002
0000
0000
1003
0001
,
1000
0200
0000
0310
1000
0020
0000
0130
,
0001
0000
0001
0100
1000
0200
0000
0310
,
0000
1000
0000
0100
0000
0000
0000
0000
,
1000
0100
0010
0200
0000
0000
0310
1000
,
0010
0100
0000
0001
0100
0010
0000
1000
,
0100
0000
0100
0001
0100
0020
0000
1030
,
0000
0100
0000
0000
0000
0000
0100
0000
,
1001
0000
0101
0000
0101
0100
0100
0101
,
0000
1000
0100
0010
0001
1000
0100
0010
,
1010
0000
1001
0000
1010
0010
0010
1010
,
0000
0000
1000
0000
0001
0000
0100
0000
0001
0000
1000
0000
0100
0010
0100
0000
,
0101
0000
0100
0001
0100
0001
0100
0001
,
1000
0100
0020
0000
0130
0001
0100
0001
,
1000
0100
0010
0001
1000
0001
1000
0001
,
1000
0001
1000
0001
0100
0001
0100
0001
0100
0001
1000
0001
1000
0000
0000
0000
,
1100
0100
0101
0100
1001
0000
1010
0010
,
0011
0010
1010
0000
0101
0100
0101
0100
,
0101
0000
1100
1000
1010
0010
1001
0100
,
0001
0100
0002
0000
1003
0000
0100
0000
,
0010
1000
0010
0100
0010
0001
2000
0000
,
3001
0100
0001
0100
0020
0000
0130
0001
,
0100
0010
1000
0100
0002
0000
0013
0100
,
0001
0000
0000
0000
1000
0000
0001
0000
1000
0001
0000
0001
0100
0000
0001
1000
,
0000
0010
0100
0000
0100
0000
0010
0000
1000
0000
0010
0000
0100
0000
0000
0000
,
1000
0100
0001
0100
1000
0000
1000
0010
,
0001
0010
1000
0000
0002
0000
2003
0000
,
3100
0001
0100
0000
0010
0001
0010
0100
,
0010
0100
2000
0000
3100
0000
0010
0100
,
0002
0000
0013
0100
0000
0100
0010
0100
,
0001
0000
0100
0001
0100
0000
0010
0000
,
1100
0100
0110
0100
0101
0100
0011
0010
,
0011
0001
0101
0100
0101
0100
0110
0100
,
1100
0100
0110
0010
0011
0100
0101
1000
,
1001
0100
1001
0100
0110
0010
0110
0100
,
1100
0100
0101
0100
0011
0010
0101
0100
,
0101
0100
1100
0100
0110
0100
1010
1000
,
0110
0100
0101
0100
0110
0100
1100
0100
,
0110
0000
1000
0100
1000
0100
1000
0000
0001
0010
0001
0010
0001
0000
0100
0000
,
0110
0000
1000
0001
1000
0001
1000
1001
,
0000
0001
0100
0010
0100
0010
0100
0010
,
1000
0100
0010
0001
0100
0010
0001
0011
,
0000
0100
0001
0101
0000
1001
0000
0101
,
0000
1000
0110
0100
0110
0100
0100
0110
,
0000
0100
1100
0100
0110
0100
0101
0100
,
1100
0100
1010
0010
0011
1000
0010
1001
,
0000
0100
0001
0101
0000
1000
0001
1001
,
0000
1000
0001
1000
0001
1000
0001
1000
,
0001
0100
0010
0100
0010
1000
0100
0010
,
0100
0001
0100
0010
0100
0010
0100
0110
,
0000
1000
0100
0101
0000
1001
0000
0101
,
0000
1000
0110
1000
0110
0100
0110
0100
,
0011
0100
0110
0100
1100
0100
0110
0100
,
0101
1000
1100
0100
0110
0010
0011
0001
,
0101
0100
1001
1000
0101
0100
0001
2002
,
0000
0000
0000
0000
,
0000
0000
0000
0000
,
0000
0000
0000
0000
,
0000
0000
0000
0000
,
3003
0000
0000
0000
;

//---------------dance-single - ----------------
#NOTES:
     dance-single:
     :
     Medium:
     8:
     0.415,0.559,0.377,0.134,0.000:
0000
0000
0000
0000
,
0000
0000
0000
0000
,
0000
0000
0000
0000
,
0000
0000
0000
0000
,
0000
0000
0000
0000
,
0000
0000
0000
0000
,
0000
0000
0000
0000
,
0000
0000
0000
0000
0000
0000
0000
0110
,
0000
1000
0001
0000
0001
0000
0001
1000
,
0000
1000
0001
0000
0001
0000
1000
0000
,
1000
0001
1000
0000
1000
0000
1000
0001
,
0000
0001
1000
0001
0000
0001
1000
0001
,
0000
1000
0001
0000
0001
0000
0001
1000
,
0000
1000
0001
0000
1000
0000
1000
0000
,
1000
0001
1000
0000
1000
0000
1000
0001
,
0000
1000
0001
1000
0000
1000
0000
1000
,
0000
0001
1000
0000
0001
0000
0000
0000
,
0100
0100
0010
0000
,
1000
1000
0001
0000
,
2000
0000
0000
0000
,
3001
1000
0001
0100
0000
0000
0100
1000
,
0100
0010
0000
0001
0100
0001
0000
0001
,
0100
0000
1000
0100
0010
0001
0000
1000
,
0000
0001
0000
0000
0000
0000
0000
0000
,
0001
0010
0100
1000
0000
0000
1000
0100
,
0001
0100
0000
0010
0001
0010
0000
1000
,
0100
0000
0100
0001
0100
0010
0000
0010
,
0000
0100
0000
0000
0000
0000
0100
0000
,
1100
0000
1001
0000
0101
0000
0100
0001
,
0000
0100
0001
1000
0100
0020
0000
0000
,
0230
0301
0100
0010
,
1000
0001
1000
0001
0100
0020
0000
0000
,
0031
0000
0100
0001
0100
0000
0100
0010
,
1000
0000
0200
0000
0310
0000
0100
0001
,
1000
0000
1000
0010
0100
0000
0100
0010
,
1000
0100
0010
0001
0000
0000
0100
0000
,
0001
1000
0001
0100
0010
0000
0100
0001
,
1000
0010
0100
0000
1000
0100
0010
0100
,
0001
0000
0100
0001
0100
1000
0010
0001
,
0020
2030
3001
0100
,
0010
0000
1000
0001
1000
0200
0000
0000
,
0310
0000
0100
0001
0020
0000
0130
0000
,
0001
0100
1000
0020
0000
0030
0001
0100
,
0000
0000
0000
0010
0100
0000
0100
0010
,
0100
0000
1000
0100
0000
0100
0010
0000
,
0001
0010
0000
0100
0010
0000
0001
0100
,
0000
1000
0100
0000
0002
0000
2003
0000
,
3001
0000
0100
0000
0010
0000
1000
0001
,
1000
0001
0000
0000
0100
0000
0010
0000
,
0200
0000
0310
0100
0000
0000
0100
0000
,
0010
0000
1000
0001
0000
0000
0000
0000
,
1001
0100
0001
1000
,
0010
0100
0010
0000
,
0101
0100
1000
0100
,
0010
0001
0100
0010
,
1001
0100
0010
0100
,
0001
0100
0010
0001
,
1000
0001
1000
0000
0100
0010
0100
0000
,
0002
0000
2003
0000
,
3001
0100
0110
1000
,
0001
0101
0101
0101
,
1000
1100
0110
0101
,
0100
0101
1000
0100
,
0110
1001
0101
0101
,
1000
1100
0110
0011
,
0101
1100
1000
0001
,
0100
0101
1000
0010
,
0110
1001
0101
0011
,
0101
1100
1010
0101
,
0010
1000
0100
0010
,
1001
0100
0010
0100
,
0101
1001
1001
0101
,
1001
0110
1100
0110
,
0011
0101
1001
0101
,
1001
0000
0100
0000
0010
0000
1000
2002
,
0000
0000
0000
0000
,
0000
0000
0000
0000
,
0000
0000
0000
0000
,
0000
0000
0000
0000
,
3003
0000
0000
0000
;

//---------------dance-single - ----------------
#NOTES:
     dance-single:
     :
     Easy:
     6:
     0.314,0.435,0.252,0.094,0.000:
0000
0000
0000
0000
,
0000
0000
0000
0000
,
0000
0000
0000
0000
,
0000
0000
0000
0000
,
0000
0000
0000
0000
,
0000
0000
0000
0000
,
0000
0000
0000
0000
,
0000
0000
0000
0000
0000
0000
0000
1001
,
0000
0001
0001
0001
,
0000
1000
1000
1000
,
0100
0100
0100
0010
,
0000
0001
0000
0001
,
0000
1000
1000
1000
,
0000
0100
0100
0100
,
0010
0010
0010
0001
,
0000
0000
0001
0000
0000
1000
0000
0000
,
1000
0000
0001
0000
,
0100
0010
0001
0000
,
0100
0000
1000
0000
,
1000
0000
0000
0000
,
1000
0001
0100
0000
,
0010
0000
0000
0001
1000
0000
0000
0000
,
0100
0010
1000
0001
,
0100
0010
0000
0000
,
0001
0100
1000
0010
,
0001
0100
0001
0100
,
1000
1000
0001
0100
,
0010
0001
0000
1000
,
1001
1001
1000
0001
,
0100
0010
0001
1000
,
0110
0100
0010
1000
,
0100
0010
0001
1000
,
0101
1000
0001
0100
,
0010
0002
1003
0100
,
0010
1000
0100
0010
,
2000
0000
0001
0000
,
3001
0100
0001
1000
,
0010
1000
0100
0010
,
0100
0001
0100
0001
,
1000
0002
1000
0000
,
1003
0100
0010
0200
,
0310
0100
0002
0103
,
0200
1300
1000
0100
,
0001
0000
0001
0100
,
1000
0100
0010
0001
,
0010
1000
0100
0001
,
0100
1000
0010
0002
,
1003
0100
0010
1000
,
0100
0020
1030
0100
,
2000
3001
0002
0013
,
0100
0010
0100
0000
,
1001
0101
1100
1010
,
0101
0000
0000
0000
,
1001
1001
0101
0101
,
1001
1001
0000
0000
,
1001
1001
1100
1100
,
1001
1001
0000
0000
,
1001
1001
1010
1010
,
0011
0011
1001
0000
,
1001
0100
0010
0100
,
0101
0100
0010
0100
,
0010
1000
0100
0010
,
1000
0001
0100
0010
,
1000
0001
0100
0010
,
1000
0100
0001
0100
,
1000
0010
0001
0100
,
0100
0010
1000
0100
,
1000
0001
0100
0010
,
1000
0100
0001
0100
,
1000
0010
0001
0010
,
1000
0001
0100
0001
,
0100
0010
1000
0100
,
0001
0100
0010
0001
,
1000
0100
0001
0010
,
0100
0001
1000
0001
,
2002
0000
0000
0000
,
0000
0000
0000
0000
,
0000
0000
0000
0000
,
0000
0000
0000
0000
,
3003
0000
0000
0000
;

//---------------dance-single - ----------------
#NOTES:
     dance-single:
     :
     Beginner:
     2:
     0.117,0.186,0.102,0.031,0.000:
0000
0000
0000
0000
,
0000
0000
0000
0000
,
0000
0000
0000
0000
,
0000
0000
0000
0000
,
0000
0000
0000
0000
,
0000
0000
0000
0000
,
0000
0000
0000
0000
,
0000
0000
0000
0000
,
0000
1000
1000
1000
,
0000
0010
0010
0010
,
0000
0000
0001
0001
,
0000
0100
0000
0000
,
0000
0010
0010
0010
,
0000
0100
0100
0100
,
0000
1000
1000
1000
,
0000
0001
0001
0001
,
0000
0000
1000
0000
,
0001
0000
0001
0000
,
0100
0000
0000
0000
,
0010
0000
0000
0000
,
0001
0000
0000
0000
,
1000
0000
0000
0000
,
0100
0000
0000
0000
,
0010
0000
0000
0000
,
0001
0000
0000
0000
,
1000
0000
0000
0000
,
0100
0000
0000
0000
,
0010
0000
0000
0000
,
1001
0000
0000
0000
,
0001
0000
0000
0000
,
0001
0000
0000
0000
,
0010
0000
0000
0000
,
0110
0000
0000
0000
,
0100
0000
0000
0000
,
0000
1000
0000
0000
,
0001
0000
0000
0000
,
1000
0000
0000
1000
,
0000
0000
1000
0000
,
0000
1000
0000
0000
,
2000
0000
0000
0000
,
3000
0000
0001
0000
,
0001
0000
0100
0000
,
0000
0000
0010
0000
,
0001
0000
0001
0000
,
0001
0000
0001
0000
,
0001
0000
0001
0000
,
0001
0000
0002
0000
,
0000
0000
0000
0000
,
0000
0000
0003
0000
,
1000
0000
1000
0000
,
1000
0000
0000
0000
,
1001
0000
0000
0000
,
1001
0000
0000
0000
,
0110
0000
0000
0000
,
0110
0000
0000
0000
,
1001
0000
0000
0000
,
1001
0000
0000
0000
,
0110
0000
0000
0000
,
0110
0000
0000
0000
,
1001
0000
0000
0000
,
1000
0000
0000
0000
,
0001
0000
0000
0000
,
1000
0000
0000
0000
,
0100
0000
0000
0000
,
0010
0000
0000
0000
,
0001
0000
0000
0000
,
1000
0000
0000
0000
,
0100
0000
0000
0000
,
0010
0000
0000
0000
,
0001
0000
0000
0000
,
1000
0000
0000
0000
,
0110
0000
0000
0000
,
0010
0000
0000
0000
,
0001
0000
0000
0000
,
1000
0000
0000
0000
,
2002
0000
0000
0000
,
0000
0000
0000
0000
,
0000
0000
0000
0000
,
0000
0000
0000
0000
,
3003
0000
0000
0000
;
