#TITLE:Little Busters! (livetune Remix);
#SUBTITLE:[Remix] リトルバスターズ! PC OP;
#ARTIST:Remixed by livetune feat. 理多;
#TITLETRANSLIT:;
#SUBTITLETRANSLIT:[Remix] Little Busters! PC OP;
#ARTISTTRANSLIT:Remixed by livetune feat. Rita;
#GENRE:VISUAL NOVEL REMIX;
#CREDIT:;
#BANNER:Little Busters! (livetune Remix).png;
#BACKGROUND:Little Busters! (livetune Remix)-bg.png;
#LYRICSPATH:;
#CDTITLE:cdtitle.png;
#MUSIC:Little Busters! (livetune Remix).mp3;
#MENUCOLOR:0.25,0,1,1;
#METERTYPE:DDR X;
#OFFSET:-0.028;
#SAMPLESTART:78.800;
#SAMPLELENGTH:12.000;
#SELECTABLE:YES;
#BPMS:0.000=140.000;
#STOPS:;
#BGCHANGES:;

//---------------dance-single - ----------------
#NOTES:
     dance-single:
     :
     Hard:
     12:
     0.550,0.609,0.228,0.317,0.110: // measure 1
0000
0000
0000
0000
,  // measure 2
0000
0000
0000
0000
,  // measure 3
0000
0000
0000
0000
,  // measure 4
1001
0100
0000
0010
1000
0000
0100
0010
,  // measure 5
0000
0001
0100
0000
1000
0100
0000
0010
,  // measure 6
0100
0000
0001
1000
0000
0100
0010
1000
,  // measure 7
0010
2000
3002
0000
,  // measure 8
0000
0103
0010
1000
0100
0010
0002
0000
,  // measure 9
0103
0000
0010
1000
0002
0000
0000
0000
,  // measure 10
1003
0100
0010
0100
0020
0000
0031
0100
,  // measure 11
0000
0000
0000
0000
0000
0000
0001
0000
1100
0000
0000
0110
0000
0000
0011
0000
,  // measure 12
0000
0101
0000
0000
1100
0000
0000
0110
0000
0000
0011
0000
0000
0101
0000
0000
,  // measure 13
1100
0000
0000
0110
0000
0000
0011
0000
0000
0101
0000
0000
0011
0000
0000
0101
,  // measure 14
0000
0000
1100
0000
0000
1010
0000
0000
1100
0000
0000
0011
0000
0000
1000
0000
,  // measure 15
0000
0001
0000
0000
0100
0000
0010
0000
0000
0000
1000
0000
0100
0000
0010
0000
,  // measure 16
0001
0100
0020
0000
1030
0100
0001
0100
,  // measure 17
0020
0000
1030
0100
0000
0001
0100
0001
,  // measure 18
2000
0000
3001
1000
0000
0010
1000
0000
,  // measure 19
1000
0000
0000
0100
0000
0000
0010
0000
0100
0000
0000
0010
0000
0000
0100
0010
,  // measure 20
0100
1000
0100
0010
0001
0000
0100
0000
,  // measure 21
0001
0000
0000
0100
0000
0000
0010
0000
1000
0000
0000
0100
0000
0000
0010
0000
,  // measure 22
0200
0000
0302
1003
,  // measure 23
1001
0000
0100
0010
0100
0010
1000
0100
,  // measure 24
0001
0100
1000
0010
1000
0010
0100
0001
,  // measure 25
0100
0000
0010
0100
0010
1000
0000
0010
,  // measure 26
0000
0100
0010
1000
0010
0100
0010
1000
,  // measure 27
0001
0000
0100
0010
0100
0010
1000
0001
,  // measure 28
0000
0100
0001
1000
0100
0010
0001
0100
,  // measure 29
0010
0000
0001
0100
0010
0100
0000
0010
,  // measure 30
0000
1000
0100
0010
0000
0100
0001
0000
,  // measure 31
1000
0100
0001
0100
0000
0000
0010
1000
,  // measure 32
0010
0200
0000
0310
1000
0100
0010
0001
,  // measure 33
0020
0000
0031
0100
0001
0200
0000
2300
,  // measure 34
0000
3200
0000
0301
0000
0100
0001
0000
,  // measure 35
1000
0100
0010
0200
0000
0000
0310
1000
,  // measure 36
0100
0020
0000
0130
0010
0001
0100
0001
,  // measure 37
0100
0000
0001
1000
0001
0200
0000
0320
,  // measure 38
0000
2030
0000
3100
0000
0010
0100
0000
,  // measure 39
1001
0000
0100
0000
0010
0000
1000
0010
,  // measure 40
0100
0010
1000
0100
0001
0100
0010
0001
,  // measure 41
0200
0310
0001
0101
,  // measure 42
1000
0100
0010
0100
0010
1000
0200
0000
,  // measure 43
0310
1000
0100
0110
,  // measure 44
1000
0000
1100
0000
0010
0000
0110
1000
,  // measure 45
0100
0001
0100
1000
0100
0010
0010
1000
,  // measure 46
0100
0000
0000
0010
0000
0000
0100
0000
0001
0000
0010
0000
0100
0000
0000
0000
0000
0000
1001
0000
0000
0000
0000
0000
,  // measure 47
1100
0010
1000
0010
0200
0000
0310
1000
,  // measure 48
0001
0100
0020
0000
0031
0100
0001
0100
,  // measure 49
2000
0000
3010
0001
0100
0010
0001
0010
,  // measure 50
0200
0302
0203
0302
,  // measure 51
1003
0100
0010
0100
0001
0100
0020
0000
,  // measure 52
0031
0000
0101
1000
0200
0000
0310
0000
,  // measure 53
1000
0100
0010
0001
0200
0000
0310
0001
,  // measure 54
0100
0000
0000
0000
1100
0000
0100
0000
0110
0000
0000
0010
0000
0000
0100
0000
,  // measure 55
0002
0000
1003
0200
0000
0310
1000
0000
,  // measure 56
0100
0020
0000
0031
0010
0000
0001
0020
,  // measure 57
0000
0130
0010
0000
2000
0000
3200
0000
,  // measure 58
0010
0000
0001
0000
1000
0310
0100
0010
,  // measure 59
0100
0010
2000
0000
3100
0000
0010
0100
,  // measure 60
0020
0000
0130
0020
0000
0031
0100
0010
,  // measure 61
0002
0000
0013
0100
0010
0000
1000
0000
,  // measure 62
1100
0000
0000
0010
0000
0000
0100
0000
0010
0000
0000
0000
0100
0000
0010
0001
,  // measure 63
0010
0010
1000
0100
0001
0000
0010
0000
,  // measure 64
0001
0000
0000
0010
0000
0000
0100
0000
1000
0000
0000
0100
0000
0000
0010
0000
,  // measure 65
0100
0000
0000
0010
0000
0000
1000
0000
0000
0000
0010
0000
0100
0000
0000
0000
,  // measure 66
0010
0000
0000
1000
0000
0000
0100
0000
0010
0000
0000
0001
0000
0000
0010
0000
,  // measure 67
0100
0000
0000
0010
0000
0000
0100
0000
0001
0000
0000
0000
1001
0000
0000
0000
,  // measure 68
1000
0000
0000
0100
0000
0000
0010
0000
0001
0000
0000
0000
0100
0000
1000
0010
,  // measure 69
0100
0001
1000
0001
1000
0001
1000
0001
0020
0000
0000
0000
1030
0000
0000
0000
,  // measure 70
1001
0000
0100
0010
0100
0010
1000
0100
,  // measure 71
0001
0100
0010
0001
0010
0100
0001
0010
,  // measure 72
0100
0001
1000
0100
0010
1000
0001
1000
,  // measure 73
0001
1000
0100
0010
0001
1000
0010
0100
,  // measure 74
0001
1000
0010
0100
0001
1000
0100
0010
,  // measure 75
0100
0001
0100
1000
0100
0010
1000
0001
,  // measure 76
0100
0010
1000
0100
0010
0001
1000
0010
,  // measure 77
0100
0010
1000
0100
0010
0001
0100
0010
,  // measure 78
1000
0100
0010
1000
,  // measure 79
0001
1000
0000
0001
0000
1000
0000
0001
,  // measure 80
2000
0000
3001
0000
0000
0001
0000
1000
,  // measure 81
0001
1000
0000
0001
0000
2000
0000
0000
,  // measure 82
3001
0000
1000
0001
0000
0000
0100
0010
,  // measure 83
1000
0010
0000
0100
0000
0020
0000
0000
,  // measure 84
0000
0000
0000
0000
,  // measure 85
0030
0000
0000
0000
;

//---------------dance-single - ----------------
#NOTES:
     dance-single:
     :
     Medium:
     8:
     0.413,0.435,0.041,0.242,0.028:
0000
0000
0000
0000
,
0000
0000
0000
0000
,
0000
0000
0000
0000
,
1001
0001
0000
0100
0010
0000
1000
0100
,
0000
0010
0001
0000
0001
0100
0000
1000
,
0100
0000
0010
0001
0000
1000
0001
1000
,
0001
2000
0000
0000
,
3000
0001
1000
0001
0100
0001
0000
0000
,
0100
0000
0000
0010
2000
0000
0000
0000
,
3010
0100
0010
0200
0000
0000
0310
1000
,
0000
0000
0000
0000
0000
0000
0010
0000
0100
0000
0000
0010
0000
0000
0010
0000
,
1000
0000
0100
0010
0000
0010
0001
0000
,
0001
0100
0000
0100
1000
0000
1000
0100
,
0000
0100
0010
0000
0010
0000
0002
0000
,
0000
0000
1003
0000
0000
1000
0010
1000
,
0010
0200
0000
0000
0320
0000
0000
1030
,
0010
0000
0100
0010
0000
0001
0010
0100
,
0020
0000
1030
0010
0000
0000
0100
0000
,
0010
0000
0000
1000
0000
0000
0010
0000
0100
0000
0000
0010
0000
0000
1000
0000
,
0100
0000
0000
0001
0000
0000
0100
0000
0000
0000
0000
0000
0000
0000
0000
0000
,
0010
0000
0000
1000
0000
0000
0100
0000
0010
0000
0000
0001
0000
0000
1000
0000
,
0020
0000
2030
0000
,
3001
0000
0100
0010
0000
0100
0000
0010
,
0000
1000
0000
0100
0000
0010
0000
1000
,
0001
0000
1000
0000
0000
0010
0000
0010
,
0000
1000
0000
0100
0000
0010
0100
0010
,
0100
0000
0010
1000
0000
0010
0000
0100
,
0000
1000
0000
0100
0000
0010
0000
0001
,
1000
0000
0001
1000
0000
0010
0000
0010
,
0000
1000
0000
0100
0000
0010
1000
0000
,
1000
0001
0100
0001
0000
0000
1000
0100
,
0010
0100
0000
0010
1000
0010
0000
0100
,
0010
0000
1000
0100
0010
2000
0000
3001
,
0000
0100
0000
0010
0000
1000
0001
0000
,
0010
0100
0010
0200
0000
0000
0310
1000
,
0010
0200
0000
0310
0001
0100
0000
0010
,
0002
0000
1003
0001
1000
0002
0000
2003
,
0000
3002
0000
0000
0000
0000
1003
0000
,
1001
0000
0100
0000
0010
0000
0100
0010
,
0100
0010
1000
0100
0010
0200
0000
0310
,
1000
0010
0100
0110
,
1000
0001
1000
0001
1000
0020
0000
0000
,
0130
0000
0010
0000
1000
0000
0100
0010
,
0200
0000
0320
0000
0000
0000
0030
1000
,
0001
0000
0000
0100
0000
0000
0010
0000
0100
0000
0000
0010
0000
0000
1000
0000
,
0100
0010
0000
0001
0100
0000
1001
0000
,
0100
0010
0000
0100
0010
0000
0001
0010
,
0000
0100
1000
0000
1000
0100
0000
0100
,
0010
0000
0010
0001
0000
0001
0010
0100
,
2000
3200
0320
2030
,
3001
0100
0001
0100
0001
1000
0200
0000
,
0310
0000
0100
0010
0200
0000
0000
0000
,
0310
1000
0010
1000
0020
0000
0130
0000
,
0001
0000
0100
0010
0110
0000
0100
0010
,
0100
0000
0010
2000
0000
3010
0100
0000
,
0010
0200
0000
0310
0001
0000
0010
0001
,
0000
0001
0010
0000
0200
0000
0320
0000
,
1030
0000
0010
0000
0100
0000
0010
0100
,
0010
0100
0010
0000
0010
0000
0100
1000
,
0100
0000
0010
0100
0000
0010
0100
0010
,
0100
0000
1000
0100
0000
0001
0010
0000
,
1000
0000
1000
0010
0100
0000
0100
0010
,
0001
0000
0010
0001
0000
0000
0100
0000
,
0001
0000
0001
0001
0100
0000
1000
1000
,
0100
0000
0010
0001
0000
0000
0010
0000
,
0001
0000
0001
0001
0100
0000
1000
0000
,
0100
0000
0010
0001
0000
0000
0100
0000
,
0010
0000
0010
1000
0100
0000
0100
0010
,
0002
0000
1003
0000
,
1001
0100
0010
1000
,
0100
0000
0010
0000
0001
0000
1000
0001
,
1000
0000
0100
0010
0000
0100
0000
0100
,
0000
0000
0010
0000
1000
0000
0001
1000
,
0001
0000
0100
0010
0000
0100
0000
0100
,
0000
0010
1000
0100
,
0010
0000
0010
0000
0001
1000
0000
0001
,
0000
0001
0001
1000
,
0001
0000
0001
0000
1000
0000
0100
0010
,
0100
0010
0100
0010
,
2000
0000
3000
0000
0000
1000
0000
0000
,
1000
0000
0000
0001
0000
0002
0000
0000
,
1003
1000
0000
1000
,
1000
0000
0000
0001
0000
0002
0000
0000
,
0000
0000
0000
0000
,
0003
0000
0000
0000
;

//---------------dance-single - ----------------
#NOTES:
     dance-single:
     :
     Easy:
     6:
     0.318,0.377,0.083,0.145,0.000:
0000
0000
0000
0000
,
0000
0000
0000
0000
,
0000
0000
0000
0000
,
1001
0000
1000
0000
,
0001
0000
1000
0001
,
1000
0000
0001
0100
,
0010
1000
0001
0000
,
0000
1000
0100
0010
,
0001
0000
1000
0000
,
0001
0100
0010
1000
,
0001
0000
1000
0100
,
0010
0001
0100
0010
,
0001
0100
0010
1000
,
0100
0010
0001
2000
,
0000
0000
0000
3001
,
1000
0100
0010
0000
,
1000
0100
0001
0100
,
0010
1000
0100
0010
,
0001
1000
0001
1000
,
0010
0100
0001
0000
,
1000
0100
0010
0001
,
2000
0000
3002
0000
,
1003
0100
0010
0001
,
1000
0001
1000
0010
,
0100
0100
0010
0010
,
0001
1000
0001
1000
,
0010
0100
0010
0001
,
1000
0100
0010
0001
,
1000
0100
0010
0001
,
1000
0100
0010
0001
,
0110
1000
0100
0010
,
1000
0001
0100
0010
,
0001
0001
1000
0100
,
0010
0001
1000
0001
,
0100
1000
0100
0010
,
0001
0100
1000
0100
,
0010
0010
1000
0100
,
0001
0100
0010
1000
,
1001
0110
1000
0110
,
0001
0100
0010
1000
,
1100
0110
0011
0110
,
1000
1000
0001
0100
,
0020
0031
0002
1003
,
1000
0200
0000
0000
,
0310
1000
0100
0010
,
1000
0001
0010
0110
,
1001
0100
0010
1000
,
0001
0100
0010
0001
,
0100
1000
0100
0010
,
1000
0200
0320
0032
,
1003
0010
0100
0020
,
1030
0010
0200
0310
,
0001
1000
0020
0031
,
1000
0001
1001
0100
,
0010
0001
0100
0010
,
0001
0100
1000
0100
,
0010
0001
2000
3002
,
0203
0310
1000
0010
,
0100
0020
1030
0100
,
0002
1003
0100
0010
,
2000
3001
0100
0010
,
1000
1000
0100
0100
,
0010
0010
0001
0000
,
0001
0001
0100
0100
,
0010
1000
0100
0000
,
1000
1000
0100
0100
,
0010
0001
0010
0000
,
0100
0001
0100
1000
,
0100
0001
0200
0000
,
2300
0000
0000
0000
,
3001
1000
0001
1000
,
0100
0100
0010
0010
,
0100
0010
1000
0100
,
0001
0001
0100
1000
,
0100
0010
0001
0100
,
0010
0010
1000
0100
,
0010
0001
0100
0010
,
1000
0001
0100
0010
,
0010
1000
0100
0010
,
1000
0000
0000
1000
,
1000
0000
0000
0001
0000
0001
0000
0000
,
1000
1000
0000
0100
,
0100
0000
0000
0010
0000
0020
0000
0000
,
0000
0000
0000
0000
,
0030
0000
0000
0000
;

//---------------dance-single - ----------------
#NOTES:
     dance-single:
     :
     Beginner:
     2:
     0.122,0.174,0.035,0.055,0.000:
0000
0000
0000
0000
,
0000
0000
0000
0000
,
0000
0000
0000
0000
,
1002
0000
0000
0000
,
0000
0000
0000
0000
,
2003
0000
0000
0000
,
0000
0000
3200
0000
,
0000
0000
0000
0000
,
0000
0000
0302
0000
,
0000
0000
0000
0000
,
0000
0000
1003
0000
,
0000
0000
0000
0000
,
0000
0000
1000
0000
,
0000
0000
1000
0000
,
0000
1000
0000
0010
,
0000
0010
0000
0000
,
0000
0001
0000
0001
,
0000
0100
0000
0100
,
0000
0010
0000
0000
,
1000
0000
0000
0000
,
0001
0000
0000
0000
,
2000
0000
0000
0000
,
3001
0000
0000
0000
,
0001
0000
0000
0100
,
0100
0000
0010
0010
,
0000
0000
0000
0000
,
0100
0100
0000
0000
,
1000
1000
0000
0000
,
0001
0001
0000
0000
,
0010
0010
0000
0000
,
1001
0000
0100
0000
,
0010
0000
0100
0000
,
0010
0000
0010
0000
,
0010
0000
0000
0000
,
1000
0000
1000
0000
,
0001
0000
0001
0000
,
0010
0000
0010
0000
,
0001
0000
0000
0000
,
1001
0000
0000
0000
,
0010
0000
0010
0000
,
0020
0000
0000
0000
,
0030
0000
0000
0000
,
1000
0000
0000
0000
,
0010
0010
0000
0000
,
1000
0000
0001
0000
,
0001
0000
0000
0000
,
0110
0000
0000
0010
,
0000
0000
0010
0100
,
0000
0100
0000
0000
,
0010
0000
0000
0000
,
0000
1000
1000
0000
,
0001
0000
0001
0000
,
0000
0000
0100
0000
,
0000
0000
0110
0000
,
0000
0010
0000
0000
,
0010
0000
0000
0010
,
0000
0000
0001
0000
,
0000
0000
0000
0000
,
1000
0000
0001
0000
,
0001
0000
0000
0000
,
0100
0000
0000
0000
,
0010
0000
0001
0000
,
0001
0000
0000
0000
,
1000
0000
1000
0000
,
0001
0000
0000
0000
,
0001
0000
0001
0000
,
1000
0000
0000
0000
,
0100
0000
0100
0000
,
0020
0000
0000
0000
,
0130
0000
0100
0000
,
0001
0000
0001
0000
,
1000
0000
1000
0000
,
0100
0000
0100
0000
,
0010
0000
0010
0000
,
0001
0000
0001
0000
,
0100
0000
0100
0000
,
0010
0000
0010
0000
,
0001
0000
0000
0000
,
1000
0000
0000
0000
,
1000
0000
0000
0000
,
0100
0000
0000
0000
,
0010
0000
0000
0000
,
0001
0000
0000
0000
,
0002
0000
0000
0000
,
0003
0000
0000
0000
;
