#TITLE:Liberation;
#SUBTITLE:;
#ARTIST:dj TAKA;
#TITLETRANSLIT:;
#SUBTITLETRANSLIT:;
#ARTISTTRANSLIT:;
#GENRE:TRANCE;
#CREDIT:;
#BANNER:Liberation.png;
#BACKGROUND:Liberation-bg.png;
#LYRICSPATH:;
#CDTITLE:cdtitle.png;
#MUSIC:Liberation.mp3;
#MENUCOLOR:1,0,0,1;
#METERTYPE:DDR X;
#OFFSET:-0.087;
#SAMPLESTART:103.940;
#SAMPLELENGTH:12.000;
#SELECTABLE:YES;
#BPMS:0.000=150.000;
#STOPS:;
#BGCHANGES:;

//---------------dance-single - ----------------
#NOTES:
     dance-single:
     :
     Hard:
     15:
     0.694,0.885,0.126,0.082,0.461: // measure 1
0000
0000
0000
0000
,  // measure 2
1001
0000
0100
0000
0010
0001
0100
1000
0001
0000
1000
0000
0010
0000
0000
0000
,  // measure 3
0100
0000
0100
0000
0010
0100
1000
0001
0100
0000
0001
0000
0100
0000
0000
0000
,  // measure 4
0010
0000
0010
0000
0100
0001
1000
0010
0001
0000
0100
0000
0010
0000
0000
0000
,  // measure 5
0010
0000
0010
0000
0100
0010
0001
0010
0100
0000
1000
0000
0000
0000
1000
0000
,  // measure 6
0100
0000
0010
0000
0100
1000
0010
0100
0001
0000
0001
0000
0000
0000
0001
0000
,  // measure 7
0100
0000
1000
0000
0100
0001
0010
1000
0100
0000
0100
0000
0000
0000
0010
0000
,  // measure 8
1000
0000
0100
0000
0010
1000
0001
0010
0100
0000
0010
0000
0000
0000
0010
0000
,  // measure 9
0001
0000
0100
0000
0010
1000
0100
0010
0001
0000
0010
0000
0000
0000
0011
0000
,  // measure 10
0101
1000
0100
0010
0001
0010
0100
0000
,  // measure 11
0100
0010
1000
0100
0010
0100
0010
0100
,  // measure 12
0000
0100
0010
1000
0100
0010
0100
0010
,  // measure 13
0000
0010
0100
0010
0100
0001
0100
0010
,  // measure 14
0100
0010
1000
0000
0100
0001
1000
0000
0100
1000
0100
0000
0001
0010
1000
0000
,  // measure 15
0100
1000
0010
0000
0100
0001
0010
0000
0100
1000
0010
0000
0100
0010
0100
0000
,  // measure 16
0001
1000
0001
1000
0001
1000
0001
1000
0001
1000
0001
1000
0001
1000
0001
1000
,  // measure 17
0001
0000
0000
0000
0100
0000
0000
0000
0100
0000
0000
0001
0100
0000
0001
0000
,  // measure 18
0101
1000
0100
0010
0100
0010
1000
0100
,  // measure 19
0001
0100
0010
0100
0010
1000
0100
0010
,  // measure 20
0100
0000
1000
0100
0010
0100
0010
0100
,  // measure 21
0010
0100
1000
0100
0010
0100
0001
0010
,  // measure 22
0100
0000
0100
0010
0100
0010
0100
0001
,  // measure 23
0010
0100
0100
0010
1000
0100
0010
0001
,  // measure 24
0010
0000
0001
0100
0001
1000
0100
0010
,  // measure 25
0100
0000
0000
0100
0010
0000
0000
0001
1000
0000
0001
0000
1000
0000
0001
0000
,  // measure 26
1001
0100
0010
0100
0001
0010
0100
0010
,  // measure 27
0010
0100
0100
0010
1000
0100
0010
0100
,  // measure 28
0010
0000
1000
0100
0010
0100
0010
0001
,  // measure 29
0010
0010
0000
0100
0010
0100
0010
1000
,  // measure 30
0110
0000
0000
0100
0001
0100
0001
1000
,  // measure 31
0010
0010
0000
0100
0010
0100
0010
1000
,  // measure 32
0010
0010
0001
0100
0001
0100
0010
1000
,  // measure 33
0010
0000
0000
0100
0010
0000
0000
0100
1000
0000
0001
0000
1000
0001
1000
0000
,  // measure 34
1001
0100
0001
0100
0001
0100
0010
1000
,  // measure 35
0100
0000
0010
0100
0010
1000
0100
0010
,  // measure 36
1000
0000
0100
0010
0001
0010
0100
0010
,  // measure 37
0100
0000
0000
0000
1000
0000
0100
0000
0010
0001
0100
0010
1000
0001
0100
1000
,  // measure 38
0010
0000
0100
0010
0100
0001
0010
0100
,  // measure 39
0010
0000
1000
0100
0010
1000
0001
0010
,  // measure 40
0100
0000
1000
0100
0001
1000
0010
1000
,  // measure 41
0001
0000
0100
0000
1000
0000
0000
0000
1000
0100
0001
0010
1000
0100
0001
0000
,  // measure 42
1001
0100
0010
0100
0001
0010
0100
1000
,  // measure 43
0010
0000
0100
0010
0100
0001
1000
0100
,  // measure 44
0010
0000
1000
0100
1000
0100
0010
0100
,  // measure 45
0001
0000
0100
0000
0010
0000
1000
0000
0100
0010
0001
0010
0100
0010
0001
0010
,  // measure 46
1000
0000
0001
0100
0001
0100
0010
1000
,  // measure 47
0110
0000
1000
0010
0100
0010
0100
0010
,  // measure 48
1100
0010
1000
0100
0110
0001
0100
0010
,  // measure 49
0100
0000
0000
0001
1000
0000
0000
0100
1000
0000
0100
0000
0010
0000
0100
0000
,  // measure 50
2002
0000
0000
3000
,  // measure 51
0200
0000
0000
0003
,  // measure 52
0020
0000
0000
0300
,  // measure 53
0002
0000
0000
0030
,  // measure 54
2000
0000
0000
0003
,  // measure 55
0200
0000
0000
3000
,  // measure 56
0020
0000
0000
0030
,  // measure 57
0002
0000
0000
0000
0000
0300
0000
0003
,  // measure 58
1001
0000
0000
0000
0100
0001
0000
0000
0100
0001
0000
0000
1000
0100
0000
0000
,  // measure 59
0010
0000
0000
0000
0001
1000
0001
1000
0010
0100
0010
0100
1000
0100
1000
0100
,  // measure 60
0010
0000
0000
0000
1000
0000
0000
0000
0100
0010
0100
0010
1000
0100
0010
0000
,  // measure 61
0010
0000
0000
0000
1000
0000
0100
0000
0001
0100
0000
0000
1000
0100
0000
0000
,  // measure 62
1100
0000
0010
0100
1000
0000
0100
0001
0010
0000
0001
0010
0001
0000
0100
0010
,  // measure 63
1000
0000
0001
0010
0100
0000
1000
0001
0100
0000
0010
1000
0001
0000
0001
0100
,  // measure 64
1000
0001
1000
0001
1000
0001
1000
0001
1000
0001
1000
0001
1000
0001
1000
0001
,  // measure 65
1000
0000
0000
0000
0100
0000
0000
0000
0100
0000
0010
0000
0100
0010
0100
0000
,  // measure 66
1001
0000
0100
0000
0001
0100
0000
1000
0010
0000
0100
0000
1000
0100
0000
0100
,  // measure 67
0010
0000
0000
0000
0100
0010
0000
0100
1000
0000
0001
0000
0100
0010
0000
0010
,  // measure 68
0100
0000
0000
0000
1000
0100
0000
0100
0001
0000
0100
0000
0010
0001
0000
0001
,  // measure 69
0010
0000
0000
0000
0100
1000
0000
1000
0010
0000
0100
0000
0001
0100
0000
0100
,  // measure 70
0010
0000
0000
0000
0001
0100
0000
0100
1000
0000
0010
0000
0001
0100
0000
1000
,  // measure 71
0010
0000
0000
0000
0010
0100
0000
0100
0001
0000
0100
0000
0010
1000
0000
0001
,  // measure 72
0100
0000
0000
0000
1000
0100
0000
0010
0001
0000
1000
0000
0010
0001
0000
1000
,  // measure 73
0001
0000
0001
0000
1000
0001
1000
0001
,  // measure 74
1001
1000
0100
0001
0100
0010
0100
0010
,  // measure 75
1000
0010
0100
0010
0100
0010
0100
0010
,  // measure 76
0100
0000
1000
0010
0100
0010
1000
0010
,  // measure 77
0100
0000
1000
0100
0010
0001
0010
0100
,  // measure 78
0001
1000
0001
0000
0001
1000
0001
0000
0100
0010
0100
0000
0100
0010
0100
0000
,  // measure 79
0100
0001
1000
0000
0100
0010
1000
0000
0100
1000
0001
0000
0100
0010
1000
0000
,  // measure 80
1000
0100
1000
0100
0010
0100
0010
0001
0010
0001
0010
0100
0001
0000
0202
0000
,  // measure 81
0000
0000
0000
0000
,  // measure 82
0000
0000
0000
0000
,  // measure 83
0303
0000
0000
0000
;

//---------------dance-single - ----------------
#NOTES:
     dance-single:
     :
     Medium:
     12:
     0.586,0.671,0.156,0.082,0.141:
0000
0000
0000
0000
,
1001
0000
0000
0000
0100
0010
0000
0010
1000
0000
0010
0000
0100
0000
0000
0000
,
0100
0000
0010
0000
1000
0001
0000
0001
0100
0000
0010
0000
0000
0000
0000
0000
,
0010
0000
0100
0000
0001
1000
0000
0001
0100
0000
0010
0000
0000
0000
0000
0000
,
0001
0000
0100
0000
0001
1000
0000
0001
0100
0000
0010
0000
0000
0000
0000
0000
,
0010
0000
0100
0000
1000
0100
0000
0010
0001
0000
0100
0000
0000
0000
0000
0000
,
0010
0000
0100
0000
1000
0001
0000
0010
0100
0000
0010
0000
0000
0000
0000
0000
,
0001
0000
0100
0000
0010
0001
0000
0100
0010
0000
0001
0000
0000
0000
0000
0000
,
1000
0000
0100
0000
0001
1000
0000
1000
0010
0000
0100
0000
0000
0000
0000
0000
,
1001
0000
0100
0010
1000
0100
0000
0000
,
1000
0100
0001
0100
0010
0001
0000
0000
,
0100
0010
1000
0100
0001
0100
0000
0000
,
0010
1000
0100
0001
0100
0010
0000
0000
,
1000
0001
1000
0001
1000
0001
1000
0001
,
0100
0010
0100
0010
0100
0010
0100
0010
,
1000
0100
1000
0100
1000
0000
0100
0010
0100
0010
0100
0000
0010
0000
0100
0000
,
0101
0000
0000
0000
0100
0000
0000
0000
0001
0000
0000
0000
0100
0001
0100
0000
,
0101
0000
1000
0010
1000
0010
0100
0010
,
0100
0000
1000
0100
0010
0100
0001
0100
,
0010
0000
0001
0100
0001
1000
0100
0010
,
0100
0000
1000
0100
0010
1000
0001
0100
,
0010
0000
0010
0100
0001
1000
0001
0100
,
0001
0000
1000
0100
0010
1000
0001
0000
,
1000
0100
0010
0100
0001
1000
0010
0100
,
0001
0000
0000
1000
0001
0000
0000
0001
1000
0000
0001
0000
1000
0000
0001
0000
,
1001
0000
0100
0001
0100
0010
0001
0010
,
0100
0000
1000
0010
0100
0010
0100
0010
,
0100
0000
1000
0100
0010
0001
1000
0001
,
1000
0000
1000
0100
0001
0100
0010
0001
,
1100
0000
0100
0001
1000
0100
0010
0001
,
0100
0000
1000
0001
0100
0010
0100
0001
,
1000
0100
0010
0001
0100
0010
0100
0001
,
1000
0000
0000
0001
1000
0000
0000
1000
0001
0000
0000
0000
1000
0001
1000
0000
,
1001
0000
0100
0001
0100
0001
1000
0100
,
0010
0000
0010
0100
0001
0100
0010
1000
,
0001
0000
0001
1000
0100
0001
0100
1000
,
0010
0000
0001
0000
1000
0000
0010
0000
1000
0001
1000
0000
0010
0100
0010
0000
,
0100
0001
1000
0001
0100
0010
0001
1000
,
0001
0000
0100
1000
0010
0100
0001
0100
,
0010
0000
0010
0100
0001
0100
0010
1000
,
0001
0000
0000
0000
0001
0000
0000
0000
1000
0001
1000
0000
0001
1000
0001
0000
,
1001
0000
0100
0010
0100
0010
1000
0001
,
0100
0000
0100
0010
1000
0100
0010
0100
,
0001
0100
1000
0100
0010
0100
0010
0100
,
0010
0000
1000
0000
0100
0000
0010
0000
1000
0001
1000
0000
0001
1000
0001
0000
,
1001
0000
0100
0001
0100
0001
1000
0010
,
0110
0010
1000
0100
0010
0001
0100
0010
,
1100
1000
0100
0010
0110
0001
0100
0001
,
0110
0000
0000
1000
0001
0000
0000
0001
1000
0000
0001
0000
1000
0000
0001
0000
,
2002
0000
0000
0003
,
0020
0000
0000
3000
,
0200
0000
0000
0030
,
0002
0000
0000
0300
,
2000
0000
0000
0003
,
0020
0000
0000
3000
,
0200
0000
0000
0030
,
0002
0000
0000
0303
,
1001
0000
0100
0001
1000
0000
0100
0010
,
0100
0000
1000
0100
0010
1000
0010
0100
,
0001
0000
0100
0001
0100
0000
1000
0010
,
0100
0000
0100
0001
0010
0100
1000
0000
,
1001
0100
0001
0100
0010
0100
0001
0010
,
0100
1000
0100
0010
0100
0001
1000
0100
,
0010
0100
0010
1000
0010
0100
0010
0100
,
1001
0000
0100
0000
0010
0000
0100
0010
,
1001
0000
0100
0010
0100
0001
0100
0001
,
0100
0000
1000
0100
0010
1000
0100
0001
,
0100
0000
1000
0100
0010
1000
0001
0100
,
0010
0000
0001
0100
0010
0000
1000
0100
,
0010
0000
1000
0001
0100
0010
1000
0001
,
0010
0000
0100
0010
0100
0010
1000
0000
,
1000
0100
0010
0100
0000
0000
1000
0000
,
0100
0010
1000
0010
0100
0010
0100
0010
,
0110
0000
1000
0001
0100
0000
1000
0010
,
0100
0000
1000
0100
0010
0000
0100
0001
,
0100
0000
0010
1000
0010
0100
0010
0000
,
1000
0010
0100
0000
0100
0010
0100
0000
,
0001
1000
0001
1000
0001
1000
0001
1000
,
0010
0100
0010
0100
0010
0100
0010
0100
,
1000
0100
1000
0100
1000
0000
0001
0010
0001
0010
0001
0000
0101
0000
0202
0000
,
0000
0000
0000
0000
,
0000
0000
0000
0000
,
0303
0000
0000
0000
;

//---------------dance-single - ----------------
#NOTES:
     dance-single:
     :
     Easy:
     7:
     0.435,0.427,0.097,0.126,0.000:
0000
0000
0000
0000
,
1001
0000
0100
0010
0100
0000
0010
1000
,
0010
0000
0100
0001
0100
0000
0010
0001
,
0010
0000
0100
1000
0100
0000
0100
0010
,
0100
1000
0100
0010
,
0001
0000
1000
0001
1000
0000
0010
0100
,
0010
0000
0001
0010
0001
0000
1000
0100
,
1000
0000
0010
0100
0010
0000
1000
0001
,
1000
0010
0100
0001
,
1001
0000
0100
0010
0100
0000
0010
0001
,
0010
0000
0100
0001
0100
0000
1000
0001
,
1000
0000
0100
0010
0100
0000
0010
0001
,
0010
1000
0100
0010
,
1001
0000
1000
0001
1000
0000
1000
0001
,
1000
0000
1000
0001
1000
0000
0001
1000
,
0001
0000
0001
1000
0001
0000
0001
0000
,
1001
0000
0100
0000
0010
0000
1000
0001
,
1001
0000
0100
0010
0100
0000
1000
0000
,
0001
0000
1000
0001
1000
0000
0100
0000
,
0010
0000
0100
0010
0100
0000
0010
0000
,
0100
0000
1000
0100
1000
0000
0100
0010
,
0100
0000
0010
0001
0010
0000
0100
0000
,
0001
0000
1000
0001
1000
0000
0100
0000
,
0010
0000
0001
1000
0001
0000
0100
0000
,
0010
0010
1000
1000
,
1001
0000
0100
0010
0100
0000
0010
0001
,
0010
0000
0100
0000
0010
0000
1000
0100
,
1000
0000
0000
0000
0010
0000
0001
0100
,
0001
0000
1000
0000
0100
0000
0010
1000
,
0010
1000
0010
0100
,
1000
0010
1000
0000
0100
0000
0010
0000
,
0100
0000
1000
0100
0000
0000
0010
0100
,
0000
0010
0100
0010
,
1001
0000
1000
0100
1000
0000
0100
0010
,
0100
0000
0010
0001
0010
0000
0100
0001
,
0100
0000
1000
0001
1000
0000
0001
1000
,
0001
1000
2000
3002
,
1003
0000
0100
0010
0100
0000
0010
0001
,
0010
0000
0100
1000
0100
0000
0001
1000
,
0001
0000
0100
0010
0100
0000
0001
1000
,
0001
0100
0020
0230
,
0310
0000
1000
0010
1000
0000
0100
0010
,
0001
0000
0010
0100
0010
0000
1000
0001
,
1000
0000
0010
0100
0010
0000
0001
1000
,
0001
0000
1000
0100
2000
0000
3020
0000
,
0130
0000
0010
0100
0010
0000
0001
1000
,
0001
0000
0100
0010
0100
0000
0001
0010
,
0001
0000
0100
1000
0100
0000
0010
1000
,
0010
0000
1000
0000
0100
0010
0100
0000
,
2002
0000
0000
3000
,
0200
0000
0000
0003
,
0020
0000
0000
0300
,
2000
0000
0000
0030
,
0002
0000
0000
3000
,
0020
0000
0000
0003
,
0200
0000
0000
0030
,
0002
0000
0000
0303
,
1001
0100
0001
0100
,
0010
0000
1000
0001
1000
0001
0100
0001
,
0100
0010
1000
0010
,
0100
0000
1000
0100
1000
0000
0100
0000
,
0001
1000
0001
0000
1000
0001
1000
0000
,
0010
0100
0010
0000
0100
0001
0100
0000
,
1000
0010
0100
0000
1000
0100
0010
0000
,
1001
0100
0010
0001
,
1001
0000
0100
0001
0100
0000
0010
0000
,
1000
0000
0001
1000
0001
0000
0100
0000
,
0010
0000
1000
0001
1000
0000
0100
0000
,
0010
0000
1000
0000
0100
0000
0010
0100
,
0010
0100
0001
1000
,
0001
1000
0001
1000
0000
0000
0001
0000
,
0100
0000
0010
0100
0000
0000
0010
0000
,
1000
0100
0010
0001
,
1001
0000
0100
0000
0010
0000
1000
0001
,
1000
0100
0010
0001
,
1000
0001
1000
0001
0000
0000
0100
0000
,
0010
1000
0100
0010
,
1000
0000
0100
0001
1000
0001
0100
0000
,
0001
0000
0010
1000
0010
0100
0001
0000
,
1000
0100
0010
0001
0000
0100
0001
0202
,
0000
0000
0000
0000
,
0000
0000
0000
0000
,
0303
0000
0000
0000
;

//---------------dance-single - ----------------
#NOTES:
     dance-single:
     :
     Beginner:
     3:
     0.185,0.214,0.097,0.052,0.000:
0000
0000
0000
0000
,
1001
0000
1000
0000
,
1000
0000
1000
0000
,
0100
0000
0100
0000
,
0100
0000
0100
0000
,
0010
0000
0010
0000
,
0010
0000
0010
0000
,
0001
0000
0001
0000
,
0001
0000
0001
0000
,
0110
0000
0010
0000
,
0010
0000
0010
0000
,
0010
0000
0100
0000
,
0100
0000
0100
0000
,
1001
0000
0001
0000
,
0001
0000
0001
0000
,
1000
0000
0000
0000
,
1001
0000
0000
0000
,
1001
0000
0100
0010
,
0010
0000
0000
0010
,
0010
0000
0000
1000
,
1000
0000
0001
0001
,
0001
0000
1000
1000
,
1000
0000
0000
0100
,
0100
0000
0000
0010
,
0010
0000
1000
0000
,
1001
0000
0001
0001
,
0001
0000
0000
0000
,
1000
0000
0000
1000
,
1000
0000
0000
0100
,
0100
0000
0000
0000
,
0010
0000
0000
1000
,
1000
0000
0000
0000
,
0001
0000
0001
0000
,
1001
0000
0100
0100
,
0100
0000
0010
0010
,
0010
0000
0001
0001
,
0001
0000
2000
0000
,
3000
0000
1000
1000
,
1000
0000
0001
0001
,
0001
0000
1000
1000
,
1000
0000
0002
0000
,
0003
0000
0100
0100
,
0100
0000
0010
0010
,
0010
0000
0010
0010
,
0010
0000
0200
0000
,
0300
0000
1000
1000
,
1000
0000
0010
0010
,
0010
0000
0100
0100
,
0100
0000
0020
0000
,
0030
0000
1000
0000
,
0010
0000
0100
0000
,
1000
0000
1000
0000
,
1000
0000
0000
0000
,
0001
0000
0001
0000
,
0100
0000
0010
0000
,
1000
0000
0001
0000
,
1001
0000
0000
0000
,
1001
0000
0100
0000
,
0010
0000
2000
0000
,
3000
0000
0100
0000
,
0010
0000
0001
0000
,
1001
0000
0000
0000
,
1000
0000
0000
0000
,
2000
0000
0000
0000
,
3000
0000
1000
0000
,
1001
0000
0100
0000
,
0010
0000
1000
0000
,
0001
0000
0100
0000
,
0010
0000
1000
0000
,
0001
0000
0100
0000
,
1000
0000
0001
0000
,
0001
0000
1000
0000
,
1000
0000
0000
0000
,
0110
0000
0000
0000
,
0010
0000
0000
0000
,
0100
0000
0000
0000
,
1000
0000
0000
0000
,
1001
0000
0000
0000
,
0001
0000
0000
0000
,
1000
1000
1000
1000
,
2000
0000
0000
0000
,
0000
0000
0000
0000
,
3000
0000
0000
0000
;
