#TITLE:君が夢を連れてきた;
#SUBTITLE:さくら荘のペットな彼女 OP;
#ARTIST:ペットな彼女たち;
#TITLETRANSLIT:Kimi ga Yume wo Tsuretekita;
#SUBTITLETRANSLIT:Sakurasou no Pet na Kanojo OP;
#ARTISTTRANSLIT:Pet na Kanojo-tachi;
#GENRE:ANIMATION BEAT#1;
#CREDIT:;
#BANNER:Kimi ga Yume wo Tsuretekita.png;
#BACKGROUND:Kimi ga Yume wo Tsuretekita-bg.png;
#LYRICSPATH:;
#CDTITLE:cdtitle.png;
#MUSIC:Kimi ga Yume wo Tsuretekita.mp3;
#MENUCOLOR:0,0,1,1;
#METERTYPE:DDR X;
#OFFSET:-0.575;
#SAMPLESTART:63.815;
#SAMPLELENGTH:12.000;
#SELECTABLE:YES;
#DISPLAYBPM:135;
#BPMS:0.000=135.000,176.000=270,177.000=135;
#STOPS:176.000=0.222
;
#BGCHANGES:;

//---------------dance-single - ----------------
#NOTES:
     dance-single:
     :
     Hard:
     12:
     0.560,0.691,0.645,0.322,0.044:
0000
0000
0000
0000
,
0000
0000
0000
0000
,
0000
0000
0000
0000
,
0000
0000
0000
0000
,
1001
0101
0110
0011
,
0110
1100
0110
0011
,
0101
1010
1100
0011
,
0101
1001
0110
0000
,
1010
0110
0011
0101
,
1100
1010
0011
0101
,
1100
0011
0101
1010
,
1100
1100
0011
0011
,
1001
0100
0010
0000
0100
0000
0010
0000
,
1000
0001
1000
0002
0000
0100
0100
1003
,
0010
1000
0020
0000
0100
0000
0001
0000
,
1030
0100
0001
0100
2000
0010
0010
3001
,
0100
0010
0100
0000
0020
0000
1000
0000
,
0130
0010
1000
0020
0000
0001
0031
1000
,
0100
0010
0001
0100
0020
0000
2030
0000
,
3100
0010
0100
0001
0010
1000
1001
0000
,
1001
0100
0010
0100
0002
0000
1003
0010
,
0200
0000
0310
2000
0000
3100
0010
1000
,
0001
0010
0001
0100
0020
0000
1030
0200
,
0000
0310
1000
0010
0100
0110
0110
0000
,
1010
0001
0100
0000
0011
0000
0100
0000
,
0010
1000
0100
0010
0000
0000
0002
0000
,
2003
0010
0001
3010
,
0100
0010
0100
0010
0000
1000
0100
0000
,
0011
1000
0100
0010
0001
0101
0101
0000
,
1010
0100
0010
0001
0100
0110
0110
0000
,
1100
1000
0100
0010
0100
0101
0101
0100
,
1010
0000
0110
0000
0011
0100
0001
0100
,
0002
0000
1003
0100
0000
0000
0010
0100
,
1000
0100
0010
0100
0001
1000
0100
0000
,
1100
0110
0011
0101
,
1000
0100
1000
0100
1000
0001
0010
0001
0010
0001
0010
1000
0100
1000
0100
1000
,
0001
0000
1010
0100
0010
1000
0100
0001
,
0100
0010
1000
0011
0000
0000
0000
0100
,
0010
1000
0100
0010
0000
0001
0100
0001
,
1000
0200
0000
0310
0000
1000
0100
0010
,
0001
0000
0101
1000
0000
0100
0000
0020
,
0000
1030
0100
0010
0000
1000
0100
0001
,
0200
0000
0310
2000
0000
3010
0100
0000
,
0020
0000
1030
0100
0000
0010
0100
0010
,
0100
0000
1001
0100
0010
0001
0100
0020
,
0000
1030
0100
0020
0000
0130
0001
1000
,
0002
0000
0103
2000
0000
3010
0200
0000
,
0320
0000
1030
0100
0000
0010
0001
0100
,
0002
0000
1003
0100
0000
0010
0100
0000
,
0002
0000
1003
0020
0000
0000
0030
0000
;

//---------------dance-single - ----------------
#NOTES:
     dance-single:
     :
     Challenge:
     10:
     0.375,0.387,0.322,0.122,0.011: // measure 1
0000
0000
0000
0000
,  // measure 2
0000
0000
0000
0000
,  // measure 3
0000
0000
0000
0000
,  // measure 4
0000
0000
0000
0000
,  // measure 5
1001
0110
0011
MMMM
,  // measure 6
1010
1100
MMMM
0011
,  // measure 7
0101
MMMM
1010
0110
,  // measure 8
MMMM
0011
1001
MMMM
,  // measure 9
1010
0110
0011
0110
,  // measure 10
MMMM
1100
0110
MMMM
,  // measure 11
0110
1100
MMMM
0110
,  // measure 12
0011
MMMM
1001
0110
,  // measure 13
1001
0100
0010
MMMM
,  // measure 14
1000
0100
0001
0100
MMMM
0000
0000
0010
,  // measure 15
1000
0010
0100
0000
0010
0000
MMMM
0000
,  // measure 16
1000
0100
0001
0100
0010
0000
MMMM
0000
,  // measure 17
1000
0100
0010
0000
0010
0000
1000
0000
,  // measure 18
MMMM
0100
0001
0200
0000
0000
0300
MMMM
,  // measure 19
1000
0010
0100
0001
0020
0000
0030
MMMM
,  // measure 20
1000
0100
0010
0002
0000
0103
MMMM
0010
,  // measure 21
MMMM
0100
0010
1000
0100
0000
MMMM
0000
,  // measure 22
0010
1000
0100
0010
MMMM
0000
1000
0001
,  // measure 23
0100
0010
0001
0100
1000
0000
MMMM
0000
,  // measure 24
1000
0100
0010
0001
MMMM
0001
MMMM
0000
,  // measure 25
0010
0001
0010
1000
0100
0000
MMMM
0000
,  // measure 26
0001
1000
0001
MMMM
0000
0000
0100
0000
,  // measure 27
0020
0000
0000
2000
0000
3030
MMMM
0000
,  // measure 28
1000
0100
0001
MMMM
0000
1000
0100
0000
,  // measure 29
0010
0100
1000
0100
0010
MMMM
0001
0000
,  // measure 30
1000
0100
0001
0100
MMMM
0010
0000
0000
,  // measure 31
0010
0100
0100
0010
MMMM
0000
1000
0001
,  // measure 32
0200
0000
0310
0000
MMMM
0010
0100
0010
,  // measure 33
MMMM
0001
1000
0100
0000
MMMM
0010
0001
,  // measure 34
MMMM
1000
0100
0010
MMMM
0000
0001
0000
,  // measure 35
0011
1100
MMMM
0011
,  // measure 36
1000
0001
1000
0001
1000
0000
0001
0000
0000
0000
MMMM
0000
0000
0000
0000
0000
,  // measure 37
1001
0000
0100
0000
MMMM
0000
0010
1000
,  // measure 38
0000
0100
0010
0001
0000
MMMM
0000
0001
,  // measure 39
0001
1000
1000
0010
0000
MMMM
0000
1000
,  // measure 40
0010
0001
0000
MMMM
0000
0001
0100
0010
,  // measure 41
MMMM
0000
0100
0010
0000
1000
0000
MMMM
,  // measure 42
0000
0001
1000
0001
0000
1000
0100
1000
,  // measure 43
0020
0000
0031
0100
0010
MMMM
0000
0000
,  // measure 44
2000
0000
3010
0100
0000
0100
0010
0001
,  // measure 45
MMMM
0000
1001
0000
MMMM
0100
0000
0010
,  // measure 46
0000
1000
0100
0010
0000
MMMM
0010
0001
,  // measure 47
0200
0000
1000
1300
0000
MMMM
0001
0000
,  // measure 48
0200
0000
0010
0310
MMMM
1000
0100
0010
,  // measure 49
MMMM
0000
0010
1000
0000
0100
0010
0000
,  // measure 50
MMMM
0000
0000
0000
0000
0000
0000
0000
0000
0000
0000
0000
0000
0000
0000
0000
0000
0000
0000
0000
0000
0000
0000
0000
0000
0000
0000
0000
0000
0000
0000
0000
0000
0000
0000
0000
0000
0000
0000
0000
0000
0000
0000
0000
0000
0000
0000
0000
1000
0000
0000
0000
0000
0000
0000
0000
0000
0000
0000
0000
0000
0000
0000
0000
0000
0000
0000
0000
0000
0000
0000
0000
0002
0000
0000
0000
0000
0000
0000
0000
0000
0000
0000
0000
0000
0000
0000
0000
0000
0000
0000
0000
0000
0000
0000
0000
0000
0000
0000
0000
0000
0000
0000
0000
0000
0000
0000
0000
0000
0000
0000
0000
0000
0000
0000
0000
0000
0000
0000
0000
0000
0000
0000
0000
0000
0000
0000
0000
0000
0000
0000
0000
0000
0000
0000
0000
0000
0000
0000
0000
0000
0000
0000
0000
0000
0003
0000
0000
0000
0000
0000
0000
0000
0000
0000
0000
0000
0000
0000
0000
0000
0000
0000
0000
0000
0000
0000
0000
0000
0000
0000
0000
0000
0000
0000
0000
0000
0000
0000
0000
0000
0000
0000
0000
0000
0000
0000
0000
0000
0000
0000
0000
;

//---------------dance-single - ----------------
#NOTES:
     dance-single:
     :
     Edit:
     15:
     0.714,0.912,0.756,0.211,0.311:
0000
0000
0000
0000
,
0000
0000
0000
0000
,
0000
0000
0000
0000
,
0000
0000
0000
0000
,
1100
1100
1010
1010
,
1001
1001
0101
0101
,
0011
0011
1001
1001
,
1010
0000
1010
0000
1100
0100
1100
0000
,
0110
0110
0101
0101
,
0101
0101
0110
0110
,
0011
0011
0101
0101
,
1001
0100
1010
0001
0110
1000
0011
0000
,
0101
1000
0001
0100
0020
0000
1030
0000
,
0100
0010
0100
0020
0000
1030
0100
0010
,
0001
0100
0020
0000
1030
0100
0001
0000
,
0100
1000
0001
0200
0000
1300
0100
0010
,
0100
0010
1000
0100
0020
0000
1030
0000
,
0001
0100
1000
0020
0000
0130
0001
1000
,
0100
0010
0001
0100
0020
0000
0031
0000
,
0100
0010
1000
0100
0010
0001
0101
0000
,
1001
0000
0100
1000
0010
0000
0001
0000
0200
0000
0000
0000
0310
0000
1000
0000
,
0100
0000
0010
0000
0100
0010
0002
0000
0000
0000
0103
0000
0100
0000
0010
0000
,
1000
0000
0100
0000
0010
0000
0001
1000
0200
0000
0000
0000
0310
0000
0001
0000
,
1000
0000
0100
0000
0001
0000
0200
0000
0000
0000
0310
0001
1000
0000
0000
0000
,
0100
0000
0010
0000
0100
0000
0010
0000
2000
0000
0000
0000
3100
0001
0010
0000
,
0001
0000
0100
0000
0001
0000
0200
0000
0000
0000
0310
0000
0100
0000
0010
0100
,
2000
0000
3100
0010
0001
0200
0000
0000
,
0310
1000
0100
0020
0000
0031
0100
0001
,
0101
1000
0100
0010
0001
0110
0110
1000
,
1100
0010
0001
0100
0010
0011
0011
0100
,
0101
1000
0010
0100
0010
0110
0110
0100
,
1010
0001
0110
1000
0011
0100
0011
0100
,
0201
0000
0310
1000
0000
0100
0010
0002
,
0000
1003
0100
0010
0001
0100
0110
0000
,
0011
0001
0101
0100
0110
0100
1100
0100
,
1000
0100
0010
0100
0010
0001
0100
0010
1000
0001
0010
0000
1000
0000
0010
0000
,
0110
0000
1000
0001
0100
0000
1000
0000
0100
0000
0010
0000
0001
0100
0001
0000
,
0010
0000
0100
0000
0011
0000
0100
0000
0010
0000
0100
0010
1000
0000
0100
0000
,
1000
0000
0100
0000
0010
0001
0100
0000
0001
0000
0100
0000
0001
0000
0100
0000
,
0100
0010
0100
0000
0100
0000
1100
0000
0100
0000
0010
0000
0100
0000
0010
0000
,
0011
0000
0100
0001
0100
0000
1000
0000
0100
0000
0010
0000
0001
1000
0010
0000
,
0100
0001
1000
0110
0010
0100
0011
0100
,
0101
1000
0110
1000
0100
0010
0011
0100
,
0101
1000
0110
1000
0101
0100
0110
0100
,
0101
0000
0000
0000
1000
0010
0100
1000
0010
0100
0001
0010
0100
1000
0010
0001
,
1000
0010
0100
1000
0010
0100
0001
0010
1000
0001
0100
1000
0010
0001
0100
0010
,
0001
0100
1000
0010
0100
1000
0010
0100
0001
0010
1000
0001
0100
1000
0010
0100
,
0001
0010
0100
0001
1000
0010
0100
1000
0010
0001
0100
0010
0001
0100
1000
0001
,
0100
1000
0010
0100
0001
0010
1000
0001
0100
1000
0010
0100
0001
0010
1000
0001
,
0010
0000
0100
0020
0000
0000
0030
0000
;

//---------------dance-single - ----------------
#NOTES:
     dance-single:
     :
     Medium:
     8:
     0.416,0.442,0.289,0.356,0.000:
0000
0000
0000
0000
,
0000
0000
0000
0000
,
0000
0000
0000
0000
,
0000
0000
0000
0000
,
1100
1000
1001
0001
,
0101
0010
0110
1000
,
1100
0010
0011
0001
,
0101
1000
0110
0000
,
0011
0100
0101
0010
,
0011
0001
1001
1000
,
1010
0100
0110
0010
,
0011
0110
1100
0110
,
0011
0100
0010
0000
,
1000
0001
1000
0002
0000
0000
0003
0000
,
1000
0010
0100
0000
0010
0000
0000
0000
,
2000
0000
3001
0200
0000
0000
0000
0000
,
0310
1000
0010
0000
0200
0000
0000
0000
,
0310
0100
0010
0200
0000
0000
0000
0000
,
0301
1000
0001
1000
0002
0000
0103
0000
,
0020
0000
1030
0010
0000
0000
0101
0000
,
0000
1000
0010
0000
0100
0000
0000
1000
,
0002
0000
0103
0010
0000
0000
0000
1000
,
0100
0010
0100
0000
0010
0000
0000
2000
,
0000
3001
0100
0001
0000
0000
0000
0000
,
2000
3010
0100
0000
0010
0000
0000
0000
,
2000
0000
3010
0100
0000
0000
0010
0000
,
2000
0000
0000
3001
0000
0100
0000
0000
,
0010
1000
0001
2000
0000
0000
0000
0000
,
3001
1000
0001
1000
0001
1000
0000
0000
,
0000
0010
0100
0010
0100
0010
0000
0000
,
0000
0100
0010
0100
0010
0100
0000
0010
,
0200
0000
0310
0000
0000
1000
0100
0001
,
2000
0000
3001
1000
0000
0000
0100
0020
,
0000
1030
1000
0001
1000
0001
0000
0000
,
1100
0110
0011
0110
,
2002
0000
0000
3003
,
0110
0000
1000
0002
0000
1003
0000
0200
,
0000
0310
1000
0010
0000
0000
0000
0100
,
0010
0001
0100
0020
0000
1030
0000
0001
,
0100
0020
0000
1030
0000
0100
0001
0100
,
2000
0000
3010
0100
0000
0001
0000
2000
,
0000
3010
0100
0010
0000
1000
0100
0001
,
0100
0000
0001
0100
0000
0100
0010
0000
,
0200
0000
0310
1000
0000
0100
0010
0001
,
2000
0000
3001
1000
0000
0010
0000
0200
,
0000
0310
1000
0010
0000
1000
0100
0010
,
0200
0000
0310
0100
0000
0010
0001
0000
,
2000
0000
3001
1000
0000
0100
0010
0001
,
2000
0000
3001
0100
0000
0010
0100
0000
,
0002
0000
1003
0002
0000
0000
0003
0000
;

//---------------dance-single - ----------------
#NOTES:
     dance-single:
     :
     Easy:
     6:
     0.306,0.387,0.144,0.222,0.000:
0000
0000
0000
0000
,
0000
0000
0000
0000
,
0000
0000
0000
0000
,
0000
0000
0000
0000
,
1001
1000
0010
0100
,
0010
0100
0010
1000
,
0100
0010
0001
1000
,
0010
0100
1001
0000
,
1001
0100
0010
0001
,
1000
0100
0010
0001
,
1000
1000
0001
0001
,
1100
0110
0011
0110
,
1100
0001
1000
0000
,
0010
0000
0100
0020
0000
0000
0000
0030
,
0100
0010
1000
0000
,
0001
0000
1000
0002
0000
0000
0000
0003
,
0100
0010
1000
0010
,
0100
0000
0001
2000
0000
0000
0000
3000
,
0001
0100
0010
0100
,
0010
0000
1000
0002
0000
0000
0003
0000
,
0000
0000
1000
0000
0010
0000
0000
1000
,
0001
0000
1000
0001
0000
0000
0000
0000
,
0010
0000
0100
0000
0001
0000
0000
1000
,
0000
0001
0000
2000
0000
0000
0000
3000
,
0001
0100
0010
0000
,
1000
0010
0100
0010
,
2000
0000
0000
3001
,
0100
0010
1000
0000
,
1000
0100
0001
0000
,
0001
0010
1000
0000
,
1000
0100
0010
0001
,
2000
3001
0000
0001
,
2000
3001
0000
0010
,
0002
1003
0100
0000
,
1001
0110
1001
0110
,
1001
0000
0000
0100
,
0020
0000
1030
0010
0000
0000
0000
0000
,
1000
0001
1000
0001
0000
0000
0000
0000
,
0100
0000
0010
0100
0000
0000
0010
0000
,
1000
0001
0000
1000
0000
0000
0010
0000
,
0200
0301
1000
0010
,
0100
0001
0100
0001
0000
0000
1000
0000
,
0010
0100
0010
0100
,
0002
2003
3200
0320
,
0031
1000
0001
0100
,
0010
1000
0001
0100
,
0020
1030
0100
0010
,
2000
3001
0100
0010
,
2000
3001
0010
0001
,
0002
0000
0000
2000
0000
0000
3003
0000
;

//---------------dance-single - ----------------
#NOTES:
     dance-single:
     :
     Beginner:
     3:
     0.117,0.166,0.122,0.067,0.000:
0000
0000
0000
0000
,
0000
0000
0000
0000
,
0000
0000
0000
0000
,
0000
0000
0000
0000
,
1001
0000
0000
0000
,
1001
0000
0000
0000
,
0110
0000
0000
0000
,
1001
0000
0000
0000
,
1001
0000
0000
0000
,
0110
0000
0000
0000
,
1001
0000
0000
0000
,
0110
0000
0000
0000
,
1001
0000
0000
0000
,
0110
0000
0000
0000
,
1000
0000
0000
0000
,
0002
0000
0000
0000
,
0003
0000
0000
0000
,
1000
0000
0000
0000
,
0010
0000
0000
0000
,
2000
0000
0000
3000
,
0000
0000
0000
0000
,
0010
0010
0010
0000
,
0000
0000
0000
0000
,
0001
0001
0001
0000
,
0000
0000
0000
0000
,
0100
0000
0100
0000
,
0020
0000
0000
0000
,
0030
0000
0000
0000
,
1000
1000
0000
0000
,
0100
0100
0000
0000
,
0010
0010
0000
0000
,
0001
0001
0000
0000
,
2000
0000
0000
0000
,
3000
0000
0000
0000
,
1000
1000
1000
1000
,
2000
0000
0000
0000
,
3000
0000
0000
0000
,
0100
0100
0100
0000
,
0000
0000
0000
0000
,
0010
0010
0010
0000
,
0000
0000
0000
0000
,
0001
0001
0001
0000
,
0000
0000
0000
0000
,
1000
1000
1000
1000
,
0000
1001
0000
0000
,
0010
0000
0000
0000
,
0100
0000
0000
0000
,
0010
0000
0000
0000
,
1000
0000
0000
0000
,
2000
0000
0000
0000
0000
0000
0000
0000
0000
0000
0000
0000
0000
0000
0000
0000
0000
0000
0000
0000
0000
0000
0000
0000
0000
0000
0000
0000
0000
0000
0000
0000
0000
0000
0000
0000
0000
0000
0000
0000
0000
0000
0000
0000
0000
0000
0000
0000
0000
0000
0000
0000
0000
0000
0000
0000
0000
0000
0000
0000
0000
0000
0000
0000
0000
0000
0000
0000
0000
0000
0000
0000
0000
0000
0000
0000
0000
0000
0000
0000
0000
0000
0000
0000
0000
0000
0000
0000
0000
0000
0000
0000
0000
0000
0000
0000
0000
0000
0000
0000
0000
0000
0000
0000
0000
0000
0000
0000
0000
0000
0000
0000
0000
0000
0000
0000
0000
0000
0000
0000
0000
0000
0000
0000
0000
0000
0000
0000
0000
0000
0000
0000
0000
0000
0000
0000
0000
0000
0000
0000
0000
0000
0000
0000
0000
3000
0000
0000
0000
0000
0000
0000
0000
0000
0000
0000
0000
0000
0000
0000
0000
0000
0000
0000
0000
0000
0000
0000
0000
0000
0000
0000
0000
0000
0000
0000
0000
0000
0000
0000
0000
0000
0000
0000
0000
0000
0000
0000
0000
0000
0000
0000
;
