#TITLE:JOINT (ANIME HOUSE PROJECT MIX);
#SUBTITLE:[Remix] 灼眼のシャナⅡ OP1;
#ARTIST:Remixed by anporin;
#TITLETRANSLIT:;
#SUBTITLETRANSLIT:[Remix] Shakugan no Shana II OP1;
#ARTISTTRANSLIT:;
#CREDIT:;
#GENRE:ANIME REMIX;
#BANNER:JOINT (ANIME HOUSE PROJECT MIX).png;
#BACKGROUND:JOINT (ANIME HOUSE PROJECT MIX)-bg.png;
#LYRICSPATH:;
#CDTITLE:cdtitle.png;
#MUSIC:JOINT (ANIME HOUSE PROJECT MIX).mp3;
#MENUCOLOR:0,0,1,1;
#METERTYPE:DDR X;
#OFFSET:-0.203;
#SAMPLESTART:67.538;
#SAMPLELENGTH:12.000;
#SELECTABLE:YES;
#BPMS:0.000=179.997;
#STOPS:;
#BGCHANGES:;

//---------------dance-single - ----------------
#NOTES:
     dance-single:
     :
     Hard:
     15:
     0.745,0.961,0.305,0.055,0.176: // measure 1
0000
0000
0000
0000
,  // measure 2
0000
0000
0000
0000
,  // measure 3
0000
0000
0000
0000
,  // measure 4
0000
0000
0000
0000
,  // measure 5
0000
0000
0000
0000
,  // measure 6
0000
0000
0000
0000
,  // measure 7
0000
0000
0000
0000
,  // measure 8
0000
0000
0000
0000
,  // measure 9
0000
0000
0000
0000
,  // measure 10
1001
0000
0100
0010
0100
0010
0100
0010
,  // measure 11
0000
1000
0100
0010
0001
0100
0010
0100
,  // measure 12
0000
1000
0100
0001
0100
1000
0100
0010
,  // measure 13
0000
1000
0100
0001
0100
1000
0010
1000
,  // measure 14
0000
1000
0010
0001
0010
1000
0100
0010
,  // measure 15
0000
0100
0001
0100
0010
1000
0100
0001
,  // measure 16
0000
1000
0100
1000
0001
1000
0010
0100
,  // measure 17
0000
1000
0001
0010
0001
1000
0010
0100
,  // measure 18
0000
1000
0100
0001
1000
1000
0010
1000
,  // measure 19
0000
0100
0100
0001
0001
0100
0010
0100
,  // measure 20
0000
0001
0001
1000
1000
0010
0100
0010
,  // measure 21
0000
0100
0100
0001
1000
0010
0100
0010
,  // measure 22
0000
0100
0100
0010
1000
0100
0001
0100
,  // measure 23
0000
0010
0010
1000
0100
0001
1000
0010
,  // measure 24
0000
0001
0001
1000
0100
0010
0001
0100
,  // measure 25
0000
1000
0001
0100
0001
0010
0100
1000
,  // measure 26
1001
0000
0010
0000
0100
0010
0100
0010
,  // measure 27
1000
0100
0010
0001
0100
1000
0010
0100
,  // measure 28
0001
1000
1001
0000
0100
0000
0100
0000
,  // measure 29
0100
0000
0100
0000
1000
0100
0010
0001
,  // measure 30
0101
0000
0100
0000
0010
0100
0001
0100
,  // measure 31
0010
1000
0100
0000
0010
0100
0010
1000
,  // measure 32
0100
0000
0001
0000
0100
1000
0100
0000
,  // measure 33
1000
0100
0010
0000
1000
0001
1000
0010
,  // measure 34
0110
0000
0110
0000
1000
0100
0020
0130
,  // measure 35
0000
0010
0100
0000
1000
0100
0001
0100
,  // measure 36
1000
0010
1000
0000
0010
1000
0010
0000
,  // measure 37
1000
0100
0001
0100
1000
0010
1000
0010
,  // measure 38
1000
0000
0100
0000
0010
0100
0010
0100
,  // measure 39
0000
0010
0100
0000
1000
0100
0000
0010
,  // measure 40
0100
0000
0001
0000
1000
0100
0010
0000
,  // measure 41
0001
0100
0010
0100
,  // measure 42
0110
0110
1000
0100
,  // measure 43
0001
0100
0001
1000
0100
0010
1000
0000
,  // measure 44
0010
0000
0010
0000
1000
0100
0001
0100
,  // measure 45
1000
0100
1001
0000
0100
0000
0001
0000
,  // measure 46
0000
0000
0000
0000
1000
0100
0010
0100
,  // measure 47
0000
0010
0100
0000
0010
0100
0000
0000
,  // measure 48
0010
0100
1000
0110
,  // measure 49
0001
0110
1000
0110
,  // measure 50
1000
1000
0000
0000
,  // measure 51
1000
0001
1000
0001
1000
0001
1000
0001
1000
0000
0001
0000
1001
0000
1000
0001
,  // measure 52
1000
0000
0100
0000
0010
0000
0100
0010
0100
0000
0100
0000
0100
0000
0010
0100
,  // measure 53
0010
0000
1000
0000
0100
0000
0001
0100
0001
0000
0001
0000
0101
0000
1000
0010
,  // measure 54
0100
0000
0010
0000
0100
0000
0010
0100
0010
0000
0010
0000
0110
0000
0010
0001
,  // measure 55
0100
0000
0001
0000
0100
0000
1000
0100
1000
0000
0010
0000
0110
0000
0100
0001
,  // measure 56
1000
0000
1000
0000
0001
0000
0100
0001
0100
0000
0100
0000
0110
0000
0010
0100
,  // measure 57
1000
0000
0001
0000
1000
0000
0100
0001
0100
0000
0010
0000
0110
0000
0100
0001
,  // measure 58
1000
0000
1000
0000
0001
0000
0100
0010
0100
0000
0100
0000
0101
0000
0010
1000
,  // measure 59
0100
0000
0010
0000
0100
0000
0001
0010
0001
0000
0010
0000
1010
0000
1000
0001
,  // measure 60
0100
0000
0010
0000
0001
0000
0010
1000
0010
0000
0010
0000
1100
0000
0001
0100
,  // measure 61
1000
0000
0100
0000
0010
0000
0010
0100
0010
0000
0010
0000
0011
0000
0100
0010
,  // measure 62
0100
0000
0010
0000
0100
0000
0001
1000
0001
0000
0010
0000
0110
0000
0100
0001
,  // measure 63
1000
0000
0010
0000
0100
0000
0010
0100
0010
0000
0010
0000
1001
0000
0001
0010
,  // measure 64
0100
0000
0010
0000
0100
0000
0001
0010
0001
0000
0010
0000
0011
0000
0001
1000
,  // measure 65
0100
0000
0010
0000
0100
0000
1000
0001
1000
0000
0100
0000
1100
0000
0010
0001
,  // measure 66
1000
0000
0100
0000
0010
0000
1000
0001
1000
0000
0001
0000
0101
0000
1000
0100
,  // measure 67
0001
0000
0100
0000
0010
0000
0010
0001
0010
0000
0010
0000
1010
0000
0100
0001
,  // measure 68
0100
0000
0010
0000
1000
0000
0010
0100
0010
0000
0010
0000
1001
0000
0000
0000
,  // measure 69
0100
0010
0100
0010
0000
1000
0100
0010
,  // measure 70
0001
0100
0010
0100
0000
1000
0100
0001
,  // measure 71
0100
1000
0010
0100
0000
0100
0100
0010
,  // measure 72
1000
0100
0010
0001
0000
0100
0100
0102
,  // measure 73
0000
0103
1000
0010
0100
0010
0100
0210
,  // measure 74
0000
0310
1000
0010
0100
0001
0000
0120
,  // measure 75
0000
0130
0000
1000
0010
0100
0000
1010
,  // measure 76
0000
0100
0010
0100
0010
0100
0000
1000
,  // measure 77
0100
0010
0100
0010
0100
0010
0000
1000
,  // measure 78
0100
0001
0000
0100
0010
1000
0000
1000
,  // measure 79
0100
0010
0000
0001
0100
1000
0000
0100
,  // measure 80
0010
0100
0000
0001
0100
0010
0000
1000
,  // measure 81
0100
0010
0000
1000
0100
0010
0100
0000
,  // measure 82
1000
0100
0010
0000
0100
0100
0001
0000
,  // measure 83
1000
1000
0010
0000
0100
0100
0002
0000
,  // measure 84
2000
3003
0000
0000
0000
0000
0000
0000
;

//---------------dance-single - ----------------
#NOTES:
     dance-single:
     :
     Beginner:
     3:
     0.133,0.269,0.055,0.018,0.000: // measure 1
0000
0000
0000
0000
,  // measure 2
0000
0000
0000
0000
,  // measure 3
0000
0000
0000
0000
,  // measure 4
0000
0000
0000
0000
,  // measure 5
0000
0000
0000
0000
,  // measure 6
0000
0000
0000
0000
,  // measure 7
0000
0000
0000
0000
,  // measure 8
1000
0000
0000
0000
,  // measure 9
0001
0000
0000
0000
,  // measure 10
1001
0000
0000
0000
,  // measure 11
1000
0000
0000
0000
,  // measure 12
0100
0000
0000
0000
,  // measure 13
0010
0000
0000
0000
,  // measure 14
0001
0000
0000
0000
,  // measure 15
1000
0000
0000
0000
,  // measure 16
0001
0000
0000
0000
,  // measure 17
0100
0000
0000
0000
,  // measure 18
0010
0000
0000
0000
,  // measure 19
1000
0000
0000
0000
,  // measure 20
0001
0000
0000
0000
,  // measure 21
0010
0000
0000
0000
,  // measure 22
0100
0000
0000
0000
,  // measure 23
1000
0000
0000
0000
,  // measure 24
0001
0000
0000
0000
,  // measure 25
0100
0000
0000
0000
,  // measure 26
1001
0000
0000
0000
,  // measure 27
0001
0000
0000
0000
,  // measure 28
1000
0000
0000
0000
,  // measure 29
0100
0000
0000
0000
,  // measure 30
0010
0000
0000
0000
,  // measure 31
0001
0000
0000
0000
,  // measure 32
0001
0000
0000
0000
,  // measure 33
1000
0000
0000
0000
,  // measure 34
0100
0000
0000
0000
,  // measure 35
0100
0000
0000
0000
,  // measure 36
0010
0000
0000
0000
,  // measure 37
0001
0000
0000
0000
,  // measure 38
1000
0000
0000
0000
,  // measure 39
0001
0000
0000
0000
,  // measure 40
0100
0000
0000
0000
,  // measure 41
0010
0000
0000
0000
,  // measure 42
1001
0000
0000
0000
,  // measure 43
0001
0000
0000
0000
,  // measure 44
0100
0000
0000
0000
,  // measure 45
0010
0000
0000
0000
,  // measure 46
0001
0000
0000
0000
,  // measure 47
1000
0000
0000
0000
,  // measure 48
0100
0000
0000
0000
,  // measure 49
0010
0000
0000
0000
,  // measure 50
0001
0001
0000
0000
,  // measure 51
2002
0000
0000
0000
,  // measure 52
3003
0000
0000
0000
,  // measure 53
1000
0000
0000
0000
,  // measure 54
0010
0000
0000
0000
,  // measure 55
0100
0000
0000
0000
,  // measure 56
0001
0000
1000
1000
,  // measure 57
1000
0000
0001
0001
,  // measure 58
0001
0000
0100
0100
,  // measure 59
0100
0000
0000
0000
,  // measure 60
1001
0000
0000
0000
,  // measure 61
0010
0000
0010
0000
,  // measure 62
1000
0000
0000
0000
,  // measure 63
0001
0000
0001
0000
,  // measure 64
0001
0000
1000
1000
,  // measure 65
1000
0000
0100
0100
,  // measure 66
0100
0000
0010
0010
,  // measure 67
0010
0000
0001
0001
,  // measure 68
0001
0000
0000
0000
,  // measure 69
0001
0000
0000
0000
,  // measure 70
1000
0000
0000
0000
,  // measure 71
0100
0000
0000
0000
,  // measure 72
0010
0000
0000
0000
,  // measure 73
0001
0000
0000
0000
,  // measure 74
1000
0000
0000
0000
,  // measure 75
0010
0000
0000
0000
,  // measure 76
1001
0000
0000
0000
,  // measure 77
0001
0000
0000
0000
,  // measure 78
1000
0000
0000
0000
,  // measure 79
0100
0000
0000
0000
,  // measure 80
0010
0000
0000
0000
,  // measure 81
0001
0000
0000
0000
,  // measure 82
1000
0000
0000
0000
,  // measure 83
0100
0000
0000
0000
,  // measure 84
0001
0000
0000
0000
;

//---------------dance-single - ----------------
#NOTES:
     dance-single:
     :
     Easy:
     6:
     0.322,0.384,0.018,0.074,0.000: // measure 1
0000
0000
0000
0000
,  // measure 2
0000
0000
0000
0000
,  // measure 3
0000
0000
0000
0000
,  // measure 4
0000
0000
0000
0000
,  // measure 5
0000
0000
0000
0000
,  // measure 6
0000
0000
0000
0000
,  // measure 7
0000
0000
0000
0000
,  // measure 8
1000
1000
1000
1000
,  // measure 9
0001
0001
0000
0001
,  // measure 10
1000
0001
0000
0100
,  // measure 11
0010
0100
0000
0010
,  // measure 12
1000
0010
0000
0100
,  // measure 13
0001
0100
0000
0001
,  // measure 14
1000
0001
0000
0100
,  // measure 15
0001
0010
0000
0100
,  // measure 16
1000
0010
0000
0100
,  // measure 17
0010
1000
0000
0100
,  // measure 18
0001
0100
0000
0010
,  // measure 19
1000
0010
0000
0100
,  // measure 20
0010
0100
0000
0001
,  // measure 21
0100
1000
0000
1000
,  // measure 22
0010
0001
0000
0001
,  // measure 23
1000
0001
0000
0001
,  // measure 24
1000
0001
0000
1000
,  // measure 25
0001
1000
0000
1000
,  // measure 26
0001
0100
0000
0010
,  // measure 27
0100
0010
1000
0100
,  // measure 28
0010
0001
0000
0001
,  // measure 29
0000
1000
0000
0001
,  // measure 30
1000
0000
0001
1000
,  // measure 31
0001
0100
0010
0001
,  // measure 32
2000
0000
0000
0000
0000
3000
0000
0000
,  // measure 33
0002
0000
0000
0000
0000
0003
0000
0000
,  // measure 34
0100
0000
0010
0100
,  // measure 35
0010
0100
1000
0100
,  // measure 36
0010
1000
0000
0001
,  // measure 37
1000
0010
0100
0001
,  // measure 38
1000
0000
0001
1000
,  // measure 39
0010
0001
0100
0010
,  // measure 40
2000
0000
3002
0000
,  // measure 41
0203
0000
0320
0000
,  // measure 42
1030
0000
0100
0010
,  // measure 43
1000
0100
0001
0010
,  // measure 44
0000
0000
1000
0100
,  // measure 45
0001
0010
0000
0000
,  // measure 46
0000
0000
0010
0001
,  // measure 47
0100
1000
0100
0010
,  // measure 48
1000
0000
0001
0000
,  // measure 49
0100
0000
0010
0000
,  // measure 50
1000
0001
0000
0000
,  // measure 51
2002
0000
0000
3003
,  // measure 52
0110
1000
0100
0010
,  // measure 53
0001
1000
0001
0000
,  // measure 54
0001
0100
0010
0001
,  // measure 55
1000
0100
0010
0001
,  // measure 56
1000
0000
0001
0001
,  // measure 57
1000
0000
1000
1000
,  // measure 58
0100
0010
0001
0100
,  // measure 59
0010
0001
0000
0100
,  // measure 60
0001
1000
0100
0010
,  // measure 61
0001
1000
0001
0000
,  // measure 62
1000
0010
0100
0010
,  // measure 63
0001
1000
0001
1000
,  // measure 64
0001
0000
0100
0010
,  // measure 65
0100
0000
1000
0100
,  // measure 66
0010
0001
1000
0010
,  // measure 67
0001
1000
0001
1000
,  // measure 68
0001
0100
0000
0100
,  // measure 69
0010
1000
0100
0010
,  // measure 70
0001
1000
0000
0100
,  // measure 71
0010
1000
0100
0001
,  // measure 72
1000
0010
0000
0001
,  // measure 73
0100
0010
0000
1000
,  // measure 74
0100
0010
0000
0001
,  // measure 75
0100
0010
1000
0100
,  // measure 76
0001
0100
0000
0100
,  // measure 77
1000
0100
0000
0010
,  // measure 78
0001
0010
0000
1000
,  // measure 79
0100
0010
0000
0000
,  // measure 80
0100
1000
0000
0100
,  // measure 81
1000
0100
0000
0010
,  // measure 82
0100
0010
0000
1000
,  // measure 83
0100
0010
0001
1000
,  // measure 84
0001
0000
0000
0000
;

//---------------dance-single - ----------------
#NOTES:
     dance-single:
     :
     Medium:
     11:
     0.551,0.576,0.009,0.203,0.000: // measure 1
0000
0000
0000
0000
,  // measure 2
0000
0000
0000
0000
,  // measure 3
0000
0000
0000
0000
,  // measure 4
0000
0000
0000
0000
,  // measure 5
0000
0000
0000
0000
,  // measure 6
0000
0000
0000
0000
,  // measure 7
0000
0000
0000
0000
,  // measure 8
1000
0001
1000
0001
1000
0001
1000
0001
,  // measure 9
1000
0000
0001
0000
0000
0001
0100
0000
,  // measure 10
0010
1000
0100
0010
0000
0100
0010
0000
,  // measure 11
0100
0001
0100
0001
0000
1000
0100
0000
,  // measure 12
0010
0001
0100
0001
0000
1000
0100
0000
,  // measure 13
0010
1000
0010
1000
0000
0100
0010
0000
,  // measure 14
0001
0100
0001
0100
0000
0010
1000
0000
,  // measure 15
0100
0010
0100
0010
0000
0001
0100
0000
,  // measure 16
1000
0100
1000
0100
0000
0010
0100
0000
,  // measure 17
0001
0010
0001
0100
0000
0010
0100
0000
,  // measure 18
1000
0100
1000
0010
0000
0100
0001
0000
,  // measure 19
1000
0100
0010
0001
0000
0100
0010
0000
,  // measure 20
0001
0010
0100
1000
0000
0010
0100
0000
,  // measure 21
1000
0100
1000
0100
0000
0010
0100
0000
,  // measure 22
1000
0100
0010
0000
0100
0010
0100
0000
,  // measure 23
0100
0010
0100
0000
0000
1000
0001
1000
,  // measure 24
0000
0100
0010
0100
0000
0100
0010
0001
,  // measure 25
0000
0100
0010
0001
0000
0100
0001
0100
,  // measure 26
0001
0000
1000
0000
0001
1000
0001
2000
,  // measure 27
0000
0000
3001
0000
0100
0010
0000
0100
,  // measure 28
0000
0001
2000
0000
0000
0000
0000
3000
,  // measure 29
0001
0100
0000
0010
0000
0000
0100
0000
,  // measure 30
0010
0000
0000
0000
1000
0010
1000
0020
,  // measure 31
0000
0000
0130
0000
0001
0100
0000
0010
,  // measure 32
2000
0000
3002
0000
,  // measure 33
0203
0000
0000
0320
0000
0000
0000
0000
,  // measure 34
1030
0000
0100
0000
0020
0000
1030
0002
,  // measure 35
0000
0003
0100
0000
0010
0001
0000
1000
,  // measure 36
0000
0001
0100
0000
0001
0100
0001
0000
,  // measure 37
0100
0010
0000
1000
0000
0100
0010
0000
,  // measure 38
1000
0000
0001
0000
0100
0010
0100
0020
,  // measure 39
0000
0000
1030
0000
0100
0010
0000
0100
,  // measure 40
0001
0000
0010
0000
0001
0000
0100
0001
,  // measure 41
0100
0001
0000
0100
0000
0010
0100
0000
,  // measure 42
1001
0000
0100
0000
0010
0000
0001
2000
,  // measure 43
0000
0000
3001
0000
0100
0001
0000
0100
,  // measure 44
0010
0000
0100
0000
2000
0000
3100
0010
,  // measure 45
0000
0000
0001
0000
0100
0010
0100
0000
,  // measure 46
0010
0000
1000
0000
0100
0000
0001
2000
,  // measure 47
0000
0000
3001
0000
0100
0001
0000
0100
,  // measure 48
0100
0010
0001
1000
,  // measure 49
0100
0001
1000
0000
,  // measure 50
1000
1000
0000
0000
,  // measure 51
1000
0001
1000
0001
0000
0001
1000
0000
,  // measure 52
0100
0010
0100
0010
0100
0010
0100
0020
,  // measure 53
0000
0000
1030
0100
0000
0010
0100
0000
,  // measure 54
0001
1000
0100
0010
0001
0100
0010
0200
,  // measure 55
0000
0000
0310
0000
1000
0100
0010
0001
,  // measure 56
0000
0000
0000
0000
0100
0000
0001
0100
,  // measure 57
0000
0000
0000
1000
0100
0000
0100
0010
,  // measure 58
0000
0100
0010
0100
0020
0000
0130
0010
,  // measure 59
0000
1000
0200
0000
0000
0000
0000
0000
,  // measure 60
0310
1000
0010
0100
0010
1000
0100
0020
,  // measure 61
0000
0000
1030
0100
0000
0000
0000
0200
,  // measure 62
0000
0310
1000
0010
0100
0010
0001
0200
,  // measure 63
0000
0000
0301
0000
1000
0100
0010
0001
,  // measure 64
0000
0000
0000
0000
0200
0000
0301
1000
,  // measure 65
0000
0000
0000
0010
0001
0000
1000
0001
,  // measure 66
0000
0100
0010
0001
0100
0000
0010
0200
,  // measure 67
0000
0000
0310
0000
1000
0000
0001
1000
,  // measure 68
0001
1000
0001
1000
0000
0100
0010
0100
,  // measure 69
0010
0100
0010
0100
0000
1000
0100
1000
,  // measure 70
0100
1000
0100
1000
0000
0001
0010
0001
,  // measure 71
0010
0001
0010
0001
0000
1000
0001
1000
,  // measure 72
0001
1000
0001
1000
0000
0100
0010
0100
,  // measure 73
0010
0100
0010
0100
0000
0010
0100
0010
,  // measure 74
0100
0010
0100
0010
0000
1000
0001
1000
,  // measure 75
0000
0001
1000
0001
0000
1000
0001
1000
,  // measure 76
0010
0100
0010
0100
0000
1000
0100
0000
,  // measure 77
0010
0100
0010
0000
0000
0100
0010
0000
,  // measure 78
1000
0100
1000
0000
0000
0010
0100
0000
,  // measure 79
0001
0010
0001
0000
0000
0100
0010
0000
,  // measure 80
0001
1000
0001
0000
0000
0100
0010
0000
,  // measure 81
1000
0100
0001
0000
0000
0010
0100
0000
,  // measure 82
0001
0100
1000
0000
0000
0010
1000
0000
,  // measure 83
0010
0100
0010
1000
,  // measure 84
0001
0000
0000
0000
;
