#TITLE:Illegal Function Call;
#SUBTITLE:;
#ARTIST:U1-ASAMi;
#TITLETRANSLIT:;
#SUBTITLETRANSLIT:;
#ARTISTTRANSLIT:;
#GENRE:ORBITALIC CORE;
#CREDIT:;
#BANNER:Illegal Function Call.png;
#BACKGROUND:Illegal Function Call-bg.png;
#LYRICSPATH:;
#CDTITLE:cdtitle.png;
#MUSIC:Illegal Function Call.mp3;
#MENUCOLOR:1,0,0,1;
#METERTYPE:DDR X;
#OFFSET:-0.081;
#SAMPLESTART:20.000;
#SAMPLELENGTH:12.000;
#SELECTABLE:YES;
#BPMS:0.000=260.000;
#STOPS:;
#BGCHANGES:;

//---------------dance-single - ----------------
#NOTES:
     dance-single:
     :
     Hard:
     12:
     0.589,0.695,0.008,0.187,0.000: // measure 1
0000
0000
0000
0000
,  // measure 2
0000
0000
0000
0000
,  // measure 3
0000
0000
0000
0000
,  // measure 4
0000
0000
0000
0000
,  // measure 5
0000
0000
0000
0000
,  // measure 6
0000
0000
0000
0000
,  // measure 7
1001
0100
0010
0001
,  // measure 8
1000
0000
0100
0000
0010
0001
0010
0000
,  // measure 9
0100
1000
0100
0010
,  // measure 10
0001
0000
0100
0000
0010
0100
0010
0000
,  // measure 11
1000
0100
0001
0100
,  // measure 12
1000
0000
0010
0000
0001
1000
0001
0000
,  // measure 13
0100
0010
0001
0100
,  // measure 14
1000
0000
0100
0000
0010
0001
0010
0000
,  // measure 15
0010
0100
0010
0001
,  // measure 16
0100
0000
1000
0000
0010
0001
0010
0001
,  // measure 17
0010
1000
0100
0010
,  // measure 18
0001
0000
0100
0000
1000
0010
1000
0010
,  // measure 19
1000
0010
1000
0100
,  // measure 20
0010
0000
0001
0000
0100
0010
0100
0010
,  // measure 21
0100
0100
0001
0100
,  // measure 22
0010
1000
0100
0010
,  // measure 23
1000
0000
0100
0000
0010
0001
0000
1000
,  // measure 24
0010
0100
0020
0000
,  // measure 25
1030
0100
0010
0100
,  // measure 26
0002
0000
2003
0000
,  // measure 27
3010
0000
0100
0000
0010
1000
0010
0000
,  // measure 28
0020
0000
2030
0000
,  // measure 29
3100
0001
0100
0001
,  // measure 30
0200
0000
0320
0000
,  // measure 31
0031
1000
0001
1000
,  // measure 32
1000
0000
0000
1000
0000
0000
1000
0000
,  // measure 33
0010
0100
0010
0100
,  // measure 34
0010
0010
0010
0000
,  // measure 35
0100
0001
0100
0010
,  // measure 36
1000
0000
0000
1000
0000
0000
1000
0000
,  // measure 37
1000
0100
0010
0001
,  // measure 38
0100
0100
0100
0000
,  // measure 39
0010
0100
0010
0100
0010
0000
0100
1000
,  // measure 40
0010
0000
0001
0000
0100
0000
0001
0100
,  // measure 41
1000
1000
0100
0001
,  // measure 42
0001
1000
0100
0010
,  // measure 43
0010
0000
1000
0000
0100
0010
0001
0000
,  // measure 44
0001
0100
1000
1000
,  // measure 45
0100
0010
0001
1000
,  // measure 46
0100
0010
2000
0000
,  // measure 47
3001
0001
1000
0100
,  // measure 48
0010
0000
1000
0100
0020
0000
0000
0000
,  // measure 49
0130
0010
1000
0010
,  // measure 50
2000
0000
3002
0000
,  // measure 51
0103
1000
0010
0001
2000
0000
0000
0000
,  // measure 52
3020
0000
0230
0000
,  // measure 53
0302
0000
0203
0000
,  // measure 54
0320
0000
0032
0000
,  // measure 55
2003
0000
0000
0000
,  // measure 56
0000
0000
0000
0000
,  // measure 57
3002
0000
0000
0000
,  // measure 58
0000
0000
0000
0000
,  // measure 59
1003
1000
1000
1000
,  // measure 60
0001
0000
0001
0000
0001
0000
0001
0010
,  // measure 61
0100
0100
0100
0100
,  // measure 62
0010
0000
0010
0000
0010
0000
0010
0001
,  // measure 63
1000
0100
0010
0001
,  // measure 64
0100
0001
1000
0100
,  // measure 65
0010
0001
0100
0010
,  // measure 66
0001
0100
1000
0001
,  // measure 67
1000
0001
1000
0000
0001
0000
0001
0000
,  // measure 68
1000
1000
0010
0010
,  // measure 69
0100
0100
0010
0010
,  // measure 70
0100
0100
0010
0010
,  // measure 71
1000
1000
0100
0100
,  // measure 72
0010
0010
0001
0001
,  // measure 73
0100
0100
0010
0010
,  // measure 74
1000
1000
0100
0001
,  // measure 75
1000
0100
0001
1000
,  // measure 76
0100
0010
0001
1000
,  // measure 77
0100
0010
0001
1000
,  // measure 78
0100
0001
0100
0010
,  // measure 79
1000
0001
1000
0000
0010
0100
0010
0000
,  // measure 80
0100
0010
0100
0000
0010
0100
0010
0000
,  // measure 81
0001
0010
0001
0000
1000
0100
1000
0000
,  // measure 82
0010
0001
0010
0000
0100
0010
0100
0000
,  // measure 83
0001
0100
0001
1000
,  // measure 84
0100
0010
0001
0100
,  // measure 85
0010
0010
1000
0100
,  // measure 86
0010
0001
1000
0010
,  // measure 87
0100
1000
0100
0010
,  // measure 88
0100
0010
1000
0010
,  // measure 89
1000
0010
0100
0010
,  // measure 90
1000
0010
0100
0001
,  // measure 91
2000
0000
0000
0000
,  // measure 92
0000
0000
0000
0000
,  // measure 93
0001
0000
0000
0000
,  // measure 94
0000
0000
0000
0000
,  // measure 95
3001
0000
0100
0000
,  // measure 96
0010
0000
2000
0000
,  // measure 97
3001
1000
0001
1000
,  // measure 98
0100
0000
0010
0000
0001
0000
0100
1000
,  // measure 99
0010
0100
0100
0010
,  // measure 100
1000
0000
0100
0000
0010
0000
1000
0001
,  // measure 101
0010
0100
1000
0100
,  // measure 102
0001
0000
0100
0000
0010
0000
1000
0100
,  // measure 103
0010
0100
0001
1000
,  // measure 104
0100
0000
0001
0000
0100
0000
0010
1000
,  // measure 105
0001
0100
0001
0100
,  // measure 106
0001
0000
0010
0000
0100
0000
0010
0100
,  // measure 107
0001
0100
0001
0100
,  // measure 108
1000
0000
0100
0000
0010
0000
0100
0001
,  // measure 109
1000
0100
0010
0100
,  // measure 110
0001
0000
0100
0000
0010
0000
0100
0010
,  // measure 111
0001
0100
0100
0010
,  // measure 112
0010
0000
0100
0000
0010
0000
0001
1000
,  // measure 113
0100
0010
0100
0001
,  // measure 114
1000
0000
0100
0000
0010
0000
0100
0010
,  // measure 115
0001
0100
0001
1000
,  // measure 116
0100
0000
0001
0000
0010
0000
1000
0001
,  // measure 117
0100
0001
0100
0010
,  // measure 118
1000
0000
0010
0000
1000
0000
0010
0100
,  // measure 119
0001
0010
0100
1000
,  // measure 120
0010
0000
1000
0000
0010
0000
1000
0010
,  // measure 121
0001
1000
1000
0001
,  // measure 122
0001
0000
1000
0000
1000
0000
0010
0100
,  // measure 123
0010
0100
0100
0010
,  // measure 124
0010
0000
1000
0000
1000
0000
0001
0100
,  // measure 125
0001
1000
0100
0010
,  // measure 126
0001
0000
1000
0000
0100
0000
0010
0001
,  // measure 127
1000
1000
0001
0100
,  // measure 128
0010
1000
0002
0000
,  // measure 129
1003
0000
0000
0000
,  // measure 130
0000
0000
0000
0000
,  // measure 131
0000
0000
1000
0000
,  // measure 132
0000
1000
0001
0000
;

//---------------dance-single - ----------------
#NOTES:
     dance-single:
     :
     Challenge:
     14:
     0.712,0.908,0.089,0.179,0.000: // measure 1
0000
0000
0000
0000
,  // measure 2
0000
0000
0000
0000
,  // measure 3
0000
0000
0000
0000
,  // measure 4
0000
0000
0000
0000
,  // measure 5
0000
0000
0000
0000
,  // measure 6
0000
0000
0000
0000
,  // measure 7
1001
1000
0100
0010
,  // measure 8
0001
0000
0100
0000
0010
0001
1000
0000
,  // measure 9
0001
1000
0100
0010
,  // measure 10
0001
0000
1000
0001
1000
0001
1000
0000
,  // measure 11
0001
0100
1000
0100
,  // measure 12
0010
0000
0001
0000
0100
0001
1000
0000
,  // measure 13
0100
0010
0001
0100
,  // measure 14
0010
0000
1000
0000
0001
0100
1000
0010
,  // measure 15
0100
0010
0001
1000
,  // measure 16
0100
0000
0010
0000
0001
0100
1000
0000
,  // measure 17
0100
0010
0001
1000
,  // measure 18
0100
0000
0010
0000
1000
0100
0001
0010
,  // measure 19
0100
0010
1000
0100
,  // measure 20
0010
0000
0001
0000
1000
0001
0100
0000
,  // measure 21
0010
0001
0100
0010
1000
0000
0010
0000
,  // measure 22
0100
0000
0010
0100
0010
0100
0001
0010
,  // measure 23
1000
0000
1000
0000
0001
0010
0000
1000
,  // measure 24
0010
1000
0020
0000
,  // measure 25
1030
0001
0100
0000
0010
0000
0001
0000
,  // measure 26
2000
0000
3002
0000
,  // measure 27
0103
1000
0100
0010
,  // measure 28
1000
0001
1000
0001
0010
0100
0010
0001
,  // measure 29
0100
0010
0100
1000
0001
0010
0001
0100
,  // measure 30
1000
0001
1000
0100
0002
0000
0000
0000
,  // measure 31
1003
0001
0100
0000
0010
0000
1000
0000
,  // measure 32
0001
0000
1000
0100
0010
0100
1000
0000
,  // measure 33
0010
0100
0010
1000
,  // measure 34
0100
0010
2000
0000
,  // measure 35
3001
0010
0100
0001
0010
0100
1000
0000
,  // measure 36
0100
0010
0001
0100
,  // measure 37
1000
0100
0010
0000
0001
0000
0100
0000
,  // measure 38
0001
0100
0002
0000
,  // measure 39
1003
0001
1000
0001
0100
1000
0010
0000
,  // measure 40
1000
0000
1000
0000
0010
0000
0010
0001
,  // measure 41
0100
0100
0001
0001
,  // measure 42
1000
0000
1000
0000
0100
0000
0010
0001
,  // measure 43
0010
0100
1000
0000
0100
0010
0100
0000
,  // measure 44
0010
0010
1000
1000
,  // measure 45
0001
0010
0001
0010
0100
0010
1000
0001
,  // measure 46
0100
0001
0010
0100
2000
0000
0000
0000
,  // measure 47
3001
0000
0001
0000
1000
0100
0000
0001
,  // measure 48
0020
0001
2030
0100
,  // measure 49
3001
0000
1000
0001
0100
0000
0010
0001
,  // measure 50
0200
0000
0302
0000
,  // measure 51
1003
1000
0010
0000
0100
0100
0010
0000
,  // measure 52
0001
0001
0010
0000
0010
0010
1000
0000
,  // measure 53
0001
0001
0010
1000
0100
0100
0001
1000
,  // measure 54
0010
0010
1000
0001
1000
1000
0010
0100
,  // measure 55
0002
0000
0000
0000
,  // measure 56
0000
0000
0000
0000
,  // measure 57
2000
0000
0000
0000
,  // measure 58
0000
0003
0000
0000
,  // measure 59
0020
0000
0000
3000
,  // measure 60
0100
0100
0100
0100
,  // measure 61
0230
0001
0001
0001
,  // measure 62
0001
0001
0001
0001
,  // measure 63
0302
0010
0010
0010
,  // measure 64
0010
0010
0010
0010
,  // measure 65
0203
1000
1000
1000
,  // measure 66
1000
1000
1000
1000
,  // measure 67
0320
1000
1000
1000
,  // measure 68
1000
1000
1000
1000
,  // measure 69
0230
0010
0010
0010
,  // measure 70
0010
0000
0010
0000
0010
0000
0310
1000
,  // measure 71
0001
1000
0100
0010
,  // measure 72
0001
0000
0100
0000
0010
0000
0001
1000
,  // measure 73
0010
0100
1000
0001
,  // measure 74
0100
0000
0010
0000
0001
0000
0100
1000
,  // measure 75
0010
1000
0100
0001
,  // measure 76
0100
0000
1000
0000
0010
0000
0001
0010
,  // measure 77
1000
0100
0001
0100
,  // measure 78
1000
0000
0010
0000
1000
0000
0001
0100
,  // measure 79
1000
0100
0001
0000
1000
0100
0001
0000
,  // measure 80
1000
0100
0001
0000
0100
1000
0010
0000
,  // measure 81
0001
1000
0100
0000
0010
1000
0100
0000
,  // measure 82
0010
0001
1000
0000
0100
0001
0010
0000
,  // measure 83
0100
0100
0010
0010
,  // measure 84
1000
1000
0001
0001
,  // measure 85
1000
0100
0010
0100
,  // measure 86
0001
1000
0100
0010
,  // measure 87
1000
1000
0001
0001
,  // measure 88
0100
0000
0100
0000
0010
0000
0010
0001
,  // measure 89
1000
0010
0100
0010
,  // measure 90
0100
0010
0100
0010
,  // measure 91
2000
0000
0000
0000
,  // measure 92
0000
0000
0000
0000
,  // measure 93
0001
0000
0000
0000
,  // measure 94
0001
0000
0001
0000
,  // measure 95
0002
0000
0000
0000
,  // measure 96
0000
0000
0000
3003
,  // measure 97
1001
1001
1000
0100
,  // measure 98
0010
0000
0001
0000
0100
0000
0100
1000
,  // measure 99
0100
1100
1100
0100
,  // measure 100
0010
0000
0100
0000
0010
0000
1000
0010
,  // measure 101
0001
0011
0100
0001
,  // measure 102
0100
0000
0010
0000
1000
0000
0010
0100
,  // measure 103
0010
0110
1000
0100
,  // measure 104
0001
0000
0100
0000
1000
0000
0001
0100
,  // measure 105
0001
0101
1000
0100
,  // measure 106
0010
0000
0001
0000
1000
0000
0010
1000
,  // measure 107
0010
1010
1000
0100
,  // measure 108
0010
0000
0100
0000
0001
0000
0100
0001
,  // measure 109
0100
0101
1000
0100
,  // measure 110
0010
0000
0001
0000
0100
0000
0010
0001
,  // measure 111
0010
0011
1000
0100
,  // measure 112
0010
0000
0001
0000
1000
0100
0010
0100
,  // measure 113
1000
0100
1000
0000
1000
0001
1000
0000
,  // measure 114
0010
1000
0010
0000
0100
0001
0100
0000
,  // measure 115
0010
0100
0010
0000
0001
0010
0001
0000
,  // measure 116
0100
0001
0100
0000
1000
0100
1000
0000
,  // measure 117
0010
0100
0010
1000
0100
0001
0100
0000
,  // measure 118
0001
0010
0001
0000
1000
0100
1000
0000
,  // measure 119
0010
0100
0010
0000
0100
0000
1000
0000
,  // measure 120
0001
0000
1000
0000
0100
0000
0010
0100
,  // measure 121
1000
0100
0001
0010
0100
1000
0010
0001
,  // measure 122
1000
0100
0010
0100
1000
0100
0001
0010
,  // measure 123
1000
0100
0010
0001
1000
0100
0001
0100
,  // measure 124
1000
0100
0010
0001
1000
0100
0010
0001
,  // measure 125
1000
0010
0100
1000
0010
0100
0001
0010
,  // measure 126
1000
0001
1000
0010
0100
1000
0001
0100
,  // measure 127
1000
0010
0100
1000
0010
0001
1000
0100
,  // measure 128
0001
0010
0100
1000
0010
0001
1000
0100
,  // measure 129
0002
0000
0000
0000
,  // measure 130
0000
1000
0000
0000
,  // measure 131
0000
0000
1000
0000
,  // measure 132
0000
1003
0001
0000
;

//---------------dance-single - ----------------
#NOTES:
     dance-single:
     :
     Medium:
     8:
     0.467,0.481,0.008,0.463,0.000: // measure 1
0000
0000
0000
0000
,  // measure 2
0000
0000
0000
0000
,  // measure 3
0000
0000
0000
0000
,  // measure 4
0000
0000
0000
0000
,  // measure 5
0000
0000
0000
0000
,  // measure 6
0000
0000
0000
0000
,  // measure 7
1000
0001
1000
0001
,  // measure 8
1000
0100
0010
0001
,  // measure 9
0100
0100
0010
0010
,  // measure 10
1000
0001
2000
0000
,  // measure 11
3001
0100
0010
0010
,  // measure 12
1000
0001
0100
0010
,  // measure 13
1000
1000
0100
0010
,  // measure 14
1000
0010
0002
0000
,  // measure 15
1003
1000
0100
0010
,  // measure 16
0010
1000
0100
0001
,  // measure 17
1000
1000
0010
0100
,  // measure 18
0010
1000
0002
0000
,  // measure 19
1003
1000
0100
0010
,  // measure 20
0001
1000
0100
0100
,  // measure 21
0010
1000
0100
0010
,  // measure 22
1000
0010
0200
0000
,  // measure 23
0310
0010
1000
0100
,  // measure 24
0020
0000
2030
0000
,  // measure 25
3001
0100
1000
0100
,  // measure 26
0002
0000
0203
0000
,  // measure 27
0310
1000
0100
0100
,  // measure 28
0020
0000
2030
0000
,  // measure 29
3200
0000
0320
0000
,  // measure 30
2030
0000
3002
0000
,  // measure 31
0103
1000
0100
0010
,  // measure 32
0100
0100
0010
0000
,  // measure 33
1000
0100
0010
0100
,  // measure 34
0001
0100
0100
0000
,  // measure 35
0010
1000
0100
0010
,  // measure 36
0001
0001
0001
0000
,  // measure 37
0100
0001
1000
0100
,  // measure 38
0010
0010
2000
0000
,  // measure 39
3001
1000
0001
1000
,  // measure 40
0001
0001
0100
0000
,  // measure 41
0010
0010
1000
0100
,  // measure 42
0010
0100
0001
0001
,  // measure 43
0100
0010
1000
0100
,  // measure 44
0010
0010
1000
0000
,  // measure 45
0001
1000
0100
0010
,  // measure 46
0001
0100
0020
0000
,  // measure 47
0031
0001
1000
0100
,  // measure 48
0020
0000
0032
0000
,  // measure 49
1003
1000
0100
0001
,  // measure 50
0200
0000
0320
0000
,  // measure 51
1030
0100
0020
0000
,  // measure 52
2030
0000
3200
0000
,  // measure 53
0320
0000
0032
0000
,  // measure 54
2003
0000
3002
0000
,  // measure 55
2003
0000
0000
0000
,  // measure 56
0000
0000
0000
0000
,  // measure 57
0000
0020
0000
0000
,  // measure 58
0000
3000
0000
0000
,  // measure 59
0230
0000
0000
0000
,  // measure 60
0000
0000
0000
0000
,  // measure 61
0302
0000
0000
0000
,  // measure 62
0000
0000
0000
0000
,  // measure 63
2003
0000
0010
0000
,  // measure 64
0000
0000
0001
0000
,  // measure 65
3002
0000
0100
0000
,  // measure 66
0000
0000
0010
0000
,  // measure 67
0203
0000
0010
0000
,  // measure 68
0000
0000
1000
0000
,  // measure 69
0320
0000
1000
0000
,  // measure 70
0000
0000
0100
0000
,  // measure 71
0032
0000
0100
0000
,  // measure 72
0000
0000
0010
0000
,  // measure 73
2003
0000
0100
0000
,  // measure 74
0000
0000
0001
0000
,  // measure 75
3020
0000
0230
0000
,  // measure 76
0310
0000
1000
0000
,  // measure 77
0020
0000
0230
0000
,  // measure 78
0310
0000
1000
0000
,  // measure 79
0002
0000
2003
0000
,  // measure 80
3001
0000
0100
0000
,  // measure 81
2000
0000
3002
0000
,  // measure 82
1003
0000
0100
0000
,  // measure 83
2000
0000
3002
0000
,  // measure 84
1003
0000
0100
0000
,  // measure 85
2000
0000
3200
0000
,  // measure 86
0301
0000
1000
0000
,  // measure 87
0002
0000
0203
0000
,  // measure 88
1300
0000
1000
0000
,  // measure 89
2000
0000
3020
0000
,  // measure 90
0031
0000
1000
0000
,  // measure 91
2002
0000
0000
0000
,  // measure 92
0000
0000
0000
0000
,  // measure 93
0000
0000
0000
0000
,  // measure 94
0000
0000
0000
0000
,  // measure 95
3003
0000
0000
0000
,  // measure 96
0000
0000
2000
3000
,  // measure 97
0001
1000
0001
1000
,  // measure 98
0100
0010
0001
1000
,  // measure 99
1000
0001
0100
1000
,  // measure 100
0100
0010
0001
0001
,  // measure 101
0100
1000
0100
0010
,  // measure 102
0100
0010
0100
0010
,  // measure 103
1000
0100
0001
0100
,  // measure 104
1000
0010
0100
0010
,  // measure 105
1000
0010
0100
0010
,  // measure 106
1000
0100
0001
0100
,  // measure 107
1000
0010
1000
0001
,  // measure 108
1000
0010
1000
0010
,  // measure 109
1000
0010
0100
0010
,  // measure 110
1000
0100
0010
0001
,  // measure 111
1000
1000
0001
1000
,  // measure 112
0001
1000
0010
0000
,  // measure 113
1000
1000
0100
0100
,  // measure 114
0010
0010
0001
0001
,  // measure 115
1000
1000
0100
0100
,  // measure 116
0010
0010
0001
0000
,  // measure 117
0001
0001
0010
0010
,  // measure 118
0100
0100
1000
1000
,  // measure 119
0100
0100
0010
0010
,  // measure 120
0001
0001
1000
0000
,  // measure 121
1000
1000
0010
0010
,  // measure 122
0100
0100
0001
0001
,  // measure 123
1000
1000
0010
0010
,  // measure 124
0100
0100
0001
0000
,  // measure 125
0001
0001
0100
0100
,  // measure 126
0010
0010
1000
1000
,  // measure 127
0001
0001
0100
0100
,  // measure 128
0010
0010
2000
0000
,  // measure 129
3001
0000
0000
0000
,  // measure 130
1000
0000
0000
0000
,  // measure 131
0000
0000
1000
0000
,  // measure 132
0000
1000
0001
0000
;

//---------------dance-single - ----------------
#NOTES:
     dance-single:
     :
     Easy:
     5:
     0.288,0.481,0.000,0.284,0.000: // measure 1
0000
0000
0000
0000
,  // measure 2
0000
0000
0000
0000
,  // measure 3
0000
0000
0000
0000
,  // measure 4
0000
0000
0000
0000
,  // measure 5
0000
0000
0000
0000
,  // measure 6
0000
0000
0000
0000
,  // measure 7
1000
0000
1000
0000
,  // measure 8
0001
0000
1000
0001
,  // measure 9
1000
0000
0010
0000
,  // measure 10
0100
0000
0010
0100
,  // measure 11
0010
0000
1000
0000
,  // measure 12
0100
0000
0001
0100
,  // measure 13
0001
0000
1000
0000
,  // measure 14
0100
0000
1000
0010
,  // measure 15
1000
0000
0100
0000
,  // measure 16
0010
0000
0001
1000
,  // measure 17
0001
0000
0100
0000
,  // measure 18
0010
0000
1000
0010
,  // measure 19
1000
0000
0100
0000
,  // measure 20
0010
0000
0001
0000
,  // measure 21
0100
0000
0010
0000
,  // measure 22
0010
0000
1000
0000
,  // measure 23
0002
0000
0000
0000
,  // measure 24
1000
0000
1000
0000
,  // measure 25
2003
0000
0000
0000
,  // measure 26
3020
0000
0230
0000
,  // measure 27
0302
0000
1000
0000
,  // measure 28
1000
0000
1000
0000
,  // measure 29
2003
0000
3020
0000
,  // measure 30
0230
0000
0302
0000
,  // measure 31
2003
0000
0000
0000
,  // measure 32
0000
0000
0000
0000
,  // measure 33
3002
0000
0000
0000
,  // measure 34
0000
0000
0000
0000
,  // measure 35
0023
0000
0000
0000
,  // measure 36
0000
0000
0000
0000
,  // measure 37
0230
0000
0000
0000
,  // measure 38
0000
0000
0000
0000
,  // measure 39
1300
0000
0100
0000
,  // measure 40
0010
1000
0010
0000
,  // measure 41
0100
0000
0010
0000
,  // measure 42
0100
0000
0001
0100
,  // measure 43
0001
0000
1000
0000
,  // measure 44
0100
0000
0010
0000
,  // measure 45
1000
0001
1000
0000
,  // measure 46
0001
0000
2000
0000
,  // measure 47
3001
0000
0001
0000
,  // measure 48
0200
0000
0310
0000
,  // measure 49
0010
0000
0001
0000
,  // measure 50
0002
0000
1003
0000
,  // measure 51
2000
0000
3000
0000
,  // measure 52
2000
0000
3000
0000
,  // measure 53
0002
0000
0003
0000
,  // measure 54
0002
0000
0003
0000
,  // measure 55
0200
0000
0000
0000
,  // measure 56
0000
0000
0000
0000
,  // measure 57
0000
0000
0000
0000
,  // measure 58
0000
0000
0000
0000
,  // measure 59
0302
0000
1000
0000
,  // measure 60
0000
0000
1000
0000
,  // measure 61
0000
0000
1000
0000
,  // measure 62
0000
0000
0000
0000
,  // measure 63
2003
0000
0010
0000
,  // measure 64
0000
0000
0010
0000
,  // measure 65
0000
0000
0010
0000
,  // measure 66
0000
0000
0010
0000
,  // measure 67
0000
0000
3020
0000
,  // measure 68
0000
0000
0100
0000
,  // measure 69
0000
0000
0100
0000
,  // measure 70
0000
0000
0100
0000
,  // measure 71
0032
0000
0100
0000
,  // measure 72
0000
0000
1000
0000
,  // measure 73
0000
0000
0010
0000
,  // measure 74
0000
0000
1000
0000
,  // measure 75
2003
0000
0100
0000
,  // measure 76
0000
0000
0010
0000
,  // measure 77
0000
0000
0001
0000
,  // measure 78
0000
0000
0010
0000
,  // measure 79
3020
0000
0100
0000
,  // measure 80
0000
0000
0100
0000
,  // measure 81
0000
0000
0001
0000
,  // measure 82
0000
0000
1000
0000
,  // measure 83
0000
0000
0230
0000
,  // measure 84
0000
0000
0320
0000
,  // measure 85
0000
0000
2030
0000
,  // measure 86
0000
0000
3002
0000
,  // measure 87
2003
0000
0000
0000
,  // measure 88
0000
0000
0000
0000
,  // measure 89
3020
0000
0000
0000
,  // measure 90
0000
0000
0000
0000
,  // measure 91
0200
0000
0000
0000
,  // measure 92
0000
0000
0000
0000
,  // measure 93
0000
0000
0000
0000
,  // measure 94
0000
0000
0000
0000
,  // measure 95
0000
0000
0000
0000
,  // measure 96
0000
0000
0000
0300
,  // measure 97
0030
0000
1000
0010
,  // measure 98
1000
0000
0010
0000
,  // measure 99
0100
0000
0001
0100
,  // measure 100
0001
0000
1000
0000
,  // measure 101
0100
0000
0010
0100
,  // measure 102
0010
0000
1000
0000
,  // measure 103
0001
0000
1000
0001
,  // measure 104
1000
0000
0010
0000
,  // measure 105
0100
0000
0001
1000
,  // measure 106
0001
0000
0100
0000
,  // measure 107
0010
0000
1000
0100
,  // measure 108
0010
0000
0100
0000
,  // measure 109
0010
0000
0001
1000
,  // measure 110
0001
0000
0100
0000
,  // measure 111
0010
0000
1000
0001
,  // measure 112
1000
0000
0010
0000
,  // measure 113
1000
1000
0001
0000
,  // measure 114
0010
0000
0001
0000
,  // measure 115
0001
0001
1000
0000
,  // measure 116
0100
0000
0010
0000
,  // measure 117
0100
0100
0010
0000
,  // measure 118
0001
0000
1000
0000
,  // measure 119
0100
0100
0010
0000
,  // measure 120
0001
0000
1000
0000
,  // measure 121
0001
0001
1000
0000
,  // measure 122
1000
1000
0001
0000
,  // measure 123
0001
0001
1000
0000
,  // measure 124
1000
1000
0001
0000
,  // measure 125
1000
0100
0010
0001
,  // measure 126
1000
0100
0010
0001
,  // measure 127
0100
0001
1000
0100
,  // measure 128
0010
0001
2000
0000
,  // measure 129
3001
0000
0000
0000
,  // measure 130
0000
0000
0000
0000
,  // measure 131
0000
0000
1000
0000
,  // measure 132
0000
1000
0001
0000
;

//---------------dance-single - ----------------
#NOTES:
     dance-single:
     :
     Beginner:
     3:
     0.147,0.321,0.000,0.171,0.000: // measure 1
0000
0000
0000
0000
,  // measure 2
0000
0000
0000
0000
,  // measure 3
0000
0000
0000
0000
,  // measure 4
0000
0000
0000
0000
,  // measure 5
0000
0000
0000
0000
,  // measure 6
0000
0000
0000
0000
,  // measure 7
1000
0000
1000
0000
,  // measure 8
0000
0000
0000
0000
,  // measure 9
0001
0000
0001
0000
,  // measure 10
0000
0000
0000
0000
,  // measure 11
0100
0000
0100
0000
,  // measure 12
0000
0000
0000
0000
,  // measure 13
0010
0000
0010
0000
,  // measure 14
0000
0000
0000
0000
,  // measure 15
1000
0000
0000
0000
,  // measure 16
1000
0000
0000
0000
,  // measure 17
0001
0000
0000
0000
,  // measure 18
0001
0000
0000
0000
,  // measure 19
0010
0000
0000
0000
,  // measure 20
0010
0000
0000
0000
,  // measure 21
0100
0000
0000
0000
,  // measure 22
0100
0000
0000
0000
,  // measure 23
2000
0000
0000
0000
,  // measure 24
0000
0000
0000
0000
,  // measure 25
3002
0000
0000
0000
,  // measure 26
0000
0000
0000
0000
,  // measure 27
0203
0000
0000
0000
,  // measure 28
0000
0000
0000
0000
,  // measure 29
0320
0000
0000
0000
,  // measure 30
0000
0000
0000
0000
,  // measure 31
1030
0000
0000
0000
,  // measure 32
1000
0000
0000
0000
,  // measure 33
0001
0000
0000
0000
,  // measure 34
0001
0000
0000
0000
,  // measure 35
0100
0000
0000
0000
,  // measure 36
0100
0000
0000
0000
,  // measure 37
0010
0000
0000
0000
,  // measure 38
0010
0000
0000
0000
,  // measure 39
1000
0000
1000
0000
,  // measure 40
1000
0000
0000
0000
,  // measure 41
0001
0000
0001
0000
,  // measure 42
0001
0000
0000
0000
,  // measure 43
0100
0000
0100
0000
,  // measure 44
0100
0000
0000
0000
,  // measure 45
0010
0000
0010
0000
,  // measure 46
0020
0000
0000
0000
,  // measure 47
1030
0000
1000
0000
,  // measure 48
0000
0000
0000
0000
,  // measure 49
0001
0000
0001
0000
,  // measure 50
2000
0000
0000
0000
,  // measure 51
3001
0000
0002
0000
,  // measure 52
1003
0000
1000
0000
,  // measure 53
2000
0000
3001
0000
,  // measure 54
0001
0000
0000
0000
,  // measure 55
0200
0000
0000
0000
,  // measure 56
0000
0000
0000
0000
,  // measure 57
0000
0000
0000
0000
,  // measure 58
0000
0000
0000
0000
,  // measure 59
0320
0000
0000
0000
,  // measure 60
0000
0000
0000
0000
,  // measure 61
0000
0000
0000
0000
,  // measure 62
0000
0000
0000
0000
,  // measure 63
0230
0000
0000
0000
,  // measure 64
0000
0000
0000
0000
,  // measure 65
0000
0000
0000
0000
,  // measure 66
0000
0000
0000
0000
,  // measure 67
0320
0000
0000
0000
,  // measure 68
0000
0000
0000
0000
,  // measure 69
0000
0000
0000
0000
,  // measure 70
0000
0000
0000
0000
,  // measure 71
2030
0000
0000
0000
,  // measure 72
0000
0000
0000
0000
,  // measure 73
0000
0000
0000
0000
,  // measure 74
0000
0000
0000
0000
,  // measure 75
3002
0000
0000
0000
,  // measure 76
0000
0000
0000
0000
,  // measure 77
0000
0000
0000
0000
,  // measure 78
0000
0000
0000
0000
,  // measure 79
2003
0000
0000
0000
,  // measure 80
0000
0000
0000
0000
,  // measure 81
0000
0000
0000
0000
,  // measure 82
0000
0000
0000
0000
,  // measure 83
3002
0000
0000
0000
,  // measure 84
0000
0000
0000
0000
,  // measure 85
2003
0000
0000
0000
,  // measure 86
0000
0000
0000
0000
,  // measure 87
0000
0000
0000
0000
,  // measure 88
0000
0000
0000
0000
,  // measure 89
3002
0000
0000
0000
,  // measure 90
0000
0000
0000
0000
,  // measure 91
0003
0000
0000
0000
,  // measure 92
0000
0000
0000
0000
,  // measure 93
0000
0000
0000
0000
,  // measure 94
0000
0000
0000
0000
,  // measure 95
0000
0000
0000
0000
,  // measure 96
0000
0000
0000
0000
,  // measure 97
1000
0000
1000
0000
,  // measure 98
1000
0000
0000
0000
,  // measure 99
0010
0000
0010
0000
,  // measure 100
0010
0000
0000
0000
,  // measure 101
0001
0000
0001
0000
,  // measure 102
0001
0000
0000
0000
,  // measure 103
0100
0000
0100
0000
,  // measure 104
0100
0000
0000
0000
,  // measure 105
1000
0000
1000
0000
,  // measure 106
1000
0000
0000
0000
,  // measure 107
0010
0000
0010
0000
,  // measure 108
0010
0000
0000
0000
,  // measure 109
0100
0000
0100
0000
,  // measure 110
0100
0000
0000
0000
,  // measure 111
0001
0000
0001
0000
,  // measure 112
0001
0000
0000
0000
,  // measure 113
1000
0000
1000
0000
,  // measure 114
2000
0000
3000
0000
,  // measure 115
0100
0000
0100
0000
,  // measure 116
0100
0000
0000
0000
,  // measure 117
0010
0000
0010
0000
,  // measure 118
0010
0000
0000
0000
,  // measure 119
0001
0000
0001
0000
,  // measure 120
0001
0000
0000
0000
,  // measure 121
1000
0000
0000
0000
,  // measure 122
1000
0000
0000
0000
,  // measure 123
1000
0000
0000
0000
,  // measure 124
0001
0000
0000
0000
,  // measure 125
2000
0000
0000
0000
,  // measure 126
0000
0000
0000
0000
,  // measure 127
0002
0000
0000
0000
,  // measure 128
0000
0000
0000
0000
,  // measure 129
3003
0000
0000
0000
,  // measure 130
0000
0000
0000
0000
,  // measure 131
0000
0000
1000
0000
,  // measure 132
0000
0000
1000
0000
;
