#TITLE:I miss you (DJ SHARPNEL Remix);
#SUBTITLE:[Remix] FORTUNE ARTERIAL 赤い約束 ED;
#ARTIST:Remixed by DJ SHARPNEL feat. LIA;
#TITLETRANSLIT:;
#SUBTITLETRANSLIT:[Remix] FORTUNE ARTERIAL ~Akai Yakusoku~ ED;
#ARTISTTRANSLIT:;
#GENRE:ANIME REMIX;
#CREDIT:;
#BANNER:I miss you (DJ SHARPNEL Remix).png;
#BACKGROUND:I miss you (DJ SHARPNEL Remix)-bg.png;
#LYRICSPATH:;
#CDTITLE:cdtitle.png;
#MUSIC:I miss you (DJ SHARPNEL Remix).mp3;
#MENUCOLOR:0,0,1,1;
#METERTYPE:DDR X;
#OFFSET:-1.086;
#SAMPLESTART:51.446;
#SAMPLELENGTH:12.000;
#SELECTABLE:YES;
#BPMS:0.000=173.000;
#STOPS:;
#BGCHANGES:;

//---------------dance-single - ----------------
#NOTES:
     dance-single:
     :
     Hard:
     13:
     0.487,0.692,0.066,0.110,0.088:
0110
0000
0000
0010
0000
0000
0010
0000
,
0010
0000
0000
0010
0000
0000
0010
0000
,
0010
0000
0000
1000
0000
0000
1000
0000
,
1000
0000
0000
0001
0000
0000
0001
0000
,
0001
0000
0000
0100
0000
0000
0100
0000
,
0100
0000
0000
0010
0000
0000
0010
0000
,
0010
0000
0000
1000
0000
0000
1000
0000
,
1000
0000
0000
0000
0001
0000
0000
0000
1000
0001
1000
0001
1000
0001
1000
0001
,
1000
0000
0100
0000
0010
0000
1000
0001
,
1000
0010
0100
0010
,
1001
0010
0001
0100
,
0010
0000
1000
0100
0000
0020
0000
0000
,
1030
0100
0010
0001
,
0100
0000
0020
0000
0030
1000
0000
0000
,
0002
0103
0010
0100
,
2000
0000
3010
0200
0000
0301
0100
0000
,
0010
1000
0100
0010
,
0001
0000
0100
0000
0010
0000
1000
0001
,
1000
0010
0100
0001
,
1000
0000
0000
0000
0000
0000
0010
0000
1000
0001
1000
0001
1000
0001
1000
0001
,
1000
0000
0100
0000
0010
0000
1000
0001
,
1000
0010
0000
0100
0000
0010
0000
0000
,
1000
0100
0010
0001
,
1000
0000
0010
0100
0000
0002
0000
0000
,
1003
0100
0010
0001
,
1000
0000
0010
0200
0000
0301
0000
0000
,
1000
0100
0010
0001
,
1000
0000
0010
0100
0000
0000
0001
0000
,
0101
0010
1000
0100
,
0010
0001
1000
0020
,
1030
0100
0010
0001
,
1000
0001
1000
0010
,
1000
0010
0100
0001
,
1000
0100
0001
0100
,
1000
0010
0001
1000
,
1000
0001
1000
0001
1000
0001
1000
0001
1000
0001
1000
0001
1000
0001
1000
0001
,
1000
0000
1100
0000
0010
0100
0010
0000
,
0100
0000
0010
0000
1000
0001
1000
0001
,
1000
0010
0000
0100
0000
0020
0000
0000
,
0130
0000
0001
0000
1000
0000
0100
0100
,
0100
0000
0010
0000
1000
0001
1000
0010
,
0000
0000
0100
0000
0001
1000
0001
0100
,
0010
1000
0000
0001
0000
0100
0010
0000
,
1000
0000
0100
0000
0010
0000
0001
0001
,
0001
0000
0100
0000
0010
1000
0001
0100
,
0020
0000
1000
0000
0100
0000
0031
1000
,
0001
0100
0010
0100
,
1000
0100
0010
0001
1000
0100
0010
0001
,
1001
0000
0100
0010
0100
0000
1000
0000
,
0001
0100
0001
0000
1000
0010
0100
0000
,
0010
0100
0010
0000
1000
0100
0010
0000
,
0001
0100
0001
0000
0100
0010
1000
0010
,
0100
0010
0100
0000
0001
0100
0001
0100
,
0010
1000
0010
0000
0100
0001
0100
0010
,
1000
0100
0010
0000
0001
0100
0001
0100
,
0010
1000
0100
0000
0001
0100
0010
1000
,
1001
0100
0000
0010
,
0010
0001
0000
0001
,
0100
0100
0000
0010
,
0100
0100
0001
1000
,
0001
0000
0000
0000
;

//---------------dance-single - ----------------
#NOTES:
     dance-single:
     :
     Medium:
     8:
     0.348,0.396,0.022,0.253,0.000:
1001
0000
0000
0001
0000
0000
0001
0000
,
0001
0000
0000
1000
0000
0000
1000
0000
,
1000
0000
0000
0010
0000
0000
0010
0000
,
0000
0100
0000
0000
0001
0000
0001
0000
,
1000
0000
0000
1000
0000
0000
0010
0000
,
0010
0000
0000
0001
0000
0000
0001
0000
,
0001
0000
0000
1000
0000
0000
0100
0000
,
0100
0000
0010
0010
,
1001
0000
0100
0000
0010
0000
1000
0001
,
2000
0000
0000
3001
0000
0100
0000
0000
,
0020
0000
0000
0000
,
1030
0000
0001
1000
0000
0010
0000
0000
,
0200
0000
0000
0000
,
0301
0000
1000
0001
0000
0100
0000
0000
,
0020
0000
0000
0000
,
0130
0000
0000
0002
0000
0000
1003
0000
,
0020
0000
0000
1000
,
0000
0001
0000
0100
,
0000
1030
0000
0100
,
0010
0000
1000
0000
1000
0001
1000
0001
,
1000
0000
0100
0000
0010
0000
1000
0001
,
1000
0001
0000
0100
0000
0020
0000
0000
,
2030
0000
0000
0000
,
3001
0000
0100
0010
0000
0001
0000
0000
,
0002
0000
0000
0000
,
0103
0000
0010
0001
0000
0100
0000
0000
,
2000
0000
0000
0000
,
3001
0000
0100
0010
0000
0000
0010
0000
,
0002
0000
1003
0020
,
0000
0230
0000
0302
,
0000
0000
0000
1003
,
0010
0200
0000
0000
,
0310
1000
0100
0020
,
0000
1030
0100
0001
,
2000
0000
0000
0000
,
3001
0100
0020
0000
,
1030
0000
0001
0000
0100
0001
0100
0002
,
0000
0000
0000
0003
1000
0010
0100
0010
,
0100
0010
0000
0001
0000
2000
0000
0000
,
3001
0100
0010
0001
,
1000
0000
0000
0000
0100
0010
0100
0010
,
0000
0000
0000
0000
0001
1000
0001
1000
,
0001
0100
0000
0010
0000
2000
0000
0000
,
3001
0100
0010
0001
,
1000
0000
0000
0000
0100
0010
0100
0010
,
2000
0000
0000
0000
0000
0000
3001
0200
,
0000
0000
0000
0000
,
0000
0300
0010
0000
1000
0000
0001
1000
,
0001
0100
0010
0100
,
0010
1000
0100
0010
,
0001
1000
0000
0000
0100
0000
0010
0000
,
1000
0100
0001
0100
,
0010
1000
0100
0001
,
1000
0001
1000
0000
0010
0100
0010
0100
,
0000
0000
0010
0000
1000
0001
1000
0001
,
0000
0000
0100
0000
0010
1000
0010
1000
,
0010
0100
0000
0100
,
0000
0010
0000
0001
,
0000
1000
0000
0001
,
1000
0001
1000
0001
,
1000
0000
0000
0000
;

//---------------dance-single - ----------------
#NOTES:
     dance-single:
     :
     Easy:
     5:
     0.297,0.330,0.044,0.176,0.000: // measure 1
1001
0000
0000
0001
0000
0000
0001
0000
,  // measure 2
0000
0000
0000
1000
0000
0000
1000
0000
,  // measure 3
0000
0000
0000
0010
0000
0000
0010
0000
,  // measure 4
0000
0010
0000
0000
0010
0000
0010
0000
,  // measure 5
0001
0000
0000
0001
0000
0000
0001
0000
,  // measure 6
0000
0000
0000
1000
0000
0000
1000
0000
,  // measure 7
0000
0000
0000
0010
0000
0000
0010
0000
,  // measure 8
0000
1000
0000
0000
1000
0000
1000
0000
,  // measure 9
1001
0100
0000
0010
,  // measure 10
0000
0001
0000
1000
,  // measure 11
0000
0010
0000
0001
,  // measure 12
1000
0000
0001
0001
,  // measure 13
0002
0000
0000
0000
,  // measure 14
1003
0100
0010
0001
,  // measure 15
2000
0000
0000
0000
,  // measure 16
3001
0010
0100
0010
,  // measure 17
2000
0000
0001
0000
,  // measure 18
0010
0000
0001
0000
,  // measure 19
3002
0000
0100
0000
,  // measure 20
1000
0000
2000
0000
,  // measure 21
3003
0100
0010
1000
,  // measure 22
0100
0010
0001
1000
,  // measure 23
0002
0000
0000
0000
,  // measure 24
0103
0010
0001
0010
,  // measure 25
2000
0000
0000
0000
,  // measure 26
3100
0010
0001
0010
,  // measure 27
0200
0000
0000
0000
,  // measure 28
0310
1000
0100
0001
,  // measure 29
0020
0000
1000
0000
,  // measure 30
0000
0000
0000
0000
,  // measure 31
0032
0000
0000
0000
,  // measure 32
1003
0020
0000
0000
,  // measure 33
0130
0001
1000
0100
,  // measure 34
0010
0001
1000
0001
,  // measure 35
2000
0000
0000
0000
,  // measure 36
0002
0000
0000
0000
,  // measure 37
3003
0100
0010
0001
,  // measure 38
1000
0001
0100
1000
,  // measure 39
0010
0010
0100
0100
,  // measure 40
1001
0100
0010
0001
,  // measure 41
0001
1000
0100
0010
,  // measure 42
0001
1000
0100
0010
,  // measure 43
0100
0100
0001
0001
,  // measure 44
1001
0100
0001
0010
,  // measure 45
1000
0100
0010
0001
,  // measure 46
2000
0000
0000
0001
,  // measure 47
3002
0000
0000
0000
,  // measure 48
1003
0001
2000
0000
,  // measure 49
3001
0100
0010
0001
,  // measure 50
1000
0001
1000
0001
,  // measure 51
1000
0100
0010
0001
,  // measure 52
1000
0001
0100
0010
,  // measure 53
0001
1000
0100
0010
,  // measure 54
1000
0001
1000
0001
,  // measure 55
0100
0010
0001
1000
,  // measure 56
0001
1000
0001
1000
,  // measure 57
0001
0001
0000
0001
,  // measure 58
0000
0001
0000
0001
,  // measure 59
0000
1000
0000
0001
,  // measure 60
0000
1000
0001
1000
,  // measure 61
0001
0000
0000
0000
;

//---------------dance-single - ----------------
#NOTES:
     dance-single:
     :
     Beginner:
     2:
     0.111,0.165,0.055,0.176,0.000: // measure 1
2002
0000
0000
0000
,  // measure 2
3003
0000
0000
0000
,  // measure 3
0000
0000
0000
0000
,  // measure 4
0000
0000
0000
0000
,  // measure 5
0001
0000
0000
0000
,  // measure 6
0000
0000
0000
0000
,  // measure 7
1000
0000
0000
0000
,  // measure 8
0000
0000
0000
0000
,  // measure 9
1001
0000
0000
0000
,  // measure 10
0001
0000
0000
0000
,  // measure 11
0200
0000
0000
0000
,  // measure 12
0300
0000
0000
0000
,  // measure 13
0002
0000
0000
0000
,  // measure 14
0003
0000
0000
0000
,  // measure 15
2000
0000
0000
0000
,  // measure 16
3000
0000
0000
0000
,  // measure 17
0020
0000
0000
0000
,  // measure 18
0030
0000
0000
0000
,  // measure 19
0001
0000
0000
0000
,  // measure 20
1000
0000
0000
0000
,  // measure 21
1001
0000
0000
0000
,  // measure 22
0001
0000
0000
0000
,  // measure 23
2000
0000
0000
0000
,  // measure 24
3000
0000
0000
0000
,  // measure 25
0002
0000
0000
0000
,  // measure 26
0003
0000
0000
0000
,  // measure 27
0200
0000
0000
0000
,  // measure 28
0300
0000
0000
0000
,  // measure 29
0020
0000
0000
0000
,  // measure 30
0030
0000
0000
0000
,  // measure 31
0001
0000
0000
0000
,  // measure 32
1000
0000
0000
0000
,  // measure 33
0002
0000
0000
0000
,  // measure 34
1003
0000
0000
0000
,  // measure 35
2000
0000
0000
0000
,  // measure 36
3001
0000
0000
0000
,  // measure 37
1001
0000
0000
0000
,  // measure 38
0001
0000
0000
0000
,  // measure 39
0010
0000
0010
0000
,  // measure 40
0010
0000
0100
0000
,  // measure 41
1000
0000
0000
0000
,  // measure 42
1000
0000
0000
0000
,  // measure 43
0001
0000
0001
0000
,  // measure 44
0010
0000
1000
0000
,  // measure 45
0001
0000
0000
0000
,  // measure 46
2000
0000
0000
0000
,  // measure 47
3002
0000
0000
0000
,  // measure 48
0003
0000
0200
0000
,  // measure 49
0300
0000
0000
0000
,  // measure 50
0100
0000
0000
0000
,  // measure 51
0010
0000
0000
0000
,  // measure 52
0001
0000
0000
0000
,  // measure 53
1000
0000
0000
0000
,  // measure 54
0001
0000
0000
0000
,  // measure 55
0010
0000
0000
0000
,  // measure 56
0100
0000
0000
0000
,  // measure 57
0110
0000
0000
0000
,  // measure 58
0010
0000
0000
0000
,  // measure 59
0010
0000
0000
0000
,  // measure 60
0002
0000
0000
0000
,  // measure 61
0003
0000
0000
0000
;
