#TITLE:Hacking to the Gate;
#SUBTITLE:Steins-Gate OP;
#ARTIST:いとう かなこ;
#TITLETRANSLIT:;
#SUBTITLETRANSLIT:;
#ARTISTTRANSLIT:Kanako Itou;
#CREDIT:;
#GENRE:ANIMATION BEAT#1;
#BANNER:Hacking to the Gate.png;
#BACKGROUND:Hacking to the Gate-bg.png;
#LYRICSPATH:;
#CDTITLE:cdtitle.png;
#MUSIC:Hacking to the Gate.mp3;
#MENUCOLOR:0,0,1,1;
#METERTYPE:DDR X;
#OFFSET:-1.254;
#SAMPLESTART:62.722;
#SAMPLELENGTH:12.000;
#SELECTABLE:YES;
#BPMS:0.000=161.000,99.500=80.500,107.500=161.000,123.500=80.500,131.500=161.000;
#STOPS:;
#BGCHANGES:;

//---------------dance-single - ----------------
#NOTES:
     dance-single:
     :
     Hard:
     14:
     0.668,0.618,0.769,0.069,0.113:
0000
0000
0000
0000
,
1010
0000
0100
0010
0100
0010
0100
0010
,
0110
0000
0001
0100
0001
0100
0001
0100
,
0110
0000
0100
0010
0100
0010
1000
0010
,
1010
0000
0100
0010
0100
0010
0100
0001
,
0101
0000
1000
1000
0010
0010
0100
0100
,
0101
0000
0010
0010
0100
0100
0001
0001
,
0110
0000
1000
1000
0001
0001
0100
0100
,
0110
0000
1000
0000
0001
0100
0010
0000
,
0110
0000
1000
0010
0100
0010
1000
0010
,
0100
0010
0110
0000
0100
0000
0001
1000
,
0100
0000
0010
0100
0010
1000
0100
0010
,
0001
0000
0100
0000
1010
0100
0101
1000
,
0110
0000
0110
1000
0010
0100
0001
1000
,
0100
0010
0001
1000
0100
0010
0001
0100
,
1100
0000
1100
0000
1100
0000
1100
0000
0010
0000
0100
0000
0001
0000
0100
0010
,
0100
0010
0100
0000
0100
0000
0101
0000
0100
0000
0100
0010
0100
0010
0100
0010
,
0100
1000
0100
0010
0001
0100
1000
0010
,
0100
0001
0110
0000
0100
0010
1000
0010
,
0100
0010
0001
1000
0100
0010
0001
0100
,
0000
0000
0010
0000
1001
0100
0110
1000
,
0101
0000
0110
1000
0010
0100
0010
1000
,
0001
0100
0010
1000
0100
0010
0001
0100
,
0110
0110
0110
1000
0100
0010
0001
0110
,
0100
0010
0100
0000
0110
0110
0000
0020
,
0000
1000
0000
0100
0100
0000
0001
0000
0100
0100
0100
0000
0000
0000
0130
2000
,
0000
0100
0100
0000
0010
0010
0010
0000
0000
0000
0000
0000
3001
0001
0002
0000
,
0000
1000
1000
0000
0000
0100
0100
0100
,
0000
1000
1003
0000
0000
0000
0100
0010
,
0110
0000
1000
0100
0010
0001
0100
0010
,
0110
0110
0110
0000
1001
1001
0000
0210
,
0000
1000
0000
0010
0010
0000
0001
0000
0010
0010
0010
0000
0000
0000
0000
0320
,
0000
0100
0100
0000
1000
1000
1000
0000
0000
1000
0000
1000
1000
1030
1001
0000
,
0000
0100
0010
0100
0010
0100
0010
0110
,
0000
0100
0010
0100
0010
0100
0010
0110
,
0000
1000
0010
1010
0000
0100
0010
0110
,
0000
0110
0000
0110
0000
1000
0110
0000
,
0110
0000
1000
0100
0010
0001
0100
0010
,
1100
1100
0011
0011
0100
0010
0100
0110
,
0000
0100
0010
0100
0010
1000
1000
1000
,
0100
0010
0001
0100
0010
0100
0010
1000
,
1000
0000
0001
0000
0100
0000
0000
0000
0100
0000
0010
0000
0100
0010
0100
0000
,
0110
0110
0110
0110
0000
1000
0001
1001
,
0000
0100
0010
0100
0010
1000
1000
1000
,
0100
0010
0100
0101
0100
0010
0100
0110
,
0000
0100
0010
0001
1000
0100
0010
0100
,
0011
0011
0011
0011
0100
0010
0100
0110
,
0000
1000
0100
0010
0001
1000
0100
0010
,
0100
1000
1000
0010
0100
0010
0100
0110
,
1000
0000
0100
0000
0010
0000
0001
0000
0100
0000
1000
0000
0100
0000
0010
0001
,
0010
1100
1100
1100
0010
0100
0010
0110
,
0000
1000
0110
0000
0110
0010
1000
0100
,
0010
0001
0100
0110
1000
0010
0100
0110
,
1000
0001
0101
1000
0010
0100
0010
0100
,
0110
0110
1000
0110
0000
0110
0000
2002
,
0000
0000
0000
0000
,
0000
0000
0000
0000
,
3003
0000
0000
0000
;

//---------------dance-single - ----------------
#NOTES:
     dance-single:
     :
     Medium:
     11:
     0.527,0.478,0.424,0.207,0.074:
0000
0000
0000
0000
,
1001
0000
1000
0010
1000
0010
1000
0000
,
0110
0000
0100
0001
0100
0001
0100
0000
,
0011
0000
0100
0010
0100
0010
0100
0000
,
0011
0000
0100
0010
0100
0010
0100
0000
,
0110
0000
1000
0001
1000
0001
1000
0000
,
0110
0000
1000
0001
0100
0010
0100
0000
,
0110
0000
1000
0010
0100
0010
0001
0000
,
0110
0000
1000
0010
0100
0010
0001
0000
,
1001
0000
0100
0010
0100
0010
1000
0100
,
0000
0010
0110
0000
0000
0000
1000
0001
,
2000
0000
3010
0100
0010
0100
0010
0001
,
0000
0000
1001
0110
,
0011
0000
1000
0002
0000
0003
0100
0010
,
0100
0000
0010
2000
0000
3010
0100
0010
,
1000
0100
0010
0011
0000
0100
0001
0200
,
0000
0000
0310
1000
0000
0002
0000
0000
,
0103
0000
0010
0100
0000
0010
1000
0100
,
0000
0010
0110
0000
0000
0000
0001
1000
,
0020
0000
0130
2000
0000
3010
0100
0010
,
0000
0000
0110
0011
,
0110
0000
1000
0010
0000
0000
0100
0010
,
0200
0000
0310
2000
0000
3100
0010
0001
,
0100
0010
0100
0010
0001
0100
0010
0100
,
0000
0010
1000
0000
0010
0100
0000
1001
,
0000
0100
0000
0010
1000
0000
0100
0000
0010
0001
0100
0000
0000
0000
0001
1000
,
0000
0001
0100
0000
1000
0100
0010
0000
0000
0000
0000
0000
1000
0001
1000
0000
,
0000
0001
1000
0000
0100
0010
0100
0010
,
0000
1000
0100
0000
0010
0000
0001
0100
,
0002
0000
1003
0100
0000
0010
0100
0010
,
1000
0100
0010
0000
0001
0101
0000
1001
,
0000
0100
0000
0010
1000
0000
0100
0000
0010
0100
0010
0000
0000
0000
0000
1001
,
0000
0100
0010
0000
1000
0100
0010
0000
0000
0000
0000
1000
0100
0010
0001
0000
,
0000
0100
0010
0100
0000
1000
0100
0002
,
0000
1003
0100
0010
0000
0100
0010
0110
,
0000
1000
0001
1001
0000
0100
0010
0110
,
0000
1001
0000
0011
0000
0100
0001
0000
,
1001
0000
0100
0010
0100
0010
0100
0000
,
1000
0100
0010
0011
0000
0100
0001
0102
,
0000
0000
0000
0000
0000
1003
0010
0200
,
0000
0000
0310
1000
0000
0100
0010
0110
,
0000
1000
0010
0000
0100
0001
0100
0000
,
1000
0100
0010
0101
0000
0110
0000
0011
,
0000
1000
0010
0000
0100
1000
0100
0020
,
0000
1030
0100
0010
0000
0100
0001
0100
,
0000
0010
1000
0100
0010
0001
0100
0000
,
1000
0100
0010
0110
0000
0011
0000
0110
,
0000
1000
0100
0000
0010
0100
0010
2000
,
0000
3010
0100
0010
0000
1000
0100
0002
,
0000
0103
1000
0000
0010
0100
0010
0000
,
1000
0100
0010
0110
0000
0011
0000
0101
,
0000
1000
0100
0000
0010
1000
0100
0020
,
0000
1030
0100
0002
0000
0203
0000
2300
,
0000
3100
0010
0000
0100
0010
0100
0000
,
1000
0100
0000
0110
0000
0011
0000
2001
,
0000
0000
0000
0000
,
0000
0000
0000
0000
,
0000
3000
0000
0000
0000
0000
0000
0000
0000
0000
0000
0000
0000
0000
0000
0000
0000
0000
0000
0000
0000
0000
0000
0000
0000
0000
0000
0000
0000
0000
0000
0000
0000
0000
0000
0000
0000
0000
0000
0000
0000
0000
0000
0000
0000
0000
0000
0000
0000
0000
0000
0000
0000
0000
0000
0000
0000
0000
0000
0000
0000
0000
0000
0000
0000
0000
0000
0000
0000
0000
0000
0000
0000
0000
0000
0000
0000
0000
0000
0000
0000
0000
0000
0000
0000
0000
0000
0000
0000
0000
0000
0000
0000
0000
0000
0000
0000
0000
0000
0000
0000
0000
0000
0000
0000
0000
0000
0000
0000
0000
0000
0000
0000
0000
0000
0000
0000
0000
0000
0000
0000
0000
0000
0000
0000
0000
0000
0000
0000
0000
0000
0000
0000
0000
0000
0000
0000
0000
0000
0000
0000
0000
0000
0000
0000
0000
0000
0000
0000
0000
0000
0000
0000
0000
0000
0000
0000
0000
0000
0000
0000
0000
0000
0000
0000
0000
0000
0000
0000
0000
0000
0000
0000
0000
0000
0000
0000
0000
0000
0000
0000
0000
0000
0000
0000
0000
0000
0000
0000
0000
0000
0000
;

//---------------dance-single - ----------------
#NOTES:
     dance-single:
     :
     Easy:
     7:
     0.325,0.337,0.434,0.030,0.054:
0000
0000
0000
0000
,
1001
1000
0001
1000
,
0110
1000
0100
0010
,
0101
1000
0100
0010
,
0101
1000
0001
0100
,
1001
0100
0010
0010
,
1001
0100
0010
0001
,
1001
0100
0010
1000
,
0101
1000
0100
0010
,
1001
0100
0010
0001
,
1000
1001
0000
0001
,
1001
0100
0010
0100
,
0110
0000
0011
0110
,
1100
0100
0010
1000
,
0100
0010
0001
0100
,
0011
0000
0000
1001
0000
0000
0000
1010
,
0000
0100
0010
0100
,
1010
0100
0010
0001
,
0100
0110
0000
0001
,
1000
0100
0010
0001
,
0101
0000
1001
0100
,
1001
0100
0010
0001
,
1000
0100
0010
0100
,
1001
0000
0100
0000
0010
0000
0000
0100
,
0000
0000
0010
0000
0100
0000
0000
1001
,
0000
0000
0000
0100
0000
0000
0010
0000
0000
1000
0000
0100
0000
0000
0000
0010
,
0000
0000
0000
0100
0000
0000
0010
0000
0000
0000
0000
1000
0000
0000
0001
0000
,
0000
1000
0000
0010
,
0100
0010
0000
1000
,
1001
0000
0010
0000
,
0100
0000
0010
0000
1000
0000
0000
1001
,
0000
0000
0000
0100
0000
0000
0010
0000
0000
0000
0000
1000
0000
0000
0000
0001
,
0000
0000
0000
0001
0000
0000
0001
0000
0000
0000
0000
0100
0000
0000
1001
0000
,
0000
0000
0000
0100
0000
0010
0000
0100
,
0000
0000
0000
0010
0000
0000
0000
1001
,
0000
0000
0000
1001
0000
0000
0000
0110
,
0000
0000
0000
1001
0000
0000
0000
0000
,
0200
0000
0000
0000
,
0310
1000
0010
0100
,
0001
0000
1000
0010
,
0100
0010
1000
0100
,
0001
1000
0000
0000
,
0110
0000
0000
1001
0000
0000
0000
0110
,
0000
1000
0100
0010
,
0001
1000
0100
0010
,
0001
0100
0010
1000
,
1001
0000
0000
0110
0000
0000
0000
0011
,
0000
0100
0010
1000
,
0100
0001
0100
1000
,
0010
0100
0001
0100
,
0011
0000
0000
0110
0000
0000
0000
1100
,
0000
1000
0100
0010
,
1000
0010
0100
0001
,
1000
0100
0010
0100
,
1001
0000
0000
0110
0000
0000
0000
2002
,
0000
0000
0000
0000
,
0000
0000
0000
0000
,
0000
0000
3003
0000
0000
0000
0000
0000
0000
0000
0000
0000
0000
0000
0000
0000
0000
0000
0000
0000
0000
0000
0000
0000
0000
0000
0000
0000
0000
0000
0000
0000
0000
0000
0000
0000
0000
0000
0000
0000
0000
0000
0000
0000
0000
0000
0000
0000
0000
0000
0000
0000
0000
0000
0000
0000
0000
0000
0000
0000
0000
0000
0000
0000
0000
0000
0000
0000
0000
0000
0000
0000
0000
0000
0000
0000
0000
0000
0000
0000
0000
0000
0000
0000
0000
0000
0000
0000
0000
0000
0000
0000
0000
0000
0000
0000
0000
0000
0000
0000
0000
0000
0000
0000
0000
0000
0000
0000
0000
0000
0000
0000
0000
0000
0000
0000
0000
0000
0000
0000
0000
0000
0000
0000
0000
0000
0000
0000
0000
0000
0000
0000
0000
0000
0000
0000
0000
0000
0000
0000
0000
0000
0000
0000
0000
0000
0000
0000
0000
0000
0000
0000
0000
0000
0000
0000
0000
0000
0000
0000
0000
0000
0000
0000
0000
0000
0000
0000
0000
0000
0000
0000
0000
0000
0000
0000
0000
0000
0000
0000
0000
0000
0000
0000
0000
0000
0000
0000
0000
0000
0000
0000
;

//---------------dance-single - ----------------
#NOTES:
     dance-single:
     :
     Beginner:
     3:
     0.124,0.281,0.138,0.158,0.000: // measure 1
0000
0000
0000
0000
,  // measure 2
2002
0000
3003
0000
,  // measure 3
0220
0000
0330
0000
,  // measure 4
2002
0000
3003
0000
,  // measure 5
0220
0000
0330
0000
,  // measure 6
2000
0000
0000
0000
,  // measure 7
3000
0000
0000
0000
,  // measure 8
0002
0000
0000
0000
,  // measure 9
0003
0000
0000
0000
,  // measure 10
1000
0000
0100
0000
,  // measure 11
0100
0000
0000
0000
,  // measure 12
0001
0000
0100
0000
,  // measure 13
0100
0000
0010
0010
,  // measure 14
0010
0000
0000
1000
,  // measure 15
0100
0000
0000
0000
,  // measure 16
1001
0000
0000
0000
,  // measure 17
0000
0000
0000
0000
,  // measure 18
0110
0000
0000
0000
,  // measure 19
1000
0000
0000
0100
,  // measure 20
0100
0000
0000
0000
,  // measure 21
0001
0000
0010
0010
,  // measure 22
0010
0000
0000
1000
,  // measure 23
1000
0000
0000
0000
,  // measure 24
1001
0000
0000
0000
,  // measure 25
0000
0000
0000
0000
0000
0000
0000
2002
,  // measure 26
0000
0000
0000
0000
,  // measure 27
0000
0000
0000
0000
0000
0000
0000
3003
,  // measure 28
0000
0000
0000
0000
,  // measure 29
1000
1000
0000
0000
,  // measure 30
0010
0000
0000
0000
,  // measure 31
0001
0000
0001
0000
0000
0000
0000
2002
,  // measure 32
0000
0000
0000
0000
,  // measure 33
0000
0000
0000
0000
0000
0000
0000
3003
,  // measure 34
0000
0000
0000
0000
,  // measure 35
1000
0000
0000
0000
,  // measure 36
0100
0000
0000
0000
,  // measure 37
0010
0000
0000
0000
,  // measure 38
1001
0000
0000
0000
,  // measure 39
0100
0000
0000
0000
,  // measure 40
1000
0000
0000
0000
,  // measure 41
0010
0000
0000
0000
,  // measure 42
0001
0000
0000
0000
,  // measure 43
0110
0000
0000
0000
,  // measure 44
1000
0000
0000
0000
,  // measure 45
0001
0000
0000
0000
,  // measure 46
0001
0000
0000
0000
,  // measure 47
0100
0000
0000
0000
,  // measure 48
1000
0000
0000
0000
,  // measure 49
0001
0000
0000
0000
,  // measure 50
0010
0000
0000
0000
,  // measure 51
1001
0000
0000
0000
,  // measure 52
0100
0000
0000
0000
,  // measure 53
1000
0000
0000
0000
,  // measure 54
0001
0000
0000
0000
,  // measure 55
1001
0000
0000
0000
,  // measure 56
2002
0000
0000
0000
,  // measure 57
0000
0000
0000
0000
,  // measure 58
3003
0000
0000
0000
;
