#TITLE:ふわふわ時間;
#SUBTITLE:K-On! Insert Song;
#ARTIST:放課後ティータイム;
#TITLETRANSLIT:Fuwa Fuwa Time;
#SUBTITLETRANSLIT:;
#ARTISTTRANSLIT:Houkago Tea Time;
#GENRE:ANIMATION BEAT#1;
#CREDIT:;
#BANNER:Fuwa Fuwa Time.png;
#BACKGROUND:Fuwa Fuwa Time-bg.png;
#LYRICSPATH:;
#CDTITLE:cdtitle.png;
#MUSIC:Fuwa Fuwa Time.mp3;
#MENUCOLOR:0,0,1,1;
#METERTYPE:DDR X;
#OFFSET:-1.142;
#SAMPLESTART:42.583;
#SAMPLELENGTH:12.000;
#SELECTABLE:YES;
#BPMS:0.000=180.000;
#STOPS:;
#BGCHANGES:;

//---------------dance-single - ----------------
#NOTES:
     dance-single:
     :
     Hard:
     13:
     0.609,0.676,0.701,0.234,0.074: // measure 1
0000
0000
0000
0000
,  // measure 2
0000
0000
0000
0000
,  // measure 3
0000
0000
0000
0000
,  // measure 4
0000
0000
0000
0000
,  // measure 5
1001
0000
0110
0000
1000
0010
1010
0000
,  // measure 6
0101
0000
0110
0000
1000
0001
0101
0000
,  // measure 7
0110
0000
1001
0000
1000
0010
1010
0000
,  // measure 8
0101
0000
0110
0000
1000
0010
0110
0000
,  // measure 9
1001
0000
0100
0010
0100
0010
0100
0010
,  // measure 10
0000
1000
0100
0010
0001
0000
0100
0010
,  // measure 11
0100
0010
1000
0000
0100
0010
0100
0000
,  // measure 12
1000
0100
0010
0100
0001
0100
0010
0100
,  // measure 13
0110
0000
1000
0000
0010
0100
0010
0100
,  // measure 14
0010
0000
1000
0100
0010
0100
0001
0000
,  // measure 15
0100
0000
0010
0000
1000
0100
0010
0001
,  // measure 16
0000
0100
0010
0000
0100
0010
0100
0010
,  // measure 17
0002
1000
1000
1003
,  // measure 18
2001
0001
0001
3001
,  // measure 19
0120
0100
0100
0130
,  // measure 20
0210
0010
0010
0310
,  // measure 21
1000
0010
0002
0103
,  // measure 22
2000
3010
0200
0310
,  // measure 23
0020
0000
0130
0000
0001
1000
0010
0000
,  // measure 24
0100
0001
1001
0000
0100
0010
0110
0000
,  // measure 25
1001
0000
0110
0000
1000
0100
0010
0100
,  // measure 26
0010
0100
0010
0000
1000
0100
0001
2000
,  // measure 27
0010
0010
0010
3010
,  // measure 28
2002
0000
0000
3003
,  // measure 29
0110
0000
1001
0000
0100
0010
0100
0010
,  // measure 30
1001
0000
0110
0000
0100
0001
0100
0000
,  // measure 31
1001
0000
0000
0110
0000
0000
1001
0000
,  // measure 32
0000
0100
0010
0100
0010
0100
0110
0000
,  // measure 33
1010
0000
0110
0000
1000
0010
0110
0000
,  // measure 34
1010
0000
0001
1000
0000
0010
0100
1000
,  // measure 35
0020
0000
1000
0000
1000
0000
1000
0030
,  // measure 36
2000
0010
0010
3010
,  // measure 37
0101
0000
1000
0010
0100
0000
0010
0000
,  // measure 38
0100
0002
0100
0100
,  // measure 39
2003
0000
0010
0000
0010
0000
0010
3000
,  // measure 40
0001
0100
0001
0000
0100
0010
0100
0010
,  // measure 41
1010
0000
0101
0000
0100
0010
0100
0010
,  // measure 42
0100
0000
1000
0100
0010
0001
0100
0010
,  // measure 43
2000
0010
0010
3010
,  // measure 44
1001
0000
0110
0101
,  // measure 45
1010
0000
0100
0010
0100
0010
0100
0010
,  // measure 46
1002
0000
0000
0100
0000
0000
0100
0003
,  // measure 47
1010
0000
0110
0000
0100
0010
0110
0000
,  // measure 48
0110
0000
0000
0000
0110
0000
0000
0000
1000
0010
1000
0000
1000
0010
1000
0000
,  // measure 49
1010
0000
0000
0000
0100
0000
0000
0000
1000
0010
1000
0000
1000
0010
1000
0000
,  // measure 50
0110
0000
0000
0000
0100
0000
0000
0000
0001
0100
0001
0000
0001
0100
0001
0000
,  // measure 51
0110
0000
0000
0000
0010
0000
0000
0000
0001
0100
0001
0000
0001
0100
0001
0000
,  // measure 52
0110
0000
0000
0000
0010
0000
0000
0000
0001
0100
0001
0000
0001
0100
0001
0000
,  // measure 53
0110
0000
0000
0000
0010
0000
0000
0000
0001
1000
0001
0000
0001
1000
0001
0000
,  // measure 54
0110
0110
0000
0000
1001
1001
0000
0000
,  // measure 55
2002
0000
0000
0000
,  // measure 56
3003
0000
0000
0000
;

//---------------dance-single - ----------------
#NOTES:
     dance-single:
     :
     Beginner:
     3:
     0.179,0.270,0.074,0.074,0.000: // measure 1
0000
0000
0000
0000
,  // measure 2
0000
0000
0000
0000
,  // measure 3
0000
0000
0000
0000
,  // measure 4
0000
0000
0000
0000
,  // measure 5
1001
0000
0000
0000
,  // measure 6
0001
0001
0001
0000
,  // measure 7
1000
1000
1000
0000
,  // measure 8
0010
0010
0010
0000
,  // measure 9
1001
0000
0000
0000
,  // measure 10
0010
0000
0000
0000
,  // measure 11
0100
0100
0000
0000
,  // measure 12
0001
0000
1000
1000
,  // measure 13
1000
0000
0000
0000
,  // measure 14
0001
0000
0000
0000
,  // measure 15
0100
0100
0100
0100
,  // measure 16
0000
0000
0001
0001
,  // measure 17
0001
0000
0000
0000
,  // measure 18
0100
0100
0100
0000
,  // measure 19
1000
1000
1000
0000
,  // measure 20
0100
0100
0100
0000
,  // measure 21
0010
0010
0010
0000
,  // measure 22
0001
0000
0001
0000
,  // measure 23
2000
0000
0000
0000
,  // measure 24
3000
0000
0000
0000
,  // measure 25
1001
0000
0000
0000
,  // measure 26
0001
0000
0000
0000
,  // measure 27
0200
0000
0000
0000
,  // measure 28
0300
0000
0000
0000
,  // measure 29
1000
0000
1000
0000
,  // measure 30
0001
0000
0001
0000
,  // measure 31
1001
0000
0000
0000
,  // measure 32
0000
0000
0000
0000
,  // measure 33
1001
0000
0000
0000
,  // measure 34
1000
1000
0000
0000
,  // measure 35
0001
0001
0001
0001
,  // measure 36
0001
0000
1000
1000
,  // measure 37
1000
0000
0100
0000
,  // measure 38
0100
0100
0100
0000
,  // measure 39
0002
0000
0000
0000
,  // measure 40
0003
0000
1000
1000
,  // measure 41
1000
0000
0000
0010
,  // measure 42
0010
0000
0000
0001
,  // measure 43
0002
0000
0000
0000
,  // measure 44
0003
0000
1000
1000
,  // measure 45
1000
0000
0000
0000
,  // measure 46
0100
0000
0100
0000
,  // measure 47
0100
0000
0000
0000
,  // measure 48
0000
0000
0001
0001
,  // measure 49
0001
0000
0000
0000
,  // measure 50
0000
0000
1000
1000
,  // measure 51
1000
0000
0000
0000
,  // measure 52
0000
0000
1000
1000
,  // measure 53
1000
0000
0000
0000
,  // measure 54
1000
0000
0001
0000
,  // measure 55
0220
0000
0000
0000
,  // measure 56
0330
0000
0000
0000
;

//---------------dance-single - ----------------
#NOTES:
     dance-single:
     :
     Easy:
     6:
     0.300,0.406,0.172,0.123,0.000: // measure 1
0000
0000
0000
0000
,  // measure 2
0000
0000
0000
0000
,  // measure 3
0000
0000
0000
0000
,  // measure 4
0000
0000
0000
0000
,  // measure 5
1001
0000
0001
0001
,  // measure 6
0001
0000
1000
1000
,  // measure 7
1000
0000
0010
0010
,  // measure 8
0010
0000
0100
0000
,  // measure 9
1001
0000
0000
0000
,  // measure 10
0001
0000
1000
0000
,  // measure 11
0001
1000
0000
0000
,  // measure 12
0010
0000
0100
0000
,  // measure 13
1001
0000
0000
0000
,  // measure 14
0001
1000
0001
0100
,  // measure 15
0020
0000
0000
0000
,  // measure 16
1030
0000
1000
0001
,  // measure 17
1000
0010
0000
0100
,  // measure 18
0010
0001
0000
0001
,  // measure 19
1000
0001
0100
0000
,  // measure 20
0010
1000
0100
0000
,  // measure 21
0010
1000
0001
0000
,  // measure 22
1000
1000
0100
0100
,  // measure 23
0010
0010
0001
0001
,  // measure 24
1000
0000
0001
1000
,  // measure 25
0001
0000
0100
0010
,  // measure 26
0001
0000
0001
0100
,  // measure 27
2000
0000
0000
0000
,  // measure 28
3002
0000
0000
1003
,  // measure 29
0010
0100
0010
1000
,  // measure 30
0100
0010
0001
1000
,  // measure 31
0001
0000
1001
1001
,  // measure 32
0000
0000
1000
0001
,  // measure 33
1000
0100
0010
0001
,  // measure 34
1000
0001
0000
0100
,  // measure 35
0020
0000
0000
1030
,  // measure 36
0001
0000
0100
0010
,  // measure 37
0002
0000
2003
0000
,  // measure 38
3100
0010
0001
1000
,  // measure 39
0002
0000
0000
0103
,  // measure 40
0010
0000
1000
0100
,  // measure 41
0010
0001
0001
1000
,  // measure 42
0010
0100
0010
1000
,  // measure 43
0200
0000
0000
0000
,  // measure 44
0301
0000
1000
0100
,  // measure 45
0010
1000
0100
0010
,  // measure 46
1001
0000
0100
0000
,  // measure 47
1001
0100
0010
0001
,  // measure 48
1000
0010
0001
0001
,  // measure 49
1001
0100
0010
0010
,  // measure 50
0110
0100
0100
0100
,  // measure 51
1100
0100
0100
0100
,  // measure 52
1001
0100
0100
0100
,  // measure 53
0001
0100
0010
0100
,  // measure 54
1001
0000
0110
0000
,  // measure 55
2002
0000
0000
0000
,  // measure 56
0000
3003
0000
0000
0000
0000
0000
0000
0000
0000
0000
0000
0000
0000
0000
0000
0000
0000
0000
0000
0000
0000
0000
0000
0000
0000
0000
0000
0000
0000
0000
0000
0000
0000
0000
0000
0000
0000
0000
0000
0000
0000
0000
0000
0000
0000
0000
0000
0000
0000
0000
0000
0000
0000
0000
0000
0000
0000
0000
0000
0000
0000
0000
0000
0000
0000
0000
0000
0000
0000
0000
0000
0000
0000
0000
0000
0000
0000
0000
0000
0000
0000
0000
0000
0000
0000
0000
0000
0000
0000
0000
0000
0000
0000
0000
0000
0000
0000
0000
0000
0000
0000
0000
0000
0000
0000
0000
0000
0000
0000
0000
0000
0000
0000
0000
0000
0000
0000
0000
0000
0000
0000
0000
0000
0000
0000
0000
0000
0000
0000
0000
0000
0000
0000
0000
0000
0000
0000
0000
0000
0000
0000
0000
0000
0000
0000
0000
0000
0000
0000
0000
0000
0000
0000
0000
0000
0000
0000
0000
0000
0000
0000
0000
0000
0000
0000
0000
0000
0000
0000
0000
0000
0000
0000
0000
0000
0000
0000
0000
0000
0000
0000
0000
0000
0000
0000
0000
0000
0000
0000
0000
0000
;

//---------------dance-single - ----------------
#NOTES:
     dance-single:
     :
     Medium:
     10:
     0.439,0.608,0.442,0.123,0.000: // measure 1
0000
0000
0000
0000
,  // measure 2
0000
0000
0000
0000
,  // measure 3
0000
0000
0000
0000
,  // measure 4
0000
0000
0000
0000
,  // measure 5
1001
1000
0001
1000
,  // measure 6
0001
1000
0001
1000
,  // measure 7
0001
1000
0001
1000
,  // measure 8
0001
1000
0010
0100
,  // measure 9
0110
0000
1000
0000
0001
1000
0001
1000
,  // measure 10
0000
0010
0100
0000
0010
0000
0100
0000
,  // measure 11
0010
0100
0010
0000
1000
0000
0100
0000
,  // measure 12
0010
0001
0100
0010
,  // measure 13
0101
0000
1000
0001
1000
0001
1000
0000
,  // measure 14
0100
0010
0100
0010
0100
0000
0010
0000
,  // measure 15
2000
0000
0000
0000
3001
0000
0100
0001
,  // measure 16
0000
0000
0000
1000
0000
0010
0100
0010
,  // measure 17
0100
0000
0010
0000
1000
0001
1000
0000
,  // measure 18
0001
0000
0100
0000
0010
0100
0010
0100
,  // measure 19
0010
0000
1000
0000
0100
0000
0001
0100
,  // measure 20
0001
0000
1000
0000
0100
0010
0100
0010
,  // measure 21
1000
0000
0100
0001
0000
0000
0100
0000
,  // measure 22
0010
1000
0100
0010
,  // measure 23
1000
0000
0001
0100
0000
0010
0001
0000
,  // measure 24
1000
0100
0001
1000
,  // measure 25
0001
0000
1000
0000
0100
0001
0100
0000
,  // measure 26
0010
0000
1000
0000
0010
0000
0100
0010
,  // measure 27
0200
0000
0000
0000
,  // measure 28
0302
0000
0000
1003
,  // measure 29
1001
0000
0100
0010
0000
0100
0010
0000
,  // measure 30
1000
0000
0100
0010
0000
0100
0001
0000
,  // measure 31
1001
0000
0000
1001
0000
0000
1001
0000
,  // measure 32
0000
1000
0000
0000
0010
0000
0100
0000
,  // measure 33
0110
0000
1000
0010
0000
0100
0010
0000
,  // measure 34
0100
0000
0010
0001
0000
0000
0100
0010
,  // measure 35
0200
0000
0000
0310
0000
0000
1000
0000
,  // measure 36
0100
0000
0010
0100
,  // measure 37
0002
0000
0000
0003
2000
0000
0000
3000
,  // measure 38
0001
1000
0001
1000
,  // measure 39
0020
0000
0000
0130
,  // measure 40
0001
1000
0001
0000
1000
0000
0010
0000
,  // measure 41
0110
0000
1000
0010
0000
0000
0100
0000
,  // measure 42
0010
0000
0100
0001
0000
0000
1000
0001
,  // measure 43
2000
0000
0000
0000
,  // measure 44
3001
0000
0001
0100
,  // measure 45
0110
0100
0010
0100
,  // measure 46
1001
0000
0110
0000
,  // measure 47
1001
1001
1001
1001
,  // measure 48
1001
1001
0110
0110
,  // measure 49
0110
0001
1001
1001
,  // measure 50
1001
0100
0110
0110
,  // measure 51
0110
0100
1100
1100
,  // measure 52
1100
0100
0110
0110
,  // measure 53
0110
0010
0011
0011
,  // measure 54
1000
0001
0000
0000
1000
0001
0000
0000
,  // measure 55
2002
0000
0000
0000
,  // measure 56
3003
0000
0000
0000
;
