#TITLE:F.D.D. [2G-Special];
#SUBTITLE:カオスヘッド OP;
#ARTIST:いとう かなこ;
#TITLETRANSLIT:;
#SUBTITLETRANSLIT:ChäoS HEAd OP;
#ARTISTTRANSLIT:Kanako Itou;
#GENRE:2ND GENERATION SPECIAL;
#CREDIT:;
#BANNER:F.D.D. [2G-Special].png;
#BACKGROUND:F.D.D. [2G-Special]-bg.png;
#LYRICSPATH:;
#CDTITLE:cdtitle.png;
#MUSIC:F.D.D. [2G-Special].mp3;
#MENUCOLOR:1,1,1,1;
#METERTYPE:DDR X;
#OFFSET:1.265;
#SAMPLESTART:49.645;
#SAMPLELENGTH:12.000;
#SELECTABLE:YES;
#BPMS:0.000=165.000;
#STOPS:;
#BGCHANGES:3.000=F.D.D. [2G-Special].avi=1.000=0=0=1,
243.500=F.D.D. [2G-Special]-bg.png=1.000=0=0=1,
99999=-nosongbg-=1.000=0=0=0 // don't automatically add -songbackground-
;

//---------------dance-single - ----------------
#NOTES:
     dance-single:
     :
     Hard:
     14:
     0.592,0.637,0.176,0.242,0.083: // measure 1
0000
0000
0000
0000
,  // measure 2
0000
0000
0000
0000
,  // measure 3
0110
0000
0100
0001
0100
0100
0000
0010
,  // measure 4
1000
0100
0010
0010
0100
0001
0000
0100
,  // measure 5
1000
0100
0010
0100
0001
0100
0000
0010
,  // measure 6
0100
1000
0100
0001
0010
1000
1000
0001
,  // measure 7
1000
0010
0100
0000
0010
0100
0010
0000
,  // measure 8
1000
0100
0010
0100
0001
0100
0000
0010
,  // measure 9
1000
0100
0010
0100
0001
0100
0000
0010
,  // measure 10
1000
0100
0010
0100
0001
0100
0010
0000
,  // measure 11
2002
0000
0000
3003
,  // measure 12
0110
0000
1000
0100
0001
0000
0100
1000
,  // measure 13
0000
0010
0100
1000
0100
0001
0100
0010
,  // measure 14
0000
0000
0100
1000
0000
0001
0000
0100
,  // measure 15
1000
0010
0000
0100
0000
0101
0000
0000
,  // measure 16
0110
0000
1000
0100
0000
0001
0100
0010
,  // measure 17
0000
1000
0100
0010
0000
0001
0100
0010
,  // measure 18
0000
0000
1000
0100
0000
0010
0000
0001
,  // measure 19
0100
0010
0100
0010
0100
0101
0000
0000
,  // measure 20
0100
0010
2000
0010
0000
0010
0000
0010
,  // measure 21
0000
0001
0000
0001
0000
0010
0000
3001
,  // measure 22
0010
0100
0010
0200
0000
0010
0000
0001
,  // measure 23
0000
0010
0000
0000
1000
1300
0000
0010
,  // measure 24
0110
0000
0001
0000
0100
0010
0100
1000
,  // measure 25
0001
0000
0100
0000
0010
0100
0010
1000
,  // measure 26
0002
0000
0100
0000
0100
0000
0100
0003
,  // measure 27
0200
0000
0010
0000
0010
0000
0010
0300
,  // measure 28
1000
0100
0020
0001
0000
0100
0000
0001
,  // measure 29
0000
1000
0000
0100
0000
0001
0001
0000
,  // measure 30
0031
0010
0200
1000
0000
0010
0000
0001
,  // measure 31
0000
0010
0000
1000
0000
1000
0000
0300
,  // measure 32
0010
1000
0100
0010
0100
0010
0200
0000
,  // measure 33
0310
1000
0100
0001
0100
0010
1000
0100
,  // measure 34
0002
0000
0100
0000
1000
0000
0100
0003
,  // measure 35
2002
0000
0000
3003
,  // measure 36
0110
1000
0100
0010
0100
0001
0100
0010
,  // measure 37
0100
0010
1000
0101
0000
1000
0100
0010
,  // measure 38
0110
0000
1000
0100
0010
0100
0001
0100
,  // measure 39
0020
0000
1000
0000
0100
0000
0031
1000
,  // measure 40
0100
0000
0020
0001
0000
0031
0010
0000
0100
0000
0200
1000
0000
1300
0100
0000
,  // measure 41
0001
0000
0002
1000
0000
1003
0001
0000
1000
0000
0000
0000
0110
0000
0000
0000
,  // measure 42
1000
0100
0010
0001
0100
0010
0000
1000
,  // measure 43
0100
0010
0001
0100
0010
1000
0100
0010
,  // measure 44
0001
0000
0000
0010
0000
0000
0001
0000
0100
0000
0000
0010
0000
0000
1000
0000
,  // measure 45
0100
0000
0000
0010
0000
0000
0001
0000
0000
0000
1000
0000
0100
0000
0010
0000
,  // measure 46
0001
0000
1000
0100
0001
0100
0010
1000
,  // measure 47
0200
0000
0010
0000
0001
0000
0010
0301
,  // measure 48
1000
0000
0200
0010
0000
0310
0100
0000
0010
0000
0002
1000
0000
1003
0001
0000
,  // measure 49
0100
0000
0020
0001
0000
0031
0010
0000
0100
0000
0000
0000
1000
0000
0100
0000
,  // measure 50
0010
0000
0000
0001
0100
0010
1000
0010
,  // measure 51
0100
0000
1000
0100
0010
0100
0001
0100
,  // measure 52
2000
0000
0000
0100
0100
0000
0000
0001
,  // measure 53
0000
0010
0010
0010
,  // measure 54
3002
0000
0000
0100
0100
0000
0000
0000
,  // measure 55
1000
1000
0000
1000
0000
1000
1000
0003
,  // measure 56
1001
0100
0010
0101
,  // measure 57
1000
0110
1000
0101
,  // measure 58
1000
0000
0100
0000
0000
1000
0000
0100
,  // measure 59
0000
0010
0100
0010
1000
0100
0000
0000
,  // measure 60
1000
0100
0001
0100
0010
0100
0000
0000
,  // measure 61
1000
0100
0001
0100
1000
0010
0100
0100
;

//---------------dance-single - ----------------
#NOTES:
     dance-single:
     :
     Medium:
     11:
     0.434,0.436,0.132,0.132,0.044:
0000
0000
0000
0000
,
0000
0000
0000
0000
,
1001
0000
0100
0010
0100
0000
0001
0000
,
0001
0000
1000
0001
1000
0000
0001
0000
,
0001
0000
0100
0010
0100
0000
0010
0000
,
0010
0000
1000
0001
1000
0001
1000
0000
,
0010
0000
0010
0000
0100
0001
0100
0000
,
0010
0000
0010
0000
1000
0001
1000
0000
,
0010
0000
0010
0000
0100
0010
0100
0000
,
0001
0000
0001
0000
1000
0001
1000
0000
,
2002
0000
0000
0000
,
3003
0000
0100
0000
0010
0000
1000
0001
,
1000
0000
0010
0000
0010
0000
0100
0001
,
0100
0010
1000
0001
,
1000
0100
0010
0000
,
1001
0000
0100
0000
0010
0000
1000
0001
,
1000
0000
0010
0000
0100
0000
0001
1000
,
0001
0000
0100
0000
0001
0000
0100
0010
,
0100
0000
1000
0000
0001
1000
0000
0000
,
0010
0100
0001
1000
,
0002
0000
1000
1003
,
0100
0010
0001
1000
,
2000
0000
0001
3001
,
0100
0000
0010
0000
1000
0001
1000
0000
,
0010
0000
0100
0000
0010
0100
0010
0000
,
1000
0000
0001
0000
0001
1000
0001
0000
,
0100
0000
0010
0000
0100
0010
0100
0000
,
1000
0100
0010
0000
0001
0000
0100
0000
,
0001
0010
0100
0000
0010
0000
1000
0000
,
1000
0100
0001
0000
0001
0000
0100
0000
,
0001
0100
1000
0000
1000
0000
0010
0000
,
1000
0010
0001
0000
0001
0010
1000
0000
,
0001
0000
0100
0000
0001
1000
0001
0000
,
0100
0000
0010
0000
1000
0010
0001
0000
,
2002
0000
3003
0000
,
1001
0100
0010
1000
,
0100
0010
0001
0000
1000
0000
0010
0000
,
0002
1003
0100
0010
,
2000
0000
0001
3001
,
0100
0000
0000
0010
0000
0000
0100
0000
0010
0000
0000
1000
0000
0000
0100
0000
,
0010
0000
0000
0100
0000
0000
1000
0000
0001
0000
0000
0000
0110
0000
0000
0000
,
0001
0100
1000
0010
,
0001
0000
1000
0000
0001
1000
0001
0000
,
1001
0000
0000
0100
0000
0000
0010
0000
0001
0000
0000
0100
0000
0000
1000
0000
,
0001
0000
0000
1000
0000
0000
0001
0000
0000
0000
0010
0000
0100
0000
0000
0000
,
0010
0100
0010
1000
,
0002
0000
0100
0103
,
1000
0000
0000
0001
0000
0000
1000
0000
0020
0000
0000
0000
1030
0000
0000
0000
,
0100
0000
0000
0001
0000
0000
1000
0000
0020
0000
0000
0000
0031
0000
0000
0000
,
1000
0100
0001
0100
,
1001
0000
0000
0000
0100
0010
0100
0010
,
0200
0000
1000
0000
,
0010
0000
0001
0000
,
0010
0000
1000
0000
,
0301
0000
0000
0000
,
1001
0100
0010
0001
,
0100
0010
1000
0100
,
1001
0000
0110
0000
,
1001
0100
0010
0100
,
1000
0100
0010
0001
,
0100
0000
0010
0000
1000
0001
1000
0001
;

//---------------dance-single - ----------------
#NOTES:
     dance-single:
     :
     Easy:
     6:
     0.294,0.335,0.055,0.231,0.000:
0000
0000
0000
0000
,
0000
0000
0000
0000
,
1001
0000
0100
0100
,
0100
0000
0010
0010
,
0010
0000
0001
0001
,
0001
0000
1000
0000
,
1001
0100
0100
0100
,
0000
0010
0010
0010
,
0000
0001
0001
0001
,
0000
1000
1000
1000
,
2002
0000
0000
0000
,
3003
0100
0010
0100
,
0010
0000
1000
0001
,
1000
0000
0010
0100
,
0001
1000
0100
0001
,
1000
0000
0100
0100
,
0100
0000
0010
1000
,
0010
0000
0100
0010
,
1000
0100
0001
0100
,
2000
0000
0000
0000
,
0001
0000
0000
0000
,
3002
0000
0000
0000
,
1000
0000
0000
0000
,
1003
0000
0100
0000
,
0010
0000
0001
0000
,
0100
0000
1000
0000
,
0010
0000
0100
0000
,
0020
0000
0000
0000
,
0100
0000
0000
0000
,
0230
0000
0000
0000
,
0010
0000
0000
0000
,
0301
1000
0001
0000
,
0100
0010
0100
0010
,
2000
0000
0000
0000
,
0002
0000
0000
0000
,
3003
0100
0010
0100
,
0010
1000
0100
0001
,
2000
3001
0100
0010
,
0200
0000
0000
0000
,
0310
1000
0100
0010
,
0001
1000
0001
0000
,
1000
0100
0010
0100
,
0010
1000
0001
0100
,
0110
1000
0100
0010
,
0001
1000
0001
0100
,
0020
0130
1000
0100
,
0002
0000
0000
0000
,
1003
0100
0010
0001
,
0100
0010
1000
0001
,
0200
0000
0310
1000
,
0020
0000
0130
1000
,
0002
0000
1003
0010
,
0200
0000
0310
1000
,
0002
0000
1003
0010
,
0200
0000
0301
1000
,
0002
0000
0103
0010
,
2000
0000
3100
0001
,
2000
0000
3001
0000
,
0100
0010
0100
0010
,
1000
0100
0010
1000
,
0001
0000
1000
0000
0000
0000
0000
1001
;

//---------------dance-single - ----------------
#NOTES:
     dance-single:
     :
     Beginner:
     4:
     0.165,0.231,0.121,0.066,0.000:
0000
0000
0000
0000
,
0000
0000
0000
0000
,
0000
0000
1000
1000
,
1000
0000
0001
0001
,
0001
0000
0100
0100
,
0100
0000
0010
0010
,
0010
0000
1000
1000
,
1000
0000
0001
0001
,
0001
0000
0100
0100
,
0100
0000
0010
0010
,
0010
0000
0000
0000
,
1001
0000
0100
0000
,
0100
0000
0010
0000
,
0010
0000
1000
0000
,
0100
0000
0001
0000
,
0010
0000
1000
0000
,
1000
0000
0100
0000
,
0001
0000
0001
0000
,
1000
0000
1000
0000
,
1001
0000
0000
0000
,
0010
0000
0010
0000
,
1001
0000
0000
0000
,
0100
0000
0100
0000
,
0010
0000
0100
0000
,
0010
0000
0000
0000
,
1000
0000
0001
0000
,
1000
0000
0000
0000
,
1001
0000
0000
0000
,
0110
0000
0000
0000
,
1001
0000
0000
0000
,
0110
0000
0000
0000
,
1000
0000
0000
0000
,
0001
0000
0000
0000
,
0001
0000
0000
0000
,
2002
0000
0000
0000
,
3003
0000
0100
0000
,
0100
0000
0000
0000
,
0001
0000
0001
0000
,
0002
0000
0000
0000
,
0003
0000
1000
0000
,
1000
0000
0000
0000
,
0100
0000
0100
0000
,
0010
0000
0000
0000
,
0001
0000
0001
0000
,
0010
0000
0000
0000
,
1000
0000
1000
0000
,
0100
0000
0000
0000
,
0001
0000
0010
0000
,
0100
0000
1000
0000
,
0001
0000
0000
0000
,
1000
0000
0000
0000
,
2000
0000
0000
0000
,
3000
0000
0000
0000
,
0020
0000
0000
0000
,
0030
0000
0000
0000
,
1001
0000
0000
0000
,
1001
0000
0000
0000
,
0110
0000
0000
0000
,
2000
0000
0000
0000
,
0000
0000
0000
0000
,
3000
0000
0000
0000
;
