#TITLE:F.D.D. (S.A.D.R. Remix);
#SUBTITLE:[Remix] カオスヘッド OP;
#ARTIST:Remixed by 8#Prince feat. いとう かなこ;
#TITLETRANSLIT:;
#SUBTITLETRANSLIT:[Remix] ChäoS HEAd OP;
#ARTISTTRANSLIT:Remixed by 8#Prince feat. Kanako Itou;
#GENRE:ANIME REMIX;
#CREDIT:;
#BANNER:F.D.D. (S.A.D.R. Remix).png;
#BACKGROUND:F.D.D. (S.A.D.R. Remix)-bg.png;
#LYRICSPATH:;
#CDTITLE:cdtitle.png;
#MUSIC:F.D.D. (S.A.D.R. Remix).mp3;
#MENUCOLOR:0,0,1,1;
#METERTYPE:DDR X;
#OFFSET:-0.029;
#SAMPLESTART:61.032;
#SAMPLELENGTH:12.000;
#SELECTABLE:YES;
#BPMS:0.000=165.000,33.000=330.000,34.000=165.000,35.000=330.000,36.000=165.000,37.000=330.000,38.000=165.000,39.000=330.000,40.000=165.000;
#STOPS:33.000=0.045
,33.250=0.045
,33.500=0.045
,33.750=0.045
,35.000=0.045
,35.250=0.045
,35.500=0.045
,35.750=0.045
,37.000=0.045
,37.250=0.045
,37.500=0.045
,37.750=0.045
,39.000=0.182
;
#DISPLAYBPM:165;
#BGCHANGES:;

//---------------dance-single - ----------------
#NOTES:
     dance-single:
     :
     Beginner:
     2:
     0.112,0.193,0.188,0.075,0.000:
0000
0000
0000
0000
,
0000
0000
0000
0000
,
0000
0000
0000
0000
,
0000
0000
0000
0000
,
0000
0000
0000
0000
,
0000
0000
0000
0000
,
0000
0000
0000
0000
,
1001
0000
0000
0000
,
0110
0000
0000
0000
,
1001
0000
0000
0000
,
1001
0000
0000
0000
,
0010
0000
0000
0000
,
0010
0000
0000
0000
,
1000
0000
0000
0000
,
0001
0000
0000
0000
,
0001
0000
0000
0000
,
1000
0000
0000
0000
,
2000
0000
0000
0000
,
3000
0000
0000
0000
,
0001
0000
0000
0000
,
0100
0000
0000
0000
,
1001
0000
0000
0000
,
0110
0000
0000
0000
,
0001
0000
0000
0000
,
1000
0000
0000
0000
,
1001
0000
0000
0000
,
1001
0000
0000
0000
,
0010
0000
0000
0000
,
0100
0000
0000
0000
,
1000
0000
0000
0000
,
0001
0000
0000
0000
,
0010
0000
0000
0000
,
0100
0000
0000
0000
,
2002
0000
0000
0000
,
3003
0000
0000
0000
,
1000
0000
0000
0000
,
1000
0000
0000
0000
,
0001
0000
0000
0000
,
0001
0000
0000
0000
,
0100
0000
0000
0000
,
0020
0000
0000
0000
,
0030
0000
0000
0000
,
1001
0000
0000
0000
,
1000
0000
0000
0000
,
0001
0000
0000
0000
,
2000
0000
0000
0000
,
3000
0000
0000
0000
,
0001
0000
0000
0000
,
1000
0000
0000
0000
,
0110
0000
0000
0000
,
1001
0000
0000
0000
,
0001
0000
0000
0000
,
0100
0000
0000
0000
,
0002
0000
0000
0000
,
0003
0000
0000
0000
,
1000
0000
0000
0000
,
0010
0000
0000
0000
,
0110
0000
0000
0000
,
1001
0000
0000
0000
,
1000
0000
0000
0000
,
0010
0000
0000
0000
,
1001
0000
0000
0000
,
0110
0000
0000
0000
,
0110
0000
0000
0000
,
1001
0000
1001
0000
,
2002
0000
0000
0000
,
0000
0000
0000
0000
,
0000
0000
0000
0000
,
0000
0000
3003
0000
;

//---------------dance-single - ----------------
#NOTES:
     dance-single:
     :
     Easy:
     5:
     0.216,0.322,0.132,0.169,0.000:
0000
0000
0000
0000
,
0000
0000
0000
0000
,
0000
0000
0000
0000
,
0000
0000
0000
0000
,
0000
0000
0000
0000
,
0000
0000
0000
0000
,
0000
0000
0000
0000
,
2002
0000
0000
3003
,
1001
0000
1001
0000
,
1001
0000
1001
0000
,
0110
0000
1000
0000
,
0100
0000
0001
0001
,
1000
0000
0010
0000
,
1000
0001
1000
0010
,
0100
0000
0001
0000
,
1000
0000
0010
0000
,
1000
0000
0010
1000
,
0002
0000
0000
0000
,
1003
0100
0000
0010
,
0000
0001
1000
0100
,
0000
0001
0000
1000
,
0001
1000
0000
0001
0000
1000
0001
0000
,
1000
0000
0001
0000
,
1000
0000
0010
0000
,
0001
0000
1000
0000
,
0010
0100
0000
0010
0000
0100
0010
0000
,
2000
0000
0001
0000
,
3002
0000
1000
0000
,
0203
0000
0010
0000
,
0320
0000
0100
0000
,
2030
0000
0000
0000
,
3002
0000
0000
0000
,
2003
0000
0000
0000
,
0002
0000
0000
3003
,
0110
0000
0010
0000
,
1000
1000
1000
0000
,
0010
0000
0100
0000
,
0001
0001
0001
0000
,
1000
0000
0001
0000
,
0100
0000
0010
0000
,
1000
0000
1000
0000
,
1001
0000
0000
1001
,
1001
0000
0000
0000
,
0010
0000
0000
0000
,
1000
0001
1000
0001
,
2000
0000
0000
0000
,
3001
0000
0001
0000
,
1000
0000
0001
0000
,
0100
0010
0100
0000
,
0001
1000
0001
0000
,
1000
0000
0001
0000
,
0100
0001
0000
1000
,
0001
0000
1000
0001
,
2000
0000
0000
0000
,
3010
0100
0010
0000
,
1000
0001
1000
0000
,
0001
0000
1000
0000
,
0010
0000
0000
1000
0000
0000
0000
0000
,
0002
0000
0000
0000
,
0203
0000
0000
0000
,
0320
0000
0000
0000
,
1030
0000
0000
0001
0000
0000
1000
0000
,
0001
0000
0001
0000
,
1000
0000
0001
0000
,
1001
0000
1001
0000
,
0110
0000
0000
0010
,
2002
0000
0000
0000
,
0000
0000
0000
0000
,
0000
0000
3003
0000
;

//---------------dance-single - ----------------
#NOTES:
     dance-single:
     :
     Medium:
     9:
     0.405,0.516,0.113,0.216,0.042:
0000
0000
0000
0000
,
0000
0000
0000
0000
,
0000
0000
0000
0000
,
0000
0000
0000
0000
,
0000
0000
0000
0000
,
0000
0000
0000
0000
,
0000
0000
0000
0000
,
2002
0000
0000
3003
,
0110
0000
1000
0001
1000
0000
0001
1000
,
0001
0000
1000
0001
1000
0000
0001
0000
,
1001
0100
0010
0000
,
0001
1000
0100
0010
,
0001
1000
0100
0010
,
0002
1000
1000
1000
,
2003
0001
0000
0001
,
3002
1000
0000
1000
,
1003
0001
1000
0010
,
0220
0000
0000
0330
,
1001
0000
1000
0001
0000
1000
0001
1000
,
0000
0000
0010
0100
0000
0000
0010
0100
,
0000
0000
1000
0001
0000
1000
0000
0000
,
0001
1000
0000
0001
0000
1000
0000
0000
,
0000
0000
0010
0100
0000
0000
1000
0001
,
0000
1000
0001
1000
0000
0000
0001
0100
,
0000
0000
1000
0010
0000
1000
0000
0100
,
0010
0100
0000
0010
0000
0100
0000
0000
,
0001
1000
0001
2000
0000
0000
3001
1000
,
0000
0010
0000
0100
0000
0010
0000
0000
,
0001
0100
0001
0200
0000
0000
0310
1000
,
0000
0100
0010
0100
0010
0100
0000
0001
,
1000
0000
0001
0000
0100
0001
0000
1000
,
0100
0010
0001
1000
,
0002
0000
0000
0000
0000
1003
0000
0001
,
1000
0000
0000
0001
0000
1000
0001
0000
,
1000
0010
0100
0010
0000
0100
0010
0100
,
0000
0001
1000
0002
0000
0103
0010
0000
,
1000
0010
0100
0010
0000
0100
0010
0001
,
0000
0100
0010
0100
0010
0001
0000
0000
,
0100
0001
0100
0001
0010
0001
0200
0000
,
0310
0100
0001
1000
0100
0001
0200
0020
,
0000
0000
0000
0330
,
1000
0001
0000
0100
0000
0010
0100
0000
,
1001
0100
0010
0001
,
1000
0001
0000
1000
0000
0010
0100
0010
,
0100
0000
1000
0010
0000
1000
0001
1000
,
0002
0000
1000
1000
,
1003
0000
0000
0010
0000
0000
0100
0000
0010
0000
0000
0100
0000
0000
0010
0000
,
0100
0000
0000
1000
0000
0000
0001
0000
1000
0000
0000
0000
0000
0000
0000
0000
,
0100
0010
0100
0010
0100
0010
0000
0001
,
1000
0001
0000
0100
0000
0001
0100
0000
,
0010
0000
0000
1000
0000
0000
0010
0000
0100
0000
0000
0010
0000
0000
1000
0000
,
0001
0000
0000
0100
0000
0000
0010
0000
0000
0000
1000
0000
0001
0000
1000
0000
,
0001
0000
0100
0010
0000
0100
0000
0010
,
2000
0000
0001
0000
,
3001
0000
0000
0100
0000
0000
0001
0000
0100
0000
0000
0010
0000
0000
1000
0000
,
0010
0000
0000
0100
0000
0000
0010
0000
0100
0000
0000
0000
0010
0000
1000
0000
,
0010
0000
0000
0100
0001
0100
0001
0100
,
0001
1000
0000
0001
0000
1000
0001
1000
,
0002
1000
0000
1000
,
2003
0010
0000
0000
,
3020
0100
0000
0100
,
1030
0001
0000
1000
0000
0010
0100
0000
,
0010
0000
1000
0010
0000
1000
0010
0000
,
0100
0000
0001
0100
0000
0001
0010
0000
,
1100
0110
0011
0101
,
2002
0000
0000
3003
,
0220
0000
0000
0000
,
0000
0000
0000
0000
,
0000
0000
0330
0000
;

//---------------dance-single - ----------------
#NOTES:
     dance-single:
     :
     Hard:
     14:
     0.592,0.677,0.442,0.245,0.099: // measure 1
0000
0000
0000
0000
,  // measure 2
0000
0000
0000
0000
,  // measure 3
0000
0000
0000
0000
,  // measure 4
0000
0000
0000
0000
,  // measure 5
0000
0000
0000
0000
,  // measure 6
0000
0000
0000
0000
,  // measure 7
0000
0000
0000
0000
,  // measure 8
0020
0200
0000
0000
0000
0000
0330
0000
,  // measure 9
1001
0000
0000
0000
0010
0100
0010
0100
0010
0000
0000
0000
0100
0010
0100
0010
,  // measure 10
0100
0000
0000
0000
1000
0001
1000
0001
1000
0000
0000
0000
2001
0000
0000
0000
,  // measure 11
3001
0000
0100
0010
0100
0010
0000
1000
,  // measure 12
0100
0010
0001
0100
0010
0100
0010
0000
,  // measure 13
1000
0100
0001
0100
0010
0100
0001
0000
,  // measure 14
0100
1000
0100
0010
0100
0010
0100
0000
,  // measure 15
1000
0100
0010
0100
0001
1000
0000
0001
,  // measure 16
0100
0010
1000
0100
0010
0100
0001
0000
,  // measure 17
0100
1000
0100
0010
0100
0001
1000
0010
,  // measure 18
2002
0000
0000
3003
,  // measure 19
0110
0000
0100
0010
0100
0000
0001
0100
,  // measure 20
1000
0000
1000
0100
0010
0001
0100
0010
,  // measure 21
0000
0000
1000
0100
0000
0010
0000
0100
,  // measure 22
0001
1001
0000
0110
0000
1001
0000
0000
,  // measure 23
0110
0000
1000
0100
0010
0000
0001
0100
,  // measure 24
0010
0000
1000
0100
0010
0100
0001
0100
,  // measure 25
0000
0000
1000
0100
0000
0010
0000
0100
,  // measure 26
0010
0110
0000
0101
0000
0110
0000
0000
,  // measure 27
1010
0100
0010
0200
0000
0010
0000
0010
,  // measure 28
0000
0010
0000
0010
0000
0010
0300
0000
,  // measure 29
1000
0100
0020
0100
0000
0100
0000
0100
,  // measure 30
0000
0100
0000
0000
0100
0100
0030
1000
,  // measure 31
0200
0010
0010
0010
,  // measure 32
0302
0100
0100
0100
,  // measure 33
2003
0010
0010
3010
,  // measure 34
1000
0100
1000
0100
0010
0001
0010
0001
0100
0010
0100
0010
0002
0000
0000
0000
,  // measure 35
0103
1000
0100
0010
0000
0100
0010
0100
,  // measure 36
0010
1000
0100
0010
0100
0001
0101
0000
,  // measure 37
0110
0010
0100
0010
0000
1000
0100
0010
,  // measure 38
0100
0001
0100
0010
1000
1000
0000
0000
,  // measure 39
0100
1000
0100
0010
0100
0001
0101
0000
,  // measure 40
0100
1000
0020
0130
0010
0100
0100
0000
,  // measure 41
1000
0100
0010
0001
0100
0010
0100
0010
,  // measure 42
1001
1001
0000
0110
0000
0110
1001
0000
,  // measure 43
0110
1000
0100
0010
0100
0010
0100
0010
,  // measure 44
1000
0100
0010
0001
0100
0010
1000
0100
,  // measure 45
0020
0000
0100
0030
0100
0010
0100
0010
,  // measure 46
2000
0000
0100
0000
0100
0000
3100
0100
,  // measure 47
0001
0000
0100
0010
0000
0010
0001
0000
0100
0000
0010
0100
0000
0001
0010
0000
,  // measure 48
1000
0000
0010
0001
0000
0010
0100
0000
0010
0000
0000
0000
0110
0000
0000
0000
,  // measure 49
1000
0100
0010
0001
0100
0010
0100
0010
,  // measure 50
1001
1001
0000
0110
0000
1001
1001
0000
,  // measure 51
0100
1000
0100
0010
0100
0001
0100
0010
,  // measure 52
0001
0010
0100
0001
0100
0010
0100
0010
,  // measure 53
2000
0000
3100
0100
0010
0100
0010
0100
,  // measure 54
0020
0000
1000
0000
0100
0000
0031
0100
,  // measure 55
0020
0000
0000
0100
0000
0000
0130
0000
2000
0000
0000
0100
0000
0000
3100
0000
,  // measure 56
0020
0000
0000
0100
0000
0000
0100
0000
0130
0000
0000
0000
1000
0000
0100
0000
,  // measure 57
0010
0000
1000
0100
0010
0001
0100
0010
,  // measure 58
0110
0110
0000
1001
0000
0110
0110
0010
,  // measure 59
0012
0000
0010
0010
0000
0010
0010
0000
,  // measure 60
2003
0000
0010
0010
0000
0010
0010
0010
,  // measure 61
3020
0000
0100
0100
0000
0100
0100
0030
,  // measure 62
0110
0110
0110
0110
0000
1001
1001
0000
,  // measure 63
1001
0100
0010
0100
0010
0100
0010
0100
,  // measure 64
1001
0100
0010
0100
0001
0100
0010
0100
,  // measure 65
1100
0100
0110
0100
0110
0010
0011
0010
,  // measure 66
0202
0000
0000
0000
0000
0000
0000
0303
,  // measure 67
2002
0000
0000
0000
,  // measure 68
0000
0000
0000
0000
,  // measure 69
0000
0000
3003
0000
;
