#TITLE:Dreamer;
#SUBTITLE:TARI TARI OP;
#ARTIST:AiRI;
#TITLETRANSLIT:;
#SUBTITLETRANSLIT:;
#ARTISTTRANSLIT:;
#GENRE:ANIMATION BEAT#1;
#CREDIT:;
#BANNER:Dreamer.png;
#BACKGROUND:Dreamer-bg.png;
#LYRICSPATH:;
#CDTITLE:cdtitle.png;
#MUSIC:Dreamer.mp3;
#MENUCOLOR:0,0,1,1;
#METERTYPE:DDR X;
#OFFSET:-0.737;
#SAMPLESTART:66.051;
#SAMPLELENGTH:12.000;
#SELECTABLE:YES;
#BPMS:0.000=168.000;
#STOPS:;
#BGCHANGES:;

//---------------dance-single - ----------------
#NOTES:
     dance-single:
     :
     Hard:
     12:
     0.651,0.600,0.505,0.269,0.011: // measure 1
0000
0000
0000
0000
,  // measure 2
0000
0000
0000
0000
,  // measure 3
0000
0000
0000
0000
,  // measure 4
0000
0000
0000
0000
0000
0000
0001
0001
,  // measure 5
1001
0000
0100
0010
0100
0010
0100
0000
,  // measure 6
0001
0100
1000
0100
0010
0001
1000
0000
,  // measure 7
0100
0001
0100
1000
0100
0010
0001
0000
,  // measure 8
0100
0010
0100
0001
0010
0100
0010
0000
,  // measure 9
1100
0000
0100
0010
0100
0010
1000
0000
,  // measure 10
0100
0001
1000
0100
0010
0001
0100
0000
,  // measure 11
0100
0010
1000
0100
0010
0001
0100
0010
,  // measure 12
0110
0000
1000
1001
0000
0100
0001
0000
,  // measure 13
1000
0100
0010
0001
0100
0010
0001
0200
,  // measure 14
0000
0301
1000
0000
0001
0000
0100
0000
,  // measure 15
0000
0010
1000
0100
0010
0001
0100
0020
,  // measure 16
0000
0031
0100
0000
0001
0000
0101
0000
,  // measure 17
1000
0100
0020
0000
1030
0100
0010
0200
,  // measure 18
0000
0310
1000
0100
0010
0100
0001
0000
,  // measure 19
0001
0010
0100
0001
0100
0010
0001
0020
,  // measure 20
0000
1030
0100
0001
0000
0100
0010
1000
,  // measure 21
0100
0010
0001
0100
0010
0100
0010
2000
,  // measure 22
0000
3100
0010
0100
0001
0100
0010
0000
,  // measure 23
0001
0100
0001
1000
0100
0010
0001
0020
,  // measure 24
0000
0130
0020
0000
2030
0000
3100
0000
,  // measure 25
0010
0100
0010
1000
0100
0010
0001
0200
,  // measure 26
0000
0310
0001
0000
0100
0001
0100
0000
,  // measure 27
0010
0001
0010
0100
0010
0001
0100
0002
,  // measure 28
0000
0103
0001
0100
0000
0010
0100
0000
,  // measure 29
1100
0110
0011
0101
,  // measure 30
1100
1010
0011
0101
,  // measure 31
0011
1001
1100
0110
,  // measure 32
1001
1010
1001
0101
,  // measure 33
0011
1001
0110
1100
,  // measure 34
0110
0011
0101
1100
,  // measure 35
1010
0000
0101
0000
0011
0000
1000
0001
,  // measure 36
1000
0000
0100
0000
0010
0100
0010
0100
,  // measure 37
1010
0000
0100
0010
0100
0000
1000
0100
,  // measure 38
0010
0001
0100
0010
0000
1000
0100
0001
,  // measure 39
0010
0100
0010
1000
0100
0001
0010
0200
,  // measure 40
0000
0310
1000
0010
0000
0100
0010
0000
,  // measure 41
1000
0100
1000
0100
1000
0100
1000
0100
,  // measure 42
0010
0100
0010
0100
0010
0001
0010
0001
,  // measure 43
0101
1000
0100
0010
0100
0001
0100
0101
,  // measure 44
0000
1000
0100
0000
0010
0100
0010
0100
,  // measure 45
0110
1000
0100
0010
0100
0010
0100
0010
,  // measure 46
1000
0100
0010
0001
0101
0000
0101
0000
,  // measure 47
1000
0100
0010
0100
0001
1000
0100
0010
,  // measure 48
0100
0010
0100
2000
0000
3010
0100
0000
,  // measure 49
0020
0000
0000
2030
0000
0000
3002
0000
2003
0000
0000
0000
3100
0000
0020
0000
,  // measure 50
0000
1030
0100
0000
0010
0000
0002
0000
,  // measure 51
2003
0000
0000
3200
0000
0000
0310
0000
0000
0000
0010
0000
1000
0000
0010
0000
,  // measure 52
0000
0010
1000
0010
1000
0100
0010
0001
,  // measure 53
0101
0000
0101
0000
1000
0100
0010
0100
,  // measure 54
0001
0010
0100
0010
0110
0000
0110
0000
,  // measure 55
1000
0100
0010
0100
0001
0010
0100
0020
,  // measure 56
0000
1030
0100
0010
0000
0100
0010
0000
,  // measure 57
1000
0100
0010
0011
0000
0101
1000
0000
,  // measure 58
0010
0100
0010
0110
0000
1000
0100
0010
,  // measure 59
1000
0010
0100
0010
0100
0010
0100
0110
,  // measure 60
0000
0000
0000
1000
0001
1000
0001
1000
,  // measure 61
2002
0000
3000
0200
0000
0000
0000
0000
,  // measure 62
0000
0000
0000
0000
,  // measure 63
0303
0000
0000
0000
;

//---------------dance-single - ----------------
#NOTES:
     dance-single:
     :
     Medium:
     9:
     0.474,0.466,0.107,0.419,0.000:
0000
0000
0000
0000
,
0000
0000
0000
0000
,
0000
0000
0000
0000
,
0000
0000
0000
0001
,
1001
0100
0010
1000
,
0100
0010
0001
0100
,
0010
0001
0100
0001
,
1000
0100
0010
0001
,
1001
0100
0010
0001
,
0100
0010
1000
0010
,
0100
0010
0001
0100
,
1001
0000
0000
1001
0000
0000
0000
0000
,
0100
0010
0100
0010
1000
0100
0010
0002
,
0000
0103
0000
0000
0000
0000
0000
0000
,
0000
0001
0100
0010
0100
1000
0100
0010
,
0000
0100
0010
0000
0200
0000
0310
0000
,
0000
1000
0001
0000
0100
0010
0100
0020
,
0000
1030
0000
0000
0000
0000
0000
0000
,
0000
0010
0100
0010
1000
0100
0010
0002
,
0000
1003
0100
0001
0000
0000
0000
0100
,
0010
0100
0010
1000
0100
0010
0001
0200
,
0000
0310
0000
0000
0000
0000
0000
0000
,
0000
1000
0100
1000
0100
0010
0100
0010
,
0001
0010
0001
0000
0100
0000
0001
0000
,
0000
1000
0001
1000
0001
1000
0010
0200
,
0000
0310
0000
0000
0000
0000
0000
0000
,
0000
1000
0001
1000
0001
0100
0010
0002
,
0000
1003
0100
0010
0000
0000
0000
0000
,
2000
0000
0000
3001
0100
0000
0000
0000
,
0020
2030
3200
0320
,
0031
0000
1000
0001
0000
0100
0000
0010
,
0000
0000
0000
1000
0010
1000
0010
1000
,
0020
0000
0000
0130
0010
0000
0000
0000
,
2000
3200
0320
0032
,
2003
0000
0000
0000
3000
0001
1000
0002
,
0000
0000
0000
0003
0100
0000
0001
0100
,
0002
0000
1003
0002
0000
0003
0000
0100
,
0010
0100
0010
0200
0000
0300
0000
0010
,
1000
0010
1000
0100
0010
0001
0000
0100
,
0000
0010
0100
0010
0000
0000
1000
0100
,
0020
0000
0130
0010
0000
0000
0000
0001
,
0100
0001
0100
0002
0000
0003
0000
1000
,
0100
0010
0001
0100
0010
0001
0100
0002
,
0000
0000
0000
0000
0003
1000
0001
1000
,
0001
0000
1001
0000
0100
0010
0100
0020
,
0000
1030
0100
0000
0010
0000
0110
0000
,
1000
0100
0010
0100
0001
0010
0000
0200
,
0000
0310
0100
0010
0000
0000
2000
0000
,
3100
0000
0010
0002
0000
0000
0103
0002
,
0000
0000
0000
0000
0000
0003
1000
0000
,
0002
0000
0103
0020
0000
0030
1000
0100
,
0000
0010
0001
0100
0000
0010
0100
0000
,
1001
0000
0110
0000
0001
0100
0010
0200
,
0000
0310
1000
0000
0100
0000
0000
1000
,
0100
0010
0100
0010
1000
0200
0000
0301
,
0000
1000
0100
0010
0000
0000
0000
0100
,
0010
0001
0100
0110
0000
0000
1000
0100
,
0010
2000
0000
3100
0000
0000
0010
0100
,
0010
1000
0000
0200
0000
0000
0000
0301
,
0000
0000
0000
1000
0100
0010
0001
0100
,
2002
0000
3000
0200
0000
0000
0000
0000
,
0000
0000
0000
0000
,
0303
0000
0000
0000
;

//---------------dance-single - ----------------
#NOTES:
     dance-single:
     :
     Easy:
     6:
     0.361,0.500,0.097,0.441,0.000:
0000
0000
0000
0000
,
0000
0000
0000
0000
,
0000
0000
0000
0000
,
0000
0000
0000
0001
,
1001
0000
0100
0010
,
1000
0000
0100
0000
,
0001
0000
1000
0010
,
0100
0000
1000
0001
,
1000
0000
0100
0010
,
0100
0000
0001
0100
,
0010
0000
1000
0000
,
1001
0000
1001
0000
,
0100
0010
1000
0100
,
0020
1030
0000
0000
,
1000
0100
0010
0001
,
2000
3100
0020
0031
,
0001
0010
0100
0010
,
0002
1003
0100
0010
,
0100
0001
0100
0010
,
0002
1003
2000
3001
,
0100
0010
1000
0010
,
0200
0310
1000
0001
,
0100
0010
0001
0100
,
2000
3100
0020
0031
,
0100
0001
0010
1000
,
0002
0103
0010
0001
,
0010
0100
0001
0010
,
0002
0013
0200
1300
,
2000
0000
3100
0000
,
0010
0001
0010
0100
,
0002
0000
0103
0000
,
0100
0010
1000
0100
,
0020
0000
0130
0000
,
1000
0100
0001
0100
,
0020
0000
0130
0000
,
0001
0100
0010
1000
,
0020
0000
2030
0000
,
3001
0100
0010
0001
,
0200
0000
0302
0000
,
0013
0100
0001
1000
,
0020
0000
2030
0000
,
3001
0100
0010
0001
,
1001
0000
0000
0000
,
0200
0000
0000
0000
,
0310
1000
0100
0010
,
0001
1000
1001
0000
,
0001
0100
0010
1000
,
0100
0001
0100
2000
,
3200
0320
0032
2003
,
3100
0020
0031
2000
,
3200
0302
0023
0230
,
2300
3100
0020
0031
,
2000
3100
0010
0001
,
0020
0031
0001
0000
,
0200
0301
1000
0100
,
0010
0001
0100
0000
,
1001
0100
0000
0010
,
1000
0000
0110
0000
,
1000
0100
0010
1001
,
0000
0000
1000
0010
,
2002
0000
0000
0000
,
0000
0000
0000
0000
,
3003
0000
0000
0000
;

//---------------dance-single - ----------------
#NOTES:
     dance-single:
     :
     Beginner:
     2:
     0.127,0.200,0.150,0.086,0.000:
0000
0000
0000
0000
,
0000
0000
0000
0000
,
0000
0000
0000
0000
,
0000
0000
0000
0000
,
1001
0000
0000
0000
,
0010
0000
0000
0000
,
0010
0000
0000
0000
,
0100
0000
0000
0000
,
1001
0000
0000
0000
,
0001
0000
0000
0000
,
1000
0000
0000
0000
,
0110
0000
0000
0000
,
1000
0000
0000
0000
,
1000
0000
0000
0000
,
0100
0000
0000
0000
,
0100
0000
0000
0000
,
0010
0000
0000
0000
,
0010
0000
0000
0000
,
0001
0000
0000
0000
,
0001
0000
0000
0000
,
1001
0000
0000
0000
,
0001
0000
0000
0000
,
1000
0000
0000
0000
,
1000
0000
0000
0000
,
0010
0000
0000
0000
,
0010
0000
0000
0000
,
0100
0000
0000
0000
,
0100
0000
0000
0000
,
0002
0000
0000
0000
,
1003
0000
1000
0000
,
2000
0000
0000
0000
,
3001
0000
0001
0000
,
0020
0000
0000
0000
,
0130
0000
0100
0000
,
0200
0000
0000
0000
,
0310
0000
0000
0000
,
0110
0000
0000
0000
,
1001
0000
0000
0000
,
1000
0000
0000
0000
,
0001
0000
0000
0000
,
1001
0000
0000
0000
,
0110
0000
0000
0000
,
1001
0000
0000
0000
,
0000
0000
0000
0000
,
1000
0000
1000
0000
,
1000
0000
1000
0000
,
0001
0000
0001
0000
,
0001
0000
0000
0000
,
0200
0000
0000
0000
,
0300
0000
0000
0000
,
0020
0000
0000
0000
,
0030
0000
0000
0000
,
1001
0000
0000
0000
,
1000
0000
1000
0000
,
0001
0000
0000
0000
,
0001
0000
0001
0000
,
1001
0000
0000
0000
,
1001
0000
0000
0000
,
0110
0000
0000
0000
,
0000
0000
0000
0000
,
2002
0000
0000
0000
,
0000
0000
0000
0000
,
3003
0000
0000
0000
;
