#TITLE:Coloring;
#SUBTITLE:パパうこと聞なさい! ED;
#ARTIST:堀江由衣;
#TITLETRANSLIT:;
#SUBTITLETRANSLIT:Papa no iu Koto wo Kikinasai! ED;
#ARTISTTRANSLIT:Yui Horie;
#GENRE:EXTRA VS OVERACTIVE -;
#CREDIT:;
#BANNER:Coloring.png;
#BACKGROUND:Coloring-bg.png;
#LYRICSPATH:;
#CDTITLE:cdtitle.png;
#MUSIC:Coloring.mp3;
#METERTYPE:DDR X;
#MENUCOLOR:1,1,0,1;
#OFFSET:1.813;
#SAMPLESTART:49.969;
#SAMPLELENGTH:12.000;
#SELECTABLE:YES;
#BPMS:0.000=117.000,131.500=234.000,132.500=117.000;
#DISPLAYBPM:117;
#STOPS:131.500=0.128
,132.000=0.128
,168.000=0.256
,175.500=0.256
;
#BGCHANGES:2.750=Coloring.avi=1.000=0=0=1,
185.500=bg.png=1.000=0=0=1,
99999=-nosongbg-=1.000=0=0=0 // don't automatically add -songbackground-
;

//---------------dance-single - ----------------
#NOTES:
     dance-single:
     :
     Beginner:
     3:
     0.221,0.240,0.032,0.107,0.000:
0000
0000
0000
0000
,
0000
1000
0000
0020
,
0030
0000
0100
0010
,
0100
0000
0000
0200
,
0300
0001
1000
0001
,
1000
0000
0100
0010
,
0200
0310
0000
0010
,
0010
0000
0010
0100
,
0010
0000
2000
0000
,
3000
0001
0000
0010
,
0010
0100
0000
1000
,
1000
0001
0000
0010
,
0010
0100
0000
0002
,
0000
0103
0000
0100
,
0100
0100
0000
0010
,
0010
0010
0000
1000
,
1000
1000
0000
1000
,
1000
1000
0000
0001
,
0001
0001
0000
0001
,
0001
0001
0000
0100
,
0100
0100
0000
0010
,
0010
0010
0000
1000
,
0000
0100
0000
0010
,
0001
0100
0000
1000
,
0000
0100
0000
0001
,
0100
1000
1000
0001
,
0001
0100
0100
0020
,
0130
0000
1000
0000
,
0001
0100
0010
0100
,
0010
1000
1000
0001
,
0001
0100
0010
0200
,
0310
2000
3000
0002
,
0003
0100
0010
0100
,
0000
0110
0000
0100
,
0000
0010
0100
0010
,
0100
0010
0000
1000
,
0000
0001
1000
0001
,
1000
0100
0100
0010
,
0010
1000
0001
2000
,
3001
0010
0100
0010
,
0100
1000
1000
0100
,
0010
0001
0100
0010
,
1001
0000
0000
0100
0000
0000
0000
0010
,
0000
0000
0000
1000
0000
0000
0000
1001
,
0000
0010
0100
0010
;

//---------------dance-single - ----------------
#NOTES:
     dance-single:
     :
     Easy:
     7:
     0.435,0.410,0.021,0.161,0.183:
0000
0000
0000
0000
,
0000
0000
0100
0010
0001
0001
1001
0000
,
0000
0000
0000
1000
1000
1000
0100
0001
,
0010
1000
0000
0010
0100
0100
0010
0000
,
0010
0000
0001
0000
0001
0000
1000
0010
0000
0001
0000
0000
0001
0000
0001
0000
,
1000
0000
1000
0000
0000
0000
0001
0000
1000
0000
1000
0000
0100
0000
0000
0020
,
0000
0000
0000
0000
0030
0000
0100
0000
0000
1000
0000
0000
0010
0000
0001
0000
,
1000
0000
0000
0000
0100
0000
0010
0000
0001
0000
0100
0000
0001
0000
0000
1000
,
0000
0000
0001
0100
0001
0000
1000
0010
,
1000
0000
0000
0000
0000
0000
0010
0000
0000
0001
0000
0000
0001
0000
0000
0020
,
0000
0000
0000
0000
0031
0000
1000
0000
0000
1000
0000
0000
2000
0000
0000
3002
,
0000
0000
0013
0000
0000
0000
0100
0000
0000
0001
0000
0000
1000
0000
0000
0010
,
0000
0000
0001
0000
0000
0000
0010
0000
0000
1000
0000
0000
0002
0000
0000
0000
,
0000
0000
0003
0000
0000
0000
0100
0000
0100
0000
1000
0000
0010
0000
0000
0001
,
0000
0000
0000
0000
0000
0000
0100
0000
0000
1000
0001
0000
0001
0000
0100
0000
,
0010
0000
0000
0000
0000
0000
0001
0000
0001
0000
0010
0000
0001
0000
0000
2000
,
0000
3001
0000
0001
1000
0001
0000
0100
,
0010
0000
0100
0000
0000
0000
0010
0000
0010
0000
0100
0000
0010
0000
0000
2000
,
0000
0000
3100
0000
0000
0000
0100
0000
0001
1000
0000
0000
0001
0000
0000
0010
,
0000
0100
0000
0100
0010
0001
0000
1000
,
0001
0100
0000
0100
0001
1000
0010
0001
,
0100
0001
0000
0100
0100
0100
0000
0010
,
0010
0010
0000
0100
0100
0010
0100
0000
,
0010
0000
0110
0000
1000
0010
0001
0000
,
0001
0010
1000
0100
0100
0100
0010
0100
,
0010
0000
0100
0000
0010
0000
0001
0000
0001
0000
0100
0000
1000
0000
0000
1000
,
0000
0010
0000
0000
0000
0000
0000
1000
0000
0000
0010
0000
0002
0000
0000
0000
,
0103
0000
0000
0000
0001
0000
0010
0000
0100
0000
1000
0000
0100
0000
0000
0001
,
0000
0000
0100
0000
0100
0000
0000
0010
0000
0000
1000
0000
0001
0000
0000
1000
,
0000
0000
0100
0000
0100
0000
1000
0000
0010
0000
0001
0000
0100
0000
0000
0001
,
0000
0000
0001
0000
0001
0000
0000
0001
0000
0000
1000
0000
0002
0000
0000
0000
,
1003
0002
1003
2000
,
3001
1000
0001
1000
0001
1000
0010
0100
,
0010
0000
0100
0000
0010
0000
0001
0000
0010
0000
0001
0000
1000
0000
0000
1000
,
0000
0000
0001
0000
0001
0000
0000
0010
0000
0000
1000
0000
0002
0000
0000
0000
,
0013
0000
0000
0000
1000
0000
0001
0000
0100
0000
0001
0000
0010
0000
0000
1000
,
0000
0000
1000
0000
1000
0000
0000
0001
0000
0000
1000
0000
0010
0000
0000
1000
,
0000
0000
1000
0000
1000
0000
0001
0000
1000
0000
1000
0000
0100
0000
0000
1000
,
0000
0000
0001
0000
0100
0000
0000
0001
0000
0000
1000
0000
0020
0000
0000
0000
,
0130
0000
0010
1000
0010
0000
1000
0001
,
0100
0100
0100
0010
0010
0001
1000
1000
,
1000
0100
0001
1000
0001
0010
0002
0000
,
1003
0001
0100
0001
0010
0001
0001
1000
,
1000
0100
0001
1000
0010
0200
0000
0310
,
0000
0000
0001
0000
0100
0000
0000
1000
0000
0000
0001
0000
1000
0000
0001
0000
;

//---------------dance-single - ----------------
#NOTES:
     dance-single:
     :
     Medium:
     11:
     0.583,0.555,0.247,0.333,0.322:
0000
0000
0000
0000
,
0000
0000
0000
0000
0010
0000
0100
0000
1000
0001
1000
0000
0102
0000
0000
0000
,
0013
0000
0000
0000
0010
0000
0001
0000
0001
1000
0001
0000
0010
0000
1000
0000
,
0100
0000
0001
0000
0010
0000
0100
0000
0010
0100
0010
0000
0100
0000
0010
0000
,
0100
0000
1000
0010
1000
0000
0001
0100
0000
1000
0010
0000
1000
0000
1000
0000
,
0001
0000
0001
0000
0010
0000
1000
0000
0001
1000
0001
0000
0010
0000
0001
0200
,
0000
0000
0000
0000
1300
0000
0010
0000
0000
0001
1000
0000
0100
0000
1000
0000
,
0001
0000
0000
0000
0010
0000
0100
0001
1000
0000
0010
0000
1000
0000
0000
0001
,
0000
0000
1000
0010
1001
0000
0001
0100
,
1001
0000
0000
0000
0000
0000
0100
0000
0000
1000
0100
0000
1000
0000
0010
0200
,
0000
0000
0000
0000
1300
0000
0001
0000
0000
0001
1000
0000
0002
0000
0000
2003
,
0000
0000
3100
0000
0000
0000
0020
0000
0000
1030
0000
0000
0002
0000
0000
0103
,
0000
0000
1000
0000
0000
0000
0200
0000
0000
0301
0000
0000
2000
0000
0000
3010
,
0000
0000
1000
0000
0000
0000
0010
1000
0010
0000
0001
0000
0100
0000
0001
1000
,
0000
0000
0000
0000
0000
0000
0010
0000
1000
0001
1000
0000
1000
0000
0010
0000
,
0100
0000
1000
0000
0000
0000
1000
0001
1000
0000
0100
0000
1000
0000
0010
0002
,
0000
1003
0001
1000
0010
0110
0000
0010
,
1000
0000
1001
0000
0000
0000
0100
0001
0100
0000
0010
0000
0100
0000
1000
0002
,
0000
0000
0013
0000
0000
0000
0010
0000
1000
0001
0000
0000
1000
0000
0000
0100
,
0000
0010
0000
0020
0230
1300
0000
0002
,
2003
3010
0000
0020
2030
3002
0203
2300
,
3020
1030
0000
0010
0010
0010
1010
0100
,
0100
0100
0101
0010
0010
0110
0110
0000
,
0110
0000
0110
0000
0001
0100
1001
0000
,
1000
0100
1001
0010
0010
0010
0100
0010
,
0100
0000
0010
0000
0100
0000
1000
0000
1000
0000
0010
0000
0001
0000
1000
0001
,
0000
0100
0010
0001
0000
0000
1000
0001
0000
0010
0100
0000
2001
0000
0000
0000
,
3010
0000
0000
0000
2000
0000
3200
0000
0320
0000
0032
0000
0103
0000
1000
0001
,
0000
0000
0010
1000
0010
0000
0000
0100
0000
0000
0001
0000
1000
0000
1000
0001
,
0000
0000
0010
1000
0010
0000
0001
0000
0100
0000
1000
0000
0010
0000
0001
1000
,
0000
0000
1000
0001
1000
0000
0000
1000
0000
0000
0001
0000
2001
0000
0000
0000
,
3010
0000
1000
0010
1001
0000
0001
0100
,
1001
0000
0001
1000
0010
0000
0001
0000
1000
0000
0001
0000
0100
0000
0010
0000
,
0100
0000
0110
0000
0110
0000
1000
0000
0100
0000
1000
0000
0001
0000
1000
0001
,
0000
0000
1000
0001
1000
0000
0000
0100
0000
0000
0001
0000
1020
0000
0000
0000
,
0130
0000
0000
0000
0001
0000
1000
0000
0010
0000
1000
0000
0100
0000
1000
0001
,
0000
0000
0001
0100
0001
0000
0000
1000
0000
0000
0001
0000
0100
0000
0100
0001
,
0000
0000
0001
0100
0001
0000
1000
0000
0001
0000
0001
0000
0010
0000
1000
0001
,
0000
0000
1000
0001
0010
0000
0000
1000
0000
0001
0000
0000
0201
0000
0000
0000
,
0310
0000
0100
0001
0110
0000
0001
1000
,
0110
0000
0010
1000
0010
0000
0100
0000
0100
0000
1000
0000
0001
0000
0001
0000
,
0001
0000
0010
0000
1000
0000
0001
0000
1000
0001
0100
0000
2000
0000
0000
0000
,
3001
0000
1000
0000
0010
0000
1000
0001
0100
0000
1000
0000
1000
0000
0001
0000
,
0001
0000
0010
0000
1000
0000
0001
1000
0100
0000
0020
0000
0000
0000
0130
0000
,
1000
0000
0010
1000
0000
0001
0100
0000
1000
0000
0001
0000
1000
0000
0001
0000
;

//---------------dance-single - ----------------
#NOTES:
     dance-single:
     :
     Hard:
     14:
     0.748,0.627,0.677,0.398,0.494: // measure 1
0000
0000
0000
0000
,  // measure 2
0000
0000
0000
0000
1010
0000
1000
0100
0001
0100
1000
0000
0021
0000
1030
0000
,  // measure 3
0110
0000
0000
0000
1000
0000
0001
0010
0100
1000
0010
0000
1100
0000
1100
0000
,  // measure 4
0011
0000
0011
0000
1000
0000
0100
0000
1000
0100
0001
0000
2010
0000
3100
0000
,  // measure 5
0001
0010
0100
1000
0100
0000
1000
0001
0000
0100
1000
0000
0100
0000
0100
0000
,  // measure 6
0010
0000
0011
0000
1000
0000
0100
0010
0001
0010
0100
0000
1000
0000
0010
0002
,  // measure 7
0020
0000
0000
0003
0130
0000
1000
0000
0001
0010
0100
0000
0001
1000
0100
0000
,  // measure 8
0110
0000
0000
0000
1000
0000
0001
0010
0100
0000
1000
0000
1000
0200
0010
0301
,  // measure 9
0000
0000
0000
0000
0120
0000
1030
0000
0001
0100
1000
0000
0210
0000
0301
0000
,  // measure 10
0100
0001
0010
0000
0000
0000
1001
0000
1000
0100
0001
0000
0100
0010
1000
0001
,  // measure 11
2000
0000
0000
0000
3100
0000
0010
1000
0001
0010
0100
0000
0020
0000
0000
0230
,  // measure 12
0000
0000
0301
0000
0000
0000
2000
0000
0000
3200
0000
0000
0320
0000
0000
0032
,  // measure 13
0000
0000
0103
0000
0000
0000
0002
0000
0000
0023
0000
0000
0230
0000
0000
2000
,  // measure 14
0000
0300
3100
0000
0000
0000
1000
0100
1000
0100
0010
0000
0001
0000
0010
0200
,  // measure 15
0000
0000
0310
0000
1001
0000
1000
0001
0100
1000
0100
0010
0100
0000
1000
0100
,  // measure 16
0001
0000
0100
0000
0000
0000
1000
0010
0100
1000
0001
0000
0100
0000
1000
0010
,  // measure 17
0002
0103
1001
0110
1000
1001
0000
1001
,  // measure 18
0100
0000
0110
0000
0000
0000
0001
0010
0001
0010
1000
0000
0001
0000
0100
0020
,  // measure 19
0000
0000
1030
0000
0110
0000
2000
0001
3100
0010
0000
0000
2000
0000
0000
3002
,  // measure 20
0000
1003
0000
1000
1001
0110
0000
0010
,  // measure 21
0110
1001
0000
1000
0100
0110
0001
0100
,  // measure 22
1001
0110
0000
1000
1000
1000
1200
0301
,  // measure 23
0001
0001
0021
1030
1000
2001
3001
1001
,  // measure 24
0001
1001
1001
0100
0010
0001
0110
1000
,  // measure 25
0100
0001
0110
1000
1000
1000
0001
1001
,  // measure 26
0001
0000
1001
0000
1001
0000
0100
0000
0110
0000
1000
0000
0010
0000
0100
0010
,  // measure 27
0000
0001
1000
0010
1000
0000
0100
0010
0000
1000
0001
0000
0210
0000
0301
0000
,  // measure 28
1001
0000
0000
0000
0110
0000
1000
0000
0100
0000
0010
0000
0001
0000
0100
0010
,  // measure 29
0000
0100
1000
0100
1000
0000
0010
0001
0000
0100
0010
0000
0100
0000
0100
0010
,  // measure 30
0000
0100
1000
0100
1000
0000
0010
0000
0001
0000
0100
0000
1000
0000
0010
0100
,  // measure 31
0000
0010
0100
0010
0100
0000
0010
0100
0000
0100
0010
0000
0210
0000
1300
0000
,  // measure 32
1001
0000
0100
1001
0110
0001
0110
1001
,  // measure 33
0010
0001
0010
0100
1000
0000
0010
0000
0100
0000
0010
0000
0001
0000
0110
0000
,  // measure 34
0110
0000
1001
0000
1001
0000
0100
0000
0001
0000
0100
0000
0010
0000
0100
0010
,  // measure 35
0000
0010
0100
0010
0100
0000
0010
0001
0000
0100
0010
0000
2100
0000
3001
0000
,  // measure 36
0011
0000
0000
0000
0010
0000
0100
0000
1000
0000
0100
0000
0001
0000
0100
0010
,  // measure 37
0000
0001
0010
0001
0010
0000
1000
0100
0000
0100
0010
0000
0001
0000
0001
0010
,  // measure 38
0000
0100
0010
0001
0100
0000
0100
0000
0010
0000
0010
0000
1000
0000
0100
0010
,  // measure 39
0000
0001
0100
0010
1000
0000
0010
0100
0000
0010
0100
0000
0012
0000
1003
0000
,  // measure 40
1100
0000
0210
0310
1001
0000
0020
0100
,  // measure 41
1030
0100
1000
0100
1000
0000
0001
0000
0001
0000
0100
0000
0010
0000
0010
0000
,  // measure 42
0010
0000
1000
0000
0100
0000
0010
1000
0100
0010
0001
0000
0220
0000
0330
0000
,  // measure 43
1001
0000
0100
0000
1000
0010
0100
0010
0001
0000
0100
0000
0100
0000
0010
0000
,  // measure 44
0010
0000
1000
0000
0100
0000
0010
0100
0001
0000
2002
0000
3003
0000
0110
0000
,  // measure 45
0100
0000
1000
0100
0000
0010
0001
0000
0100
0000
0010
0000
0100
0000
0110
0000
;

//---------------dance-single - ----------------
#NOTES:
     dance-single:
     :
     Edit:
     14:
     0.653,0.675,0.430,0.032,0.365:
0000
0000
0000
0000
,
0000
0000
0000
0000
0000
1100
0001
0110
,
0000
0000
0000
0000
1000
0010
0100
0000
0001
0000
0001
0000
0110
0000
MMMM
0000
,
1000
0000
1010
0000
0001
0000
0100
0000
0001
0010
1000
0000
0001
0000
0011
0000
,
MMMM
0000
0100
0001
1000
0000
0101
0000
0010
1000
0001
0000
0100
0000
0001
0000
,
0100
0000
0010
0000
0110
0000
0000
0010
1000
0100
0001
0000
0010
1000
0001
0000
,
0010
0000
0110
1000
0001
0000
0101
0010
0100
1000
0011
0000
1000
0000
1100
1000
,
0001
0010
0100
0000
0010
0000
0001
0000
MMMM
0000
1001
0000
0100
0001
0010
1000
,
0100
MMMM
1000
0101
0100
1010
0100
0010
,
0010
0000
0100
0000
0010
0000
0100
0010
1000
0100
1001
0000
0010
0000
0001
1000
,
0010
0000
MMMM
0000
1000
0000
0101
0000
0101
0000
0000
0010
1000
0100
0001
0010
,
0100
0110
0010
0001
0100
0001
0010
1100
,
0010
1000
0010
0100
0001
0101
0010
0100
,
1000
0000
1010
0000
MMMM
0000
0001
0000
0010
1000
0001
0010
1000
0000
0001
0010
,
1000
0000
1000
0001
1000
0010
0100
1000
,
0100
0000
0100
0000
0010
0000
0001
0000
0100
0001
1000
0010
0100
0000
0010
0100
,
0000
0100
0010
0001
0100
0001
0100
0010
,
0010
0000
0100
0000
0010
0000
1000
0100
0001
0100
0010
0000
1000
0001
0010
1000
,
1000
0010
0000
0101
0001
0010
0100
1001
,
0100
0001
0010
0000
0100
0000
0011
0100
1000
0010
0001
0000
0001
0000
0100
0000
,
0001
0100
0010
0001
0100
0001
0100
0010
,
0010
0100
0010
1000
0010
1001
0001
0001
,
1001
0100
0100
1000
0001
0001
1000
1000
,
MMMM
0110
MMMM
1001
0010
0010
0001
0001
,
1000
0100
0010
1010
0001
0001
0100
0010
,
0010
0000
0100
0000
0010
1000
0010
0000
1000
0001
1000
0000
0010
0000
0100
0010
,
0000
0000
0010
0001
0100
0000
1000
0000
0110
0000
0001
0000
0120
0000
0000
0000
,
0130
0000
0100
0000
0001
0010
0001
0000
1000
0100
1000
0000
0001
0000
1000
0100
,
0010
0000
1000
0000
0010
0100
1000
0010
0001
0100
0001
0000
0100
0000
1000
0001
,
0000
0000
0100
0000
0010
0000
0001
0000
0100
0000
0001
0000
0010
0000
0100
0010
,
0000
0010
0001
0100
0010
0001
0210
0000
,
0310
0000
0100
0000
0001
0000
0010
0000
0100
0000
0000
0010
0001
0100
1000
0010
,
0000
1000
0010
1000
0001
0001
0010
MMMM
,
MMMM
0000
MMMM
0000
0001
0000
0100
0000
0010
0000
0001
0000
0010
0000
0100
0010
,
0000
0010
0001
0100
0010
1000
2001
0000
,
3001
0000
0100
0010
1000
0000
0010
1000
0100
0000
0010
0100
0001
0010
1000
0001
,
0000
0000
1000
0000
0010
0000
1000
0000
0010
0001
0010
0000
1000
0100
0010
0001
,
0000
0000
0100
0000
0010
0000
0001
0000
0100
0000
0001
0000
0010
0000
0100
1000
,
0010
1000
0100
0001
0010
0101
0010
0100
,
0100
0000
0010
0000
0001
0000
0100
0000
0010
0000
0000
0000
0001
0010
1000
0100
,
0010
0000
1000
0000
0010
0000
1000
0000
0010
1000
0001
0000
0001
0000
0001
0000
,
0100
0001
0100
0010
0100
1000
0001
0010
,
0101
0000
0000
0100
0010
1000
0001
0100
0010
0100
0010
0000
0011
0000
0100
0000
,
0010
0000
0100
0000
1010
0000
0010
0100
1000
0001
0110
0000
1000
0000
1010
0000
,
0000
0000
0100
0001
0010
0000
MMMM
0000
0100
0000
0010
0000
0100
0000
1010
0000
;
