#TITLE:Check my soul;
#SUBTITLE:アマガミ SS+ OP;
#ARTIST:azusa;
#TITLETRANSLIT:;
#SUBTITLETRANSLIT:Amagami SS+ OP;
#ARTISTTRANSLIT:;
#GENRE:ANIMATION BEAT#1;
#CREDIT:;
#BANNER:Check my soul.png;
#BACKGROUND:Check my soul-bg.png;
#LYRICSPATH:;
#CDTITLE:cdtitle.png;
#MUSIC:Check my soul.mp3;
#MENUCOLOR:0,0,1,1;
#METERTYPE:DDR X;
#OFFSET:-0.142;
#SAMPLESTART:34.603;
#SAMPLELENGTH:12.000;
#SELECTABLE:YES;
#BPMS:0.000=153.000;
#STOPS:;
#BGCHANGES:;

//---------------dance-single - ----------------
#NOTES:
     dance-single:
     :
     Challenge:
     13:
     0.610,0.634,0.433,0.489,0.078:
0000
0000
0000
0000
,
0000
0000
0000
0000
,
0000
0000
0000
0000
,
0000
0000
0000
0000
,
0000
0000
0000
0000
,
0000
0001
0010
0100
1000
0100
0010
0100
,
0002
0000
1003
0010
0200
0000
0010
0000
,
1300
0000
0100
0001
0200
0000
0010
0000
,
0302
1000
0100
0010
,
0203
0010
0001
1000
,
0320
0000
1030
0010
0002
0000
0010
0000
,
2003
0000
3100
0001
2000
0000
3020
0000
,
2030
0001
0010
0001
,
3002
0000
0100
0000
0100
0000
0100
0000
2003
0000
0010
0000
3010
0100
0010
0000
,
0002
0000
0103
0001
0200
0000
0010
0000
,
2300
0001
0010
0001
,
3020
0000
0130
0010
0100
0001
2000
0000
,
3200
0000
0310
0100
0010
1000
0100
0000
,
0002
0000
0103
0010
1000
0010
0100
0010
,
0200
0000
0310
1000
0001
0010
0100
0010
,
0200
0010
0001
0010
,
0310
0000
1000
0000
0010
0000
0100
0000
1000
0000
0100
1000
0010
0100
0001
0010
,
0100
0000
1010
0000
0010
0100
0110
1000
,
0010
0000
0100
0000
0010
0100
0101
0000
,
1010
0000
1001
0000
0011
0000
0100
0001
,
2000
0000
3010
0001
0200
0000
1300
0001
,
0020
0000
1030
1001
0000
0010
1000
0100
,
0002
0000
0103
0110
0000
1000
0001
0100
,
0020
0000
1030
0100
0010
0001
0100
0010
,
0002
0000
0000
0000
0103
0000
0010
0000
0100
0000
1000
0000
0100
0001
0010
0001
,
0100
0000
0110
0000
0010
0100
0110
1000
,
0010
0000
0101
0000
0010
0100
0110
0000
,
0101
0000
0110
0000
1100
0000
1000
0001
,
2000
0000
3010
0100
0002
0000
0103
0010
,
0002
0000
0103
0110
0000
1000
0010
0100
,
2000
0000
3100
0110
0000
1000
0100
0001
,
0200
0000
0310
0001
1000
0010
0100
0010
,
0200
0000
0000
0000
0310
0000
1000
0000
0100
0000
0010
0000
0001
0000
0100
0010
,
0100
0000
1000
0010
0100
0010
0001
0010
,
0020
0100
0001
0100
,
0230
0000
0310
1000
0010
0100
0001
0010
,
0020
0000
0130
0010
0100
0010
1000
0100
,
0020
0000
0130
0001
0100
0010
0000
1000
,
0200
0000
0310
0100
0010
1000
0100
0010
,
0200
1000
0010
0010
,
0310
0000
1000
0000
0100
0000
0010
0000
1000
0010
0100
0001
1000
0010
0001
0000
,
0000
0000
0000
0000
,
1001
0000
0110
0000
0011
0100
0110
0100
,
1100
0000
0110
0000
0011
0001
0101
0010
,
1010
1100
0110
1010
,
1010
0110
0011
0101
,
1010
0000
0011
0101
0000
1000
0010
0100
,
0010
0000
0110
1010
0000
0100
0001
0100
,
0210
0000
0310
1000
0010
0100
0001
0010
,
0200
0000
0000
0000
0310
0000
1000
0000
0100
0001
0010
0100
1000
0010
0100
0002
,
0200
0000
0000
0000
,
0000
0000
0000
0000
,
0303
0000
0000
0000
;

//---------------dance-single - ----------------
#NOTES:
     dance-single:
     :
     Medium:
     7:
     0.314,0.380,0.189,0.322,0.000:
0000
0000
0000
0000
,
0000
0000
0000
0000
,
0000
0000
0000
0000
,
0000
0000
0000
0000
,
0000
0000
0000
0000
,
0000
0000
0000
0000
,
2000
0000
0010
3010
,
0002
0000
0100
0103
,
2002
0000
0000
0000
,
3003
0000
0000
0000
,
0020
0000
0100
0130
,
0200
0000
0010
0310
,
2002
0000
0000
0000
,
3003
0000
0000
1000
,
2000
0000
0100
0000
0010
0000
0001
3000
,
0002
0010
0100
1003
,
2000
0000
0100
0000
0010
0000
0010
3000
,
0002
0010
0100
0103
,
2000
0010
0010
3010
,
0002
0100
0100
0103
,
0200
0010
0010
0310
,
0020
0100
0100
0130
,
1000
1001
0001
0000
,
0001
1001
1000
0000
,
1000
1000
1000
0000
,
0020
0000
0230
0000
,
0301
0000
0000
1001
0000
0100
0000
0100
,
0000
0000
0000
0110
0000
0000
0010
0000
,
0010
1000
1000
0000
,
1000
0100
0010
0001
,
1000
0000
1000
0000
0001
0000
0000
1001
,
0000
0001
1001
0000
,
0100
0010
0100
0000
,
2000
0000
3020
0000
,
0130
0000
0000
0110
0000
0000
0010
0000
,
0010
0000
0000
1001
0000
0000
0100
0000
,
0010
1000
0000
0010
,
0100
0001
0000
0000
,
0100
0010
1000
0010
,
2000
0010
0000
3001
,
0001
0100
0010
1000
,
0002
0010
0000
1003
,
0100
0010
1000
0100
,
0010
0100
0001
1000
,
2000
0000
0001
3000
0002
0000
1003
0000
,
0100
0000
0010
0000
1000
0100
0010
0001
,
0000
0000
0000
0000
,
0110
0000
0100
0000
0110
0000
0000
0110
,
0000
0010
0110
0000
,
1000
0100
0010
1000
,
0002
0000
2003
0000
,
3001
0000
0000
1001
0000
0000
0020
0000
,
0130
0000
0000
0110
0000
0000
1000
0000
,
0100
0010
0001
1000
,
0010
0001
0100
1000
,
2002
0000
0000
0000
,
0000
0000
0000
0000
,
3003
0000
0000
0000
;

//---------------dance-single - ----------------
#NOTES:
     dance-single:
     :
     Hard:
     10:
     0.432,0.444,0.278,0.422,0.000:
0000
0000
0000
0000
,
0000
0000
0000
0000
,
0000
0000
0000
0000
,
0000
0000
0000
0000
,
0000
0000
0000
0000
,
0000
0001
1000
0001
1000
0001
1000
0000
,
2000
0000
0000
0010
0000
0000
0001
0000
,
3001
0000
0100
0010
0000
0000
0100
0000
,
0002
1000
0000
1000
,
2003
0001
0000
0001
,
3020
0000
0130
0001
1000
0000
0010
0000
,
0200
0000
0301
2000
0000
0000
3010
0000
,
0200
0010
0000
0001
,
0300
0001
1000
0001
1000
0001
1000
0001
,
0200
0000
0310
1000
0000
0010
0000
0200
,
0000
0010
0000
0001
,
0310
0000
1000
0010
0000
0200
0000
0000
,
0301
0000
1000
0001
0000
0100
0000
0000
,
0020
0000
1030
0001
0000
0100
0000
0010
,
0001
0000
0100
0200
0000
0310
1000
0020
,
0000
0100
0000
1000
,
0030
0100
0001
1000
0100
0010
0001
0100
,
0001
0000
1000
0000
0101
0000
0000
0110
,
0000
0010
0011
0100
,
1001
0000
0100
0000
0010
0000
0100
0020
,
0000
0000
1030
0002
0000
0000
0103
0020
,
0000
0030
0000
1001
0000
0000
0100
0020
,
0000
0030
0000
1001
0000
0000
0100
0010
,
0200
0000
0310
1000
0000
1000
0100
0001
,
0200
0000
0310
1000
0000
0010
0000
0000
,
1010
0000
0110
0000
0110
0000
0000
0011
,
0000
0110
0110
0000
,
1000
0000
0100
0000
0010
0000
1000
0010
,
0200
0000
0310
2000
0000
0000
3010
0200
,
0000
0000
0300
0110
0000
0000
0100
0002
,
0000
0000
0003
0101
0000
0000
1000
0010
,
0200
0000
0310
0100
0000
0010
0000
1000
,
0200
0000
0310
0000
1000
0100
0010
0001
,
2000
0000
3010
0100
0000
0001
0000
0200
,
0000
0000
0010
0000
0000
0000
0010
0300
,
0001
0000
0100
0010
0000
0100
0000
0010
,
2000
0000
3001
0100
0000
0010
0000
0001
,
0020
0000
0130
0001
0000
0100
0000
0010
,
2000
0000
3010
0100
0000
0010
0001
0200
,
0010
0010
0000
0010
,
0300
0001
1000
0001
1000
0100
0010
0001
,
0000
0000
0000
0000
,
0110
0000
1010
0000
0110
0000
0000
0101
,
0000
0110
1001
0000
,
0110
0000
1001
0000
0110
0000
0001
0200
,
0000
0000
0310
2000
0000
0000
3010
0200
,
0000
0000
0300
0110
0000
0000
0100
0002
,
0000
0000
0003
1001
0000
0000
0100
0010
,
0200
0000
0310
1000
0000
1000
0000
0100
,
0020
0000
0130
0000
0001
1000
0100
0010
,
2000
0000
0000
0000
,
0000
0000
0000
0000
,
3000
0000
0000
0000
;

//---------------dance-single - ----------------
#NOTES:
     dance-single:
     :
     Easy:
     5:
     0.267,0.348,0.100,0.333,0.000: // measure 1
0000
0000
0000
0000
,  // measure 2
0000
0000
0000
0000
,  // measure 3
0000
0000
0000
0000
,  // measure 4
0000
0000
0000
0000
,  // measure 5
0000
0000
0000
0000
,  // measure 6
0000
0000
0000
0000
,  // measure 7
2000
0000
3001
0100
,  // measure 8
0010
0000
0100
0001
,  // measure 9
0020
0000
0000
0000
,  // measure 10
0030
0001
1000
0001
,  // measure 11
0200
0000
0000
0310
,  // measure 12
1000
0000
0100
0010
,  // measure 13
2000
0000
0000
0000
,  // measure 14
3001
0000
0000
0000
,  // measure 15
0010
0100
0001
0010
,  // measure 16
2000
0000
0000
0000
,  // measure 17
3001
0100
1000
0010
,  // measure 18
0001
0100
0001
0000
,  // measure 19
0100
0010
0001
1000
,  // measure 20
0010
0100
0001
1000
,  // measure 21
0020
0000
0000
0030
,  // measure 22
0000
0100
0010
0001
,  // measure 23
1000
0001
1001
0000
,  // measure 24
0100
0010
0110
0000
,  // measure 25
0001
1000
0010
0000
,  // measure 26
0200
0000
0320
0000
,  // measure 27
0032
0000
0000
0000
,  // measure 28
2003
0000
0000
0000
,  // measure 29
3200
0000
0000
0000
,  // measure 30
0320
0000
0000
0000
,  // measure 31
1030
0001
1001
0000
,  // measure 32
0001
0100
0101
0000
,  // measure 33
0010
0100
0010
0001
,  // measure 34
2000
0000
3020
0000
,  // measure 35
0230
0000
0302
0000
,  // measure 36
2003
0000
3002
0000
,  // measure 37
0103
0000
0000
0000
,  // measure 38
1000
0100
0010
0001
,  // measure 39
2000
3010
0100
0010
,  // measure 40
0002
0000
0000
0000
,  // measure 41
0203
0310
1000
0100
,  // measure 42
0020
0130
0001
0100
,  // measure 43
0010
1000
0100
0001
,  // measure 44
0200
0310
1000
0100
,  // measure 45
2000
0000
0000
0000
,  // measure 46
3001
1000
0100
0010
,  // measure 47
0001
0000
0000
0000
,  // measure 48
1001
0100
0010
0000
,  // measure 49
0110
0010
0001
0000
,  // measure 50
1000
0100
0001
0010
,  // measure 51
0002
0000
2003
0000
,  // measure 52
3100
0000
0000
0101
0000
0000
0010
0000
,  // measure 53
0100
0000
0000
1001
0000
0000
0100
0000
,  // measure 54
0020
0000
0230
0000
,  // measure 55
0301
1000
0100
0010
,  // measure 56
2002
0000
0000
0000
,  // measure 57
0000
0000
0000
0000
,  // measure 58
3003
0000
0000
0000
;

//---------------dance-single - ----------------
#NOTES:
     dance-single:
     :
     Beginner:
     3:
     0.113,0.190,0.100,0.178,0.000:
0000
0000
0000
0000
,
0000
0000
0000
0000
,
0000
0000
0000
0000
,
0000
0000
0000
0000
,
0000
0000
0000
0000
,
0000
0000
0000
0000
,
1000
0000
0000
0000
,
0001
0000
0000
0000
,
0020
0000
0000
0000
,
0030
0000
0000
0000
,
1000
0000
0000
0000
,
0100
0000
0000
0000
,
2000
0000
0000
0000
,
3000
0000
0000
0000
,
0010
0000
0000
0000
,
0002
0000
0000
0000
,
0003
0000
0000
0000
,
0100
0000
0000
0000
,
0010
0000
0000
0000
,
0001
0000
0000
0000
,
2000
0000
0000
0000
,
3000
0000
0000
0000
,
0010
0000
0010
0000
,
0001
0000
0001
0000
,
1000
0000
0010
0000
,
0001
0000
0000
0000
,
2000
0000
0000
0000
,
3002
0000
0000
0000
,
2003
0000
0000
0000
,
3002
0000
0000
0000
,
0003
0000
0000
0000
,
0010
0000
0000
0000
,
0100
0000
0000
0000
,
0020
0000
0000
0000
,
0230
0000
0000
0000
,
0320
0000
0000
0000
,
0230
0000
0000
0000
,
0320
0000
0000
0000
,
0130
0000
0000
0000
,
0100
0000
0000
0000
,
0010
0000
0000
0000
,
0001
0000
0000
0000
,
0010
0000
0000
0000
,
1000
0000
0000
0000
,
0002
0000
0000
0000
,
0003
0000
0000
0000
,
0000
0000
0000
0000
,
1001
0000
0000
0000
,
1001
0000
0000
0000
,
0110
0000
0000
0000
,
0110
0000
0000
0000
,
1001
0000
0000
0000
,
1001
0000
0000
0000
,
0110
0000
0000
0000
,
1001
0000
0000
0000
,
2002
0000
0000
0000
,
0000
0000
0000
0000
,
3003
0000
0000
0000
;
