#TITLE:Authentic Symphony;
#SUBTITLE:ましろ色シンフォニー -The color of lovers- OP;
#ARTIST:ちょうちょ;
#TITLETRANSLIT:;
#SUBTITLETRANSLIT:Mashiro-iro Symphony -The color of lovers- OP;
#ARTISTTRANSLIT:Choucho;
#GENRE:ANIMATION BEAT#1;
#CREDIT:;
#BANNER:Authentic Symphony.png;
#BACKGROUND:Authentic Symphony-bg.png;
#LYRICSPATH:;
#CDTITLE:cdtitle.png;
#MUSIC:Authentic Symphony.mp3;
#MENUCOLOR:0,0,1,1;
#METERTYPE:DDR X;
#OFFSET:0.534;
#SAMPLESTART:54.937;
#SAMPLELENGTH:12.000;
#SELECTABLE:YES;
#BPMS:0.000=175.000,32.000=87.500,64.000=175.000,196.000=87.500,204.000=175.000;
#STOPS:;
#BGCHANGES:;

//---------------dance-single - ----------------
#NOTES:
     dance-single:
     :
     Hard:
     13:
     0.479,0.514,0.308,0.165,0.038: // measure 1
0000
0000
0000
0000
,  // measure 2
0000
0000
0000
0000
,  // measure 3
1001
0000
0000
0000
0000
0010
0000
0110
,  // measure 4
0000
0000
0000
1000
,  // measure 5
1001
0000
0000
0000
0000
0100
0000
0110
,  // measure 6
0000
1000
0001
1000
,  // measure 7
1001
0100
1001
0100
,  // measure 8
2002
0000
0000
3003
,  // measure 9
0100
0000
1000
0000
0100
0010
1000
0010
,  // measure 10
0100
0000
0000
0001
1000
0100
0010
0001
,  // measure 11
1000
0000
0000
0000
0001
0100
0010
1000
,  // measure 12
0100
0000
0010
0000
0001
0010
0100
1000
,  // measure 13
0001
0000
0100
0000
0010
0010
0010
0000
,  // measure 14
1000
0000
0001
0000
1000
1000
1000
0000
,  // measure 15
0010
0000
0100
0000
0010
0010
0010
0000
,  // measure 16
1000
0000
0001
0000
0001
1000
0001
0000
,  // measure 17
1001
0000
0100
0000
1000
0000
0100
0010
,  // measure 18
0001
0100
0010
0100
,  // measure 19
0001
0000
1000
0000
0010
0000
1000
0100
,  // measure 20
0000
0010
0100
0000
0010
0100
0010
0100
,  // measure 21
1001
0000
0100
0000
0010
0000
0100
0010
,  // measure 22
0000
1000
0100
0000
0010
0000
0100
0000
,  // measure 23
1001
0000
0100
0000
0010
0000
0100
0001
,  // measure 24
0000
1000
0100
0010
0001
0100
0001
0000
,  // measure 25
1002
0000
0000
0000
0100
0000
0000
1003
,  // measure 26
0000
1000
0010
1000
,  // measure 27
2010
0000
0000
0000
0100
0000
0000
3010
,  // measure 28
0000
0001
0100
0001
,  // measure 29
1001
0000
0110
0000
1000
0100
0010
1000
,  // measure 30
0100
0010
0001
0100
0100
0010
0100
0010
,  // measure 31
1000
0100
0001
0010
0100
1000
0100
0010
,  // measure 32
0001
1000
0100
1000
0100
0010
0001
0100
,  // measure 33
0001
0000
1001
0110
,  // measure 34
2001
0000
0010
0000
3001
0100
0010
0100
,  // measure 35
0001
0100
0010
1000
0100
0010
0100
0001
,  // measure 36
0102
0000
1000
0000
0103
0010
1000
0010
,  // measure 37
1000
0010
0200
0000
2300
0000
3010
0000
,  // measure 38
0110
0000
0010
0000
0100
1000
0100
0010
,  // measure 39
0000
0001
0100
0000
0010
0000
1000
0000
,  // measure 40
2000
0000
3001
0000
0002
0000
1003
1010
,  // measure 41
0000
0000
0100
0000
0010
0000
1000
0000
1000
0010
1000
0000
1000
0010
1000
0000
,  // measure 42
1010
0000
0100
0000
0010
1000
0100
0010
,  // measure 43
0000
1000
0100
0000
0001
0000
0010
0000
,  // measure 44
0100
0000
1000
0100
0000
1000
0100
1001
,  // measure 45
0000
0100
0010
0000
1000
0100
0010
0001
,  // measure 46
1001
0000
0100
0000
0010
1000
0010
1000
,  // measure 47
0000
0010
0100
0000
0010
1000
0100
0010
,  // measure 48
0001
0000
0100
0010
0000
0100
0000
1001
,  // measure 49
0000
0100
0010
0100
0010
0100
0010
0000
,  // measure 50
1002
0000
0000
0000
0100
0000
0000
1000
0000
0000
1000
0000
1000
0000
1000
0003
,  // measure 51
2010
0000
0000
0000
0010
0000
0000
3000
0100
0001
0100
0001
0000
0100
0000
1002
,  // measure 52
0000
0000
0103
0000
1000
0100
0010
0001
,  // measure 53
0000
0100
1000
0000
0000
0001
0010
0100
,  // measure 54
2002
0000
0000
0000
,  // measure 55
0000
0000
0000
0000
,  // measure 56
3003
0000
0000
0000
;

//---------------dance-single - ----------------
#NOTES:
     dance-single:
     :
     Medium:
     9:
     0.361,0.423,0.132,0.286,0.000:
0000
0000
0000
0000
,
0000
0000
0000
0000
,
1001
0000
0000
0000
0000
0000
0000
0110
,
0000
0000
0000
0000
,
1100
0000
0000
0000
0000
0000
0000
0110
,
0000
0000
0000
0000
,
0011
0000
0000
0000
,
2002
0000
0000
0000
,
3003
0000
0100
0000
0010
1000
0010
1000
,
0002
0000
0203
0000
,
0320
0000
0000
0000
0031
1000
0001
1000
,
0002
0203
0320
2000
,
3030
0100
0001
1000
,
0010
0100
0010
1000
0100
0010
0001
1000
,
0002
0000
2000
3003
,
0100
0010
1000
0100
0020
0000
0002
0000
,
0033
0100
0010
1000
,
0100
0010
0100
0010
,
1100
1000
0100
0010
,
0001
0100
0010
0100
,
0011
0100
1000
0100
,
0010
0001
1000
0010
,
0110
1000
0100
0001
,
0100
1000
0010
0100
,
0012
0000
0100
0000
,
1000
0000
0100
0000
,
2003
0000
0100
0000
,
0010
0000
0001
0000
,
3001
0100
1000
0100
,
0010
0001
0010
1000
,
0010
0001
1000
0001
,
0100
1000
0100
0000
0001
1000
0001
0000
,
2000
0000
3002
1003
,
0001
1000
0100
0010
,
0100
0000
0010
0000
1000
0100
0010
0000
,
0001
0000
0100
0000
0001
1000
0001
0000
,
0100
0020
2030
3200
,
0301
0000
0100
0000
0010
1000
0010
0000
,
0100
0000
0010
0000
0001
0100
0001
0000
,
1000
0000
0100
0000
0010
0100
0010
0000
,
1000
0100
0020
2030
,
3001
0100
0010
0100
,
0010
0000
0100
0000
1000
0100
0010
0000
,
0100
0000
0001
0000
1000
0000
0001
1000
,
0000
0001
0100
0000
0100
0000
0010
0000
,
1000
0000
0100
0010
0000
0000
0010
0100
,
0000
1000
0100
0000
0010
0000
0001
0000
,
0100
0000
0001
0010
0000
0100
0000
1000
,
0000
0100
0010
0000
1000
0000
0001
0000
,
2001
0010
0001
0010
,
3002
0100
1000
0100
,
1003
0100
0010
0001
,
0100
0000
0010
0000
1000
0001
1000
0000
,
2002
0000
0000
0000
,
0000
0000
0000
0000
,
3003
0000
0000
0000
;

//---------------dance-single - ----------------
#NOTES:
     dance-single:
     :
     Easy:
     5:
     0.264,0.333,0.132,0.319,0.000:
0000
0000
0000
0000
,
0000
0000
0000
0000
,
1001
0000
0000
0000
0000
0000
0000
0110
,
0000
0000
0000
0000
,
1001
0000
0000
0000
0000
0000
0000
0110
,
0000
0000
0000
0000
,
1001
0000
0000
0000
,
0220
0000
0000
0000
,
0330
1000
0001
1000
,
0020
0000
1030
0100
,
0002
0000
0000
1003
,
0020
0000
0200
0000
,
0330
1000
0100
0001
,
0100
1000
0010
0001
,
2000
0000
0000
0000
,
3020
0000
0200
0000
,
0330
1000
0000
0100
,
0000
0010
1000
0001
,
1000
0000
0010
0000
,
0100
0010
1000
0100
,
0001
0000
0010
0000
,
1000
0001
1000
0010
,
0100
0000
0001
0000
,
1000
0010
0100
0000
,
1001
0000
0100
0000
,
0010
0100
0010
0000
,
1001
0000
0100
0000
,
0100
0010
0100
0000
,
1000
0100
0010
0000
,
0001
0010
0100
0000
,
2000
0000
0002
0000
,
0000
0000
0000
0000
,
3003
0000
0100
0010
,
0200
0000
0000
0310
,
0001
1000
0100
0010
,
0002
0000
2003
0000
,
3000
0100
0010
1000
,
0020
0000
0230
0000
,
0302
0000
1003
0100
,
0002
0000
0023
0000
,
1030
0000
0100
0010
,
2000
0000
3200
0000
,
0310
0001
1000
0001
,
2000
0000
3002
0000
,
1003
0100
0010
0001
,
2000
0000
3020
0000
,
0130
1000
0100
0010
,
0002
0000
2003
0000
,
3001
0100
0010
1000
,
1001
0100
0100
0100
,
0110
0010
0010
0010
,
1001
0000
0100
0000
,
0010
1000
0100
0000
,
2002
0000
0000
0000
,
0000
0000
0000
0000
,
3003
0000
0000
0000
;

//---------------dance-single - ----------------
#NOTES:
     dance-single:
     :
     Beginner:
     2:
     0.135,0.233,0.143,0.000,0.000:
0000
0000
0000
0000
,
0000
0000
0000
0000
,
1001
0000
0000
0000
,
0000
0000
0000
0000
,
0110
0000
0000
0000
,
0000
0000
0000
0000
,
1001
0000
0000
0000
,
0000
0000
0000
0000
,
1000
0000
0100
0000
,
0010
0000
0001
0000
,
0010
0000
0100
0000
,
1000
0000
0100
0000
,
0001
0000
1000
0000
,
0001
0000
1000
0000
,
0100
0000
0010
0000
,
0001
0000
1000
0000
,
1001
0000
0100
0000
,
0100
0000
0000
0000
,
0010
0000
0010
0000
,
0010
0000
0000
0000
,
1000
0000
1000
0000
,
1000
0000
0000
0000
,
0001
0000
0001
0000
,
0001
0000
0000
0000
,
1001
0000
0000
0000
,
0000
0000
0000
0000
,
0110
0000
0000
0000
,
0000
0000
0000
0000
,
1001
0000
1000
0000
,
1000
0000
0000
0000
,
0001
0000
0001
0000
,
0001
0000
0000
0000
,
0100
0000
0000
0000
,
0110
0000
0000
0000
,
0010
0000
0010
0000
,
0010
0000
0000
0000
,
1000
0000
1000
0000
,
1000
0000
0000
0000
,
0001
0000
0001
0000
,
0001
0000
0000
0000
,
0100
0000
0100
0000
,
0100
0000
0000
0000
,
1000
0000
1000
0000
,
1000
0000
0000
0000
,
0001
0000
0001
0000
,
0001
0000
0000
0000
,
0010
0000
0010
0000
,
0010
0000
0000
0000
,
0100
0000
0100
0000
,
0100
0000
1001
0000
,
0110
0000
1001
0000
,
0110
0000
1000
0000
,
0001
0000
1000
0000
,
1001
0000
0000
0000
;
