#TITLE:Angel;
#SUBTITLE:;
#ARTIST:Laurent Newfield & Ravenant;
#TITLETRANSLIT:;
#SUBTITLETRANSLIT:;
#ARTISTTRANSLIT:;
#GENRE:EURO DANCE;
#CREDIT:;
#BANNER:Angel.png;
#BACKGROUND:Angel-bg.png;
#LYRICSPATH:;
#CDTITLE:cdtitle.png;
#MUSIC:Angel.mp3;
#MENUCOLOR:0.875,0.25,1,1;
#METERTYPE:DDR X;
#OFFSET:-0.512;
#SAMPLESTART:46.000;
#SAMPLELENGTH:12.000;
#SELECTABLE:YES;
#BPMS:0.000=170.000;
#STOPS:;
#BGCHANGES:;

//---------------dance-single - ----------------
#NOTES:
     dance-single:
     :
     Hard:
     13:
     0.692,0.660,0.672,0.078,0.008:
0000
0000
0000
0000
,
0000
0000
0000
0000
,
0000
0000
0000
0000
,
0000
0000
0000
0000
,
1000
0100
1000
0100
0010
0100
0010
0100
,
0010
0001
0010
0001
0010
0100
0010
0100
,
1000
0100
1000
0100
1000
0100
0010
0100
,
0010
0001
0010
0001
0010
0100
0010
0100
,
1100
0000
0110
0000
0011
0000
0101
0100
,
0000
1010
0000
0110
0000
0010
0011
0100
,
0101
0000
1010
0000
1100
0000
0100
0110
,
0000
0011
0000
0101
0000
1000
1100
0100
,
0110
0000
0011
0000
0101
0000
0100
1100
,
0000
0110
0000
0011
0000
0100
0101
1000
,
0110
0000
1100
0000
1100
0000
0100
0110
,
0000
1100
0000
0101
0000
0100
0000
0100
,
1001
0000
0100
0010
0100
0010
1000
0100
,
0010
0000
0001
0100
0000
1000
0100
0010
,
0000
0000
0001
0100
0001
1000
0100
0010
,
0001
0000
1000
0001
0000
0100
0010
0001
,
0000
1100
0110
0011
,
0101
0000
1010
0000
0110
0000
0011
1000
,
0001
1000
0002
0000
1000
0000
1003
0010
,
0100
0010
2000
0000
0010
0000
0010
0000
,
3010
0000
1000
0100
0010
0001
0100
0010
,
0100
0000
1000
0100
0000
0001
0100
0001
,
0100
0000
1000
0100
0010
0001
0100
0010
,
0100
0000
1000
0100
0000
0010
0100
0010
,
0100
1100
0110
0011
,
0101
0000
1010
0000
0110
0000
1100
1000
,
0010
0100
0020
0000
1000
0000
1000
0130
,
0010
0100
0002
0000
0100
0000
1000
0000
,
1003
0100
0010
0001
1000
0100
0010
0001
,
0100
0001
0100
0001
1000
0100
0010
0001
,
0100
0010
0100
0010
1000
0100
1000
0100
,
0010
0100
0010
0100
0010
0001
0100
0010
,
1000
0001
1000
0001
1000
0010
0100
0010
,
0100
0010
0001
0010
0001
0100
0010
0100
,
1000
0100
0010
0100
1000
0100
0010
0001
,
1000
0100
0010
0001
0100
0010
1000
0010
,
1001
0100
0010
0100
0010
0100
0010
1000
,
0100
0010
0001
0100
0010
0100
0010
0100
,
1000
0100
0001
0100
1000
0100
0010
0001
,
1000
0010
1000
0001
1000
0010
0100
0001
,
1000
0100
0010
0001
0100
1000
0100
1000
,
0100
0010
0100
0010
0100
0010
0001
0010
,
1000
0100
0010
0001
1000
0100
0010
0001
,
2002
0000
0000
0000
0000
0000
3003
0000
1000
0001
1000
0001
1000
0000
0000
0000
,
1001
0000
0110
0000
0011
0000
0100
0001
,
0000
1000
0000
0100
0000
1000
1100
0100
,
0110
0000
0011
0000
0100
0000
0001
0100
,
0000
0011
0000
1100
0000
1000
0100
0010
,
0110
0000
1100
0000
0110
0000
0011
0100
,
0000
0001
0000
0100
0000
0010
1010
0100
,
0110
0000
0100
0000
0110
0000
1000
0100
,
0000
0010
0000
0001
0000
0100
0010
0000
,
1001
0000
0100
0010
0100
0010
0100
0010
,
1000
0000
1000
0100
0010
0100
0010
0100
,
0010
0000
1000
0100
0001
0100
1000
0100
,
0010
0000
0010
1000
0010
1000
0010
0001
,
1000
1100
0110
0011
,
0101
0000
1010
0000
1100
0000
0010
0100
,
0010
1000
0020
0000
1000
0000
1000
0130
,
0001
0100
0002
0000
0010
0000
0100
0000
,
1003
0100
0010
0001
1000
0100
0010
0001
,
0001
0010
0100
1000
0001
0010
0100
1000
,
1000
0010
0100
0001
1000
0010
0100
0001
,
0001
0100
0010
1000
0001
0100
0010
1000
,
1000
0100
0010
0001
0000
1000
0100
0010
,
0000
0100
0010
0001
0000
1000
0100
0010
,
0000
0001
0010
0100
0000
1000
0100
0010
,
1000
0100
0001
0100
0010
0100
0010
0000
,
1100
0100
0010
0100
0000
0010
0100
0010
,
0000
0010
0001
0010
0000
0100
1000
0100
,
0000
1000
0100
0001
0000
0100
0010
0001
,
0000
0100
0010
0100
0000
1000
0100
0001
,
0000
0001
0010
0100
0000
1000
0100
0001
,
0000
0100
1000
0010
0000
0100
0010
0001
,
0000
1000
0100
0001
0000
0001
0100
1000
,
1001
0000
0100
0000
0010
1000
0001
0000
,
1001
0000
1100
0000
0100
0000
0100
0001
,
0011
0000
0100
0000
0010
1000
0110
0100
,
0011
0000
0101
0000
0110
0000
1100
0100
,
0010
0000
0100
0010
0000
0100
1100
0100
,
0110
0000
0011
0000
0101
0000
0110
1000
,
0100
0010
0000
0100
0000
0010
0100
0010
,
1100
0000
0110
0000
0011
0000
0101
0100
,
0000
0010
0000
1000
0000
1000
0100
0010
,
2002
0000
0000
0000
,
3003
0000
0000
0000
;

//---------------dance-single - ----------------
#NOTES:
     dance-single:
     :
     Challenge:
     15:
     0.830,0.904,1.000,0.117,0.047:
0000
0000
0000
0000
,
0000
0000
0000
0000
,
0000
0000
0000
0000
,
0000
0000
0000
0000
,
1000
0010
1000
0010
0100
0010
0100
0010
,
0001
0010
0001
0010
0100
0010
0100
0010
,
0100
1000
0100
1000
0100
0010
0100
0010
,
0100
0001
0100
0001
0100
1000
0100
1000
,
0110
0000
0110
0000
0011
0000
0101
0100
,
0010
1000
0110
0100
0010
0001
0011
0100
,
0101
0000
0110
0000
1100
0000
0110
0010
,
0011
0100
0101
0010
0011
0100
1001
1000
,
0110
0000
0011
0000
0101
0000
1010
0100
,
1100
0100
0110
0010
0011
0100
0101
0100
,
0101
0000
1010
0000
1100
0000
0110
0010
,
0022
0000
0000
0000
0000
0000
0033
0000
1000
0001
1000
0001
1000
0001
1000
0001
,
1000
0000
0110
1000
0100
0010
0001
0100
,
0010
0000
1000
0100
0010
0100
0001
0100
,
0010
0000
1000
0100
0001
0100
1000
0010
,
1000
0000
0010
0100
0010
1000
0100
0001
,
0100
0101
0110
1100
,
0110
0000
0011
0000
0101
0000
0110
1000
,
0010
2000
0010
0000
0010
0000
3010
0100
,
0010
0002
0100
0000
0100
0000
0100
0003
,
0100
0010
1000
0100
0010
0001
0100
0010
,
1000
0000
0100
0010
0100
0010
1000
0100
,
0010
0000
0100
0001
0100
0001
0100
0010
,
0001
0000
0100
0010
0100
0010
1000
0100
,
0010
1100
0110
0011
,
0101
0000
1010
0000
0110
0000
0011
0100
,
0001
0100
0002
0000
1000
0000
1000
0103
,
0010
2000
0010
0000
0010
0000
0010
3000
,
0010
1000
0100
0010
0001
1000
0100
0010
,
0001
0010
0100
1000
0001
0010
0100
1000
,
0010
0100
0010
0001
0100
1000
0100
0010
,
1000
0100
0010
0100
1000
0100
0010
0100
,
0001
0100
0001
0100
0010
0100
0010
0100
,
1000
0100
1000
0100
0010
0100
0010
0100
,
0001
0100
0010
1000
0100
0010
0100
0001
,
1000
0100
0010
0100
0001
0100
0010
0100
,
1100
0100
0110
0100
0011
0001
0101
0100
,
0110
0001
1100
0010
0101
1000
0110
0100
,
1100
0100
0110
0100
0011
0100
0101
0100
,
0110
0100
1100
0100
0110
0010
0011
0100
,
0101
0010
1100
0001
0110
0001
0110
1000
,
1000
0100
0110
0100
0100
0100
0101
1000
,
0110
1000
0010
1000
0100
0010
0001
0100
,
0210
0000
0010
0000
1000
0000
0010
0300
,
1001
0000
0110
0000
0011
0000
0110
1000
,
0011
1000
0100
0010
0110
1000
0101
0100
,
0101
0000
0110
0000
1100
0000
0110
0010
,
0011
0100
0001
0100
0010
0100
0110
1000
,
1010
0000
0110
0000
0011
0000
0101
0100
,
0101
1000
1010
0010
0011
0100
0101
0100
,
1010
0000
0101
0000
0011
0000
1001
1000
,
0110
1000
0110
0010
0011
0100
0101
1000
,
1010
0000
0110
1000
0100
0010
1000
0010
,
2000
0000
3010
0100
0010
0100
0010
1000
,
0001
0000
0110
1000
0100
0010
0100
0010
,
0002
0000
0103
0010
1000
0100
0010
0100
,
0101
1010
1100
0110
,
0011
0000
1001
0000
0110
0000
1010
0100
,
0010
2000
0010
0000
0010
0000
3010
0100
,
0010
0100
0002
0000
0100
0000
0100
0003
,
1000
0100
0010
0001
1000
0100
0010
0001
,
0001
0010
0100
1000
0001
0010
0100
1000
,
1000
0010
0100
0001
1000
0010
0100
0001
,
0001
1000
0100
0010
0100
0010
1000
0010
,
1010
0100
0110
0010
0011
0100
0101
0100
,
1100
0100
0110
0010
0011
0100
0101
1000
,
1010
0100
0011
1000
1001
0100
0110
0001
,
1001
0100
0110
0100
0110
1000
1100
0100
,
0101
0010
0110
0010
0000
0100
0110
0100
,
0000
0100
0110
0100
0000
0010
1010
1000
,
0000
0001
1001
1000
0000
1000
1010
1000
,
0000
1000
0101
0100
0000
0100
0110
0100
,
0001
0010
0011
0100
0000
0100
0110
0100
,
0000
0010
0110
0100
0000
0100
0110
0100
,
0000
0010
0011
0001
0000
1000
1001
1000
,
2001
0000
0010
0000
0001
0000
0010
3000
,
1001
0000
0100
0000
1100
0000
0100
0010
,
0210
0000
0010
0000
1300
0010
0100
1000
,
0110
0000
0010
0000
0011
0000
0101
0100
,
1010
0000
0100
0000
0010
0100
0010
0100
,
1010
0000
0110
0000
0011
0000
0101
1000
,
0001
0100
0010
1000
0100
0010
0101
0100
,
1010
0000
0110
0000
0011
0000
0101
0100
,
1000
0100
0010
0001
1000
0100
0010
0001
1000
0100
0010
0001
1000
0100
0010
0002
,
2000
0000
0000
0000
,
3003
0000
0000
0000
;

//---------------dance-single - ----------------
#NOTES:
     dance-single:
     :
     Medium:
     10:
     0.533,0.521,0.102,0.086,0.000:
0000
0000
0000
0000
,
0000
0000
0000
0000
,
0000
0000
0000
0000
,
0000
0000
0000
0000
,
1000
0010
1000
0010
0000
0100
0010
0100
,
0000
0001
0100
0001
0000
1000
0100
1000
,
0000
0100
0010
0100
0000
0010
0001
0010
,
2000
0000
0000
0000
,
3010
0000
1100
0000
0100
0000
0010
0100
,
0000
0010
0000
0001
0000
1000
0100
0010
,
0001
0000
1100
0000
0010
0000
0100
0010
,
0000
0001
0000
0010
0000
1000
0100
0010
,
0001
0000
0011
0000
0100
0000
1000
0100
,
0000
0010
0000
0001
0000
0100
1000
0100
,
1000
0000
0011
0000
1000
0000
0100
1000
,
0000
0010
0000
0001
0000
1000
0001
1000
,
0001
0000
1000
0100
0010
0100
0010
0100
,
0010
0000
1000
0001
0000
0100
0000
0010
,
0000
0000
0001
1000
0001
1000
0100
0010
,
0001
0000
0100
0010
0000
0001
0000
1000
,
0000
1000
0100
0010
,
0001
0000
0010
0000
0100
0000
1000
0020
,
0000
1000
0000
0000
0000
0000
1030
0020
,
0000
0100
0000
0000
0000
0000
0000
0000
,
1030
0000
0100
0010
0001
0100
0010
0100
,
0010
0000
1000
0100
0000
0001
0100
1000
,
0000
0000
1000
0100
0010
0100
0010
0100
,
0010
0000
1000
0100
0000
0001
1000
0001
,
0000
1000
0100
0010
,
0001
0000
1000
0000
0100
0000
0001
2000
,
0000
0001
0000
0000
0000
0000
0000
3020
,
0000
0100
0000
0000
0000
0000
0000
0030
,
1000
0100
0010
0001
0100
0010
0001
0100
,
0000
1000
0001
1000
0001
1000
0001
1000
,
0000
0100
0010
0100
0010
0100
0010
0100
,
0000
0010
0001
0010
0001
0010
0001
0010
,
0000
1000
0001
1000
0001
1000
0001
1000
,
0000
0010
0100
0010
0100
0010
0100
0010
,
0000
1000
0100
1000
0100
0010
0100
0010
,
0000
0001
0010
0100
0001
0100
0010
0100
,
0000
1000
0100
1000
0100
0010
0100
0010
,
0000
0001
0010
0100
0010
0100
0010
0100
,
0000
1000
0100
0010
1000
0010
0100
0010
,
0000
0100
0001
0100
0001
0100
0010
0100
,
0000
0010
0001
0010
0100
1000
0100
0010
,
0000
0100
0010
0100
0010
1000
0100
0010
,
0000
0100
0001
0100
1000
0100
0010
0001
,
0000
1000
0100
0010
0000
1000
0100
0000
,
1001
0000
0011
0000
0010
0000
0001
1000
,
0000
0010
0000
0001
0000
1000
0100
0010
,
0001
0000
1100
0000
0010
0000
0100
1000
,
0000
0010
0000
0001
0000
0100
0010
0001
,
0100
0000
0011
0000
0100
0000
1000
0100
,
0000
0010
0000
0001
0000
1000
0001
1000
,
0001
0000
1010
0000
0100
0000
0010
0001
,
0000
0100
0000
0010
0000
1000
0100
0000
,
0110
0000
1000
0100
0010
0100
0010
0100
,
0010
0000
1000
0001
0000
1000
0001
0100
,
0000
0000
0010
0001
0010
1000
0100
0010
,
0001
0000
1000
0001
0000
1000
0010
0100
,
0000
1100
0100
0010
,
0001
0000
0100
0000
0010
0000
0100
0020
,
0000
1000
0000
0000
0000
0000
0000
0230
,
0000
0010
0000
0000
0000
0000
0000
0300
,
0001
1000
0001
1000
0001
1000
0001
1000
,
0000
0010
0100
0010
0100
0010
0100
0010
,
0000
1000
0001
1000
0001
1000
0001
1000
,
0000
0001
0100
0001
0100
0001
0100
0001
,
0000
1000
0010
1000
0010
1000
0010
1000
,
0000
0010
0100
0010
0100
0010
0100
0010
,
0000
0100
0001
0100
0001
0100
0001
0100
,
0000
0010
1000
0010
1000
0010
1000
0010
,
0000
1000
0001
1000
0000
0100
0010
0100
,
0000
0010
0001
0010
0000
1000
0001
1000
,
0000
0100
0010
0100
0000
0010
0001
0010
,
0000
1000
0001
1000
0000
0100
0010
0100
,
0000
0010
0001
0010
0000
0100
0001
0100
,
0000
0010
0001
0010
0000
1000
0001
1000
,
0000
0010
0100
0010
0000
1000
0010
0000
,
2002
0000
0000
3003
,
1001
0000
0100
0000
0010
0000
1000
0010
,
1000
0000
0000
0000
0000
1000
0100
0010
,
0001
0000
0100
0000
0010
0000
1000
0001
,
0000
0000
0000
1000
0000
1000
0100
0010
,
0001
0000
0100
0000
0010
0000
0001
0010
,
0000
1000
0000
0100
0000
0010
1000
0010
,
1000
0000
0100
0000
0010
0000
0001
1000
,
0002
1000
1000
0100
,
2000
0000
0000
0000
,
0000
3003
0000
0000
0000
0000
0000
0000
0000
0000
0000
0000
0000
0000
0000
0000
0000
0000
0000
0000
0000
0000
0000
0000
0000
0000
0000
0000
0000
0000
0000
0000
0000
0000
0000
0000
0000
0000
0000
0000
0000
0000
0000
0000
0000
0000
0000
0000
0000
0000
0000
0000
0000
0000
0000
0000
0000
0000
0000
0000
0000
0000
0000
0000
0000
0000
0000
0000
0000
0000
0000
0000
0000
0000
0000
0000
0000
0000
0000
0000
0000
0000
0000
0000
0000
0000
0000
0000
0000
0000
0000
0000
0000
0000
0000
0000
0000
0000
0000
0000
0000
0000
0000
0000
0000
0000
0000
0000
0000
0000
0000
0000
0000
0000
0000
0000
0000
0000
0000
0000
0000
0000
0000
0000
0000
0000
0000
0000
0000
0000
0000
0000
0000
0000
0000
0000
0000
0000
0000
0000
0000
0000
0000
0000
0000
0000
0000
0000
0000
0000
0000
0000
0000
0000
0000
0000
0000
0000
0000
0000
0000
0000
0000
0000
0000
0000
0000
0000
0000
0000
0000
0000
0000
0000
0000
0000
0000
0000
0000
0000
0000
0000
0000
0000
0000
0000
0000
0000
0000
0000
0000
0000
;

//---------------dance-single - ----------------
#NOTES:
     dance-single:
     :
     Easy:
     7:
     0.377,0.417,0.117,0.156,0.000: // measure 1
0000
0000
0000
0000
,  // measure 2
0000
0000
0000
0000
,  // measure 3
0000
0000
0000
0000
,  // measure 4
0000
0000
0000
0000
,  // measure 5
2000
0000
0000
0000
,  // measure 6
3200
0000
0000
0000
,  // measure 7
0320
0000
0000
0000
,  // measure 8
0002
0000
0000
0000
,  // measure 9
0033
1000
0001
1000
,  // measure 10
0100
0000
0010
0000
0100
0000
0001
1000
,  // measure 11
0001
0100
0010
1000
,  // measure 12
0100
0000
0010
0000
0001
0000
1000
0001
,  // measure 13
1000
0100
0010
0001
,  // measure 14
0100
0000
0010
0000
0001
0000
1000
0001
,  // measure 15
1000
0100
0010
0001
,  // measure 16
1000
0001
0100
0010
,  // measure 17
1000
0100
0010
0100
,  // measure 18
0001
0000
0000
1000
0000
0100
0000
0010
,  // measure 19
0000
1000
0100
0010
,  // measure 20
1000
0000
0000
0100
0000
0010
0000
0001
,  // measure 21
0000
1000
1000
1000
,  // measure 22
0001
0000
0001
0000
0001
0000
1000
0001
,  // measure 23
0000
2000
0000
0000
0000
3000
0001
1000
,  // measure 24
0000
0002
0000
0000
0000
0000
0000
0003
,  // measure 25
0000
0000
1000
0010
0100
0000
0010
0000
,  // measure 26
0100
0000
1000
0001
0000
0100
0000
0010
,  // measure 27
0000
1000
0100
0010
,  // measure 28
0001
0000
1000
0001
0000
0100
0000
0010
,  // measure 29
0000
1000
1000
1000
,  // measure 30
1000
0000
0100
0000
0100
0000
0010
0100
,  // measure 31
0000
2000
0000
0000
0000
0000
3000
0100
,  // measure 32
0000
0002
0000
0000
0000
0000
0000
0000
,  // measure 33
2003
0000
0000
0000
,  // measure 34
3200
0000
0000
0000
,  // measure 35
0320
0000
0000
0000
,  // measure 36
0032
0000
0000
0000
,  // measure 37
1003
0100
0100
0100
,  // measure 38
0100
0100
0010
0010
,  // measure 39
0001
1000
0001
0100
,  // measure 40
0010
1000
0100
0010
,  // measure 41
1001
0100
0010
0001
,  // measure 42
1100
0100
0010
0001
,  // measure 43
1001
0100
0010
0001
,  // measure 44
0100
0001
1000
0001
,  // measure 45
0101
0010
0001
0010
,  // measure 46
1100
0100
0010
0001
,  // measure 47
0011
0100
0001
0100
,  // measure 48
2002
0000
0000
3003
,  // measure 49
1001
0100
0010
1000
,  // measure 50
0001
0000
0100
0000
0010
0000
0001
1000
,  // measure 51
0001
0100
1000
0100
,  // measure 52
0001
0000
0100
0000
0010
0000
0100
0010
,  // measure 53
0100
1000
0100
0010
,  // measure 54
0001
0000
1000
0000
0010
0000
0010
0100
,  // measure 55
0010
1000
0100
0001
,  // measure 56
0100
0000
0010
0000
0001
0000
1000
0001
,  // measure 57
1000
0100
0010
0100
,  // measure 58
0001
0000
1000
0001
0000
0100
0000
0010
,  // measure 59
0000
1000
0100
0010
,  // measure 60
0001
0000
1000
0001
0000
0100
0000
0010
,  // measure 61
0000
1000
0100
0010
,  // measure 62
0001
0000
1000
0000
0100
0000
0010
0001
,  // measure 63
0000
2000
0000
0000
0000
0000
0000
3001
,  // measure 64
0000
0200
0000
0000
0000
0000
0000
0000
,  // measure 65
0310
1000
0100
0010
,  // measure 66
0001
0100
1000
0100
,  // measure 67
0010
0001
0100
0001
,  // measure 68
1000
0010
0001
0100
,  // measure 69
1000
1000
0110
0100
,  // measure 70
0100
0100
0011
0100
,  // measure 71
0100
1000
1100
0100
,  // measure 72
0010
0001
0101
0001
,  // measure 73
0100
0010
0100
0100
,  // measure 74
0100
0100
1000
0100
,  // measure 75
0010
0001
1000
0001
,  // measure 76
1000
0100
0010
0001
,  // measure 77
1000
0100
0010
0001
,  // measure 78
1000
0100
0010
0001
,  // measure 79
1000
0100
0010
0001
,  // measure 80
2002
0000
0000
3003
,  // measure 81
1001
0100
0010
1000
,  // measure 82
0001
0000
0000
0000
0000
1000
0001
1000
,  // measure 83
0001
0000
0100
0000
0010
0000
1000
0001
,  // measure 84
0000
0000
0000
1000
0000
1000
0001
1000
,  // measure 85
0001
0000
0100
0000
0010
0000
0100
0010
,  // measure 86
0000
1000
0000
0100
0000
0010
1000
0010
,  // measure 87
1000
0000
0100
0000
0010
0000
1000
0001
,  // measure 88
0000
1000
0000
0001
0000
1000
0000
0000
,  // measure 89
2002
0000
0000
0000
,  // measure 90
3003
0000
0000
0000
;

//---------------dance-single - ----------------
#NOTES:
     dance-single:
     :
     Beginner:
     3:
     0.175,0.209,0.008,0.219,0.000: // measure 1
0000
0000
0000
0000
,  // measure 2
0000
0000
0000
0000
,  // measure 3
0000
0000
0000
0000
,  // measure 4
0000
0000
0000
0000
,  // measure 5
2000
0000
0000
0000
,  // measure 6
3002
0000
0000
0000
,  // measure 7
0203
0000
0000
0000
,  // measure 8
0320
0000
0000
0000
,  // measure 9
0030
0000
0000
0000
,  // measure 10
1000
0000
0000
0001
,  // measure 11
0001
0000
0000
0000
,  // measure 12
0100
0000
0000
0010
,  // measure 13
0010
0000
0000
0000
,  // measure 14
1000
0000
0000
1000
,  // measure 15
1000
0000
0000
0000
,  // measure 16
0010
0000
0000
0100
,  // measure 17
0100
0000
0000
0000
,  // measure 18
1000
0000
1000
1000
,  // measure 19
1000
0000
0000
0000
,  // measure 20
0001
0000
0001
0001
,  // measure 21
0001
0000
0100
0000
,  // measure 22
0010
0000
0100
0000
,  // measure 23
2000
0000
0000
0000
,  // measure 24
3000
0000
0000
0000
,  // measure 25
1000
0000
1000
0000
,  // measure 26
0010
0000
0000
0000
,  // measure 27
0001
0000
0001
0000
,  // measure 28
0100
0000
0000
0000
,  // measure 29
1000
0000
1000
0000
,  // measure 30
1000
0000
0001
0000
,  // measure 31
0001
0000
0001
0000
,  // measure 32
0100
0000
0100
0000
,  // measure 33
0200
0000
0000
0000
,  // measure 34
2300
0000
0000
0000
,  // measure 35
3002
0000
0000
0000
,  // measure 36
2003
0000
0000
0000
,  // measure 37
3020
0000
0000
0000
,  // measure 38
0230
0000
0000
0000
,  // measure 39
0302
0000
0000
0000
,  // measure 40
2003
0000
0000
0000
,  // measure 41
3001
0000
0001
0000
,  // measure 42
0001
0000
0000
0000
,  // measure 43
1000
0000
1000
0000
,  // measure 44
1000
0000
0000
0000
,  // measure 45
0010
0000
0010
0000
,  // measure 46
0010
0000
0000
0000
,  // measure 47
1000
0000
1000
0000
,  // measure 48
2000
0000
0000
0000
,  // measure 49
3001
0000
0001
0000
,  // measure 50
1000
0000
0000
0001
,  // measure 51
0001
0000
0000
0000
,  // measure 52
0100
0000
0000
1000
,  // measure 53
1000
0000
0000
0000
,  // measure 54
0001
0000
0000
0010
,  // measure 55
0010
0000
0000
0000
,  // measure 56
1000
0000
0000
0000
,  // measure 57
1000
0000
0100
0000
,  // measure 58
1000
0000
1000
1000
,  // measure 59
1000
0000
0001
0000
,  // measure 60
0010
0000
0001
0001
,  // measure 61
0001
0000
1000
0000
,  // measure 62
0100
0000
0010
0000
,  // measure 63
0002
0000
0000
0000
,  // measure 64
2003
0000
0000
0000
,  // measure 65
3002
0000
0000
0000
,  // measure 66
0203
0000
0000
0000
,  // measure 67
0320
0000
0000
0000
,  // measure 68
2030
0000
0000
0000
,  // measure 69
3002
0000
0000
0000
,  // measure 70
0203
0000
0000
0000
,  // measure 71
0320
0000
0000
0000
,  // measure 72
2030
0000
0000
0000
,  // measure 73
3001
0000
0001
0000
,  // measure 74
1000
0000
1000
0000
,  // measure 75
0010
0000
0010
0000
,  // measure 76
0001
0000
0001
0000
,  // measure 77
1000
0000
1000
0000
,  // measure 78
0001
0000
0001
0000
,  // measure 79
0100
0000
0100
0000
,  // measure 80
2002
0000
0000
0000
,  // measure 81
3003
0000
1000
0000
,  // measure 82
0001
0000
0000
1000
,  // measure 83
1000
0000
0010
0000
,  // measure 84
0100
0000
0000
0001
,  // measure 85
0001
0000
1000
0000
,  // measure 86
0010
0000
0000
1000
,  // measure 87
1000
0000
0010
0000
,  // measure 88
2000
0000
0000
0000
,  // measure 89
0002
0000
0000
0000
,  // measure 90
3003
0000
0000
0000
;
