#TITLE:あっちでこっちで;
#SUBTITLE:あっちこっち OP;
#ARTIST:あっち<=>こっち;
#TITLETRANSLIT:Acchi de Kocchi de;
#SUBTITLETRANSLIT:Acchi Kocchi OP;
#ARTISTTRANSLIT:Acchi<=>Kocchi;
#GENRE:CONFUSION POP;
#CREDIT:;
#BANNER:Acchi de Kocchi de.png;
#BACKGROUND:Acchi de Kocchi de-bg.png;
#LYRICSPATH:;
#CDTITLE:cdtitle.png;
#MUSIC:Acchi de Kocchi de.mp3;
#MENUCOLOR:0.625,1,0,1;
#METERTYPE:DDR X;
#OFFSET:3.169;
#SAMPLESTART:58.487;
#SAMPLELENGTH:12.000;
#LASTBEATHINT:3.796;
#SELECTABLE:YES;
#BPMS:0.000=105.000
,24.000=419.998
,75.500=210.000
,140.000=52.500
,152.000=105.000
,164.000=420.000
;
#STOPS:72.000=0.071,
72.500=0.071,
73.000=0.071,
73.500=0.143,
74.500=0.143,
75.500=1.143,
358.000=0.143,
361.000=0.143,
365.000=0.143
;
#BGCHANGES:;
#KEYSOUNDS:;
#ATTACKS:;

//---------------dance-single - ----------------
#NOTES:
     dance-single:
     :
     Challenge:
     19:
     1.000,1.000,0.821,1.000,0.458,568.000,77.000,104.000,0.000,0.000,0.000,1.000,1.000,0.821,1.000,0.458,568.000,77.000,104.000,0.000,0.000,0.000:
0000
0000
0000
0000
,
0000
0000
0000
0000
,
1010
0010
0001
1000
0110
0010
0100
0001
0101
0100
1000
0010
0110
0001
0100
1000
,
1010
0010
1000
0010
0110
1000
0010
0001
0101
0010
0001
0100
0110
0001
0100
1000
,
1010
1000
0001
0010
0110
1000
0001
0100
0010
0100
0110
0000
0000
0000
0000
0000
,
2000
0100
0000
0010
0000
0001
0000
0100
3020
0000
0100
0000
0001
0000
0100
0000
,
0130
0000
0001
0000
0100
0000
0010
0000
0100
0001
0100
0000
0010
0000
0100
0000
,
0010
0100
0001
0100
0010
0100
0001
0000
,
1000
0010
1000
0000
0010
0000
1000
0000
0010
0000
1000
0000
0010
0000
1000
0000
,
0010
1000
0010
0000
1000
0000
0010
0000
1000
0000
0010
0000
1000
0000
0000
0000
,
0010
0000
1000
0000
0010
0000
0100
0000
0010
1000
0010
0000
0100
0000
0010
0000
,
1000
0010
0100
0010
1000
0010
0100
0000
,
0100
0001
0100
0000
0100
0000
0001
0000
0100
0000
0001
0000
0100
0000
0001
0000
,
0100
0001
0100
0000
0001
0000
0100
0000
0001
0000
0100
0000
0001
0000
0000
0000
,
1000
0100
1000
0000
0010
0000
1000
0000
0100
0000
1000
0000
0010
0000
1000
0000
,
0100
1000
0010
1000
0100
1000
0010
0000
,
0001
1000
0001
0000
1000
0000
0001
0000
1000
0000
0001
0000
1000
0000
0001
0000
,
1000
0001
1000
0000
0001
0000
1000
0000
0001
0000
1000
0000
0001
0000
0000
0000
,
0010
0110
0010
0110
0000
0110
0000
1001
,
0110
0000
2001
0010
0100
0001
3020
2000
,
3000
0200
0300
0001
2030
0001
3200
0001
,
0010
1000
2000
0300
3200
1000
0020
0000
,
0000
0000
0030
0001
1000
0010
0001
1000
,
0320
0001
0100
0100
2000
0000
3000
0032
,
1000
0100
1000
0010
0200
0003
0310
0000
,
1001
0100
0010
0101
0100
1100
0100
0011
,
0100
0010
1000
0001
0100
0010
0001
0000
1001
0000
0010
0100
0010
0100
0010
0000
,
0000
0000
2000
0001
0100
0001
3020
0001
,
1000
0100
0001
1000
0230
0010
0010
0001
,
1000
1000
0001
0001
0010
0010
2000
0000
,
0000
0000
0000
3000
0320
1000
0001
0100
,
1000
1000
0100
1000
0001
0001
0100
2000
,
0030
0100
0001
0010
0001
0100
0001
3100
,
0110
0110
0110
0110
0110
0110
0001
1001
,
0000
0000
0200
0320
,
2030
0000
0001
0000
0100
0000
0000
0020
0000
0000
0000
3000
0001
0000
0100
0000
0002
0000
0030
0000
0100
0000
0000
0020
0000
0003
0000
0000
0100
0000
0001
0100
,
2030
0000
0000
0000
0002
0000
0000
3000
0200
0000
0000
0003
0020
0000
0000
0300
2000
0000
0000
0030
0200
0000
0000
3000
0002
0000
0000
0300
0020
0000
0033
0000
0022
0000
0000
0000
0000
0000
0033
0000
2200
0000
0000
0000
0000
0000
3300
0000
0220
0000
0000
0000
0000
0000
0000
0000
0030
0000
0000
0000
1000
0000
0001
0000
,
2000
0300
0200
0300
0020
0030
0002
0003
0020
0030
0200
3300
1100
0100
0110
0010
0022
0030
0200
0300
2000
3000
0200
0300
0020
0030
0200
0303
0011
0010
0110
0100
,
2100
0100
0010
0010
0001
0001
0010
0010
,
3002
0010
0100
1000
0100
0010
0100
0013
,
1100
0000
0001
0000
0010
0000
0001
0000
0011
0000
0001
0000
0100
0000
1000
0000
0101
0000
0100
0000
1100
0000
0010
0000
0010
0100
0010
0100
0010
0001
0010
0001
,
1000
0010
0001
0100
0010
1000
0100
0001
,
0010
0000
0100
0000
1000
0001
1000
0000
0001
0000
0100
0000
1000
0000
0000
0000
,
0011
1100
1010
0101
,
0002
0000
1000
0000
0103
0000
1000
0100
2000
0000
0010
0000
3001
0000
0000
0000
,
1000
0010
1000
0100
0001
1000
0010
0001
,
0200
0000
0001
0000
1300
0000
0010
0100
0020
0000
1000
0000
0031
0000
1000
0000
,
0001
0011
0100
1000
,
0010
0000
0001
0100
0020
0000
0002
0000
,
0000
0003
0200
0300
,
2000
3000
0002
0003
,
0200
0300
0031
0000
0010
0000
0210
0000
,
0001
1000
0001
0320
,
0001
1000
0032
0000
,
0023
0000
0230
0300
,
0100
1000
0100
0000
1010
0000
0001
0010
,
0001
0011
1001
0000
,
0010
0000
0100
0000
0010
0000
0100
0000
0001
0000
0010
0001
0010
0000
1000
0000
,
0200
0010
1300
0001
2000
0100
3001
0000
,
1000
0001
1000
0001
0100
0010
0100
1000
,
0020
0000
0100
0000
1030
0000
0001
0010
0002
0000
0010
0000
1003
0000
0000
0000
,
0010
0100
0010
0100
0010
0100
0010
0001
,
2000
0000
0001
0000
3100
0000
0001
0010
0002
0000
1000
0000
0103
0000
0000
0000
,
0001
0011
0012
0100
,
1003
0000
0010
1000
0100
0010
0002
0000
,
0100
0100
0010
0100
,
0200
0300
0020
0033
,
2200
0300
0100
3100
,
0220
0030
0010
0310
,
0022
0003
0001
0031
,
0202
0300
0100
0103
,
0220
0030
0010
0310
,
2020
0000
3000
1000
1000
1000
1030
0000
,
2002
0000
0003
0000
,
0200
0000
0300
0000
,
0020
0000
0030
0000
,
0002
0000
3003
0000
,
0202
0000
0300
1000
,
0010
0100
0013
0000
,
2020
0000
3000
0001
,
0001
1000
0031
0000
,
0110
0000
0011
0000
,
1100
0000
0100
0000
,
1000
0001
1000
0000
0010
0000
0100
0000
0010
0100
0010
0000
0100
0000
0010
0000
,
1000
0001
1000
0000
0010
0000
0100
0010
0100
0000
1000
0000
0100
0010
0200
0000
,
0020
0000
0000
0000
,
0000
0000
0030
0001
,
1000
0010
1000
0010
,
0001
1000
0301
0000
,
1001
1001
1001
0110
,
0110
0110
0110
0011
,
1100
0011
0011
1100
;

//---------------dance-single - ----------------
#NOTES:
     dance-single:
     :
     Hard:
     18:
     0.927,1.000,0.981,0.917,0.171,431.000,92.000,86.000,0.000,0.000,0.000,0.927,1.000,0.981,0.917,0.171,431.000,92.000,86.000,0.000,0.000,0.000:
0000
0000
0000
0000
,
0000
0000
0000
0000
,
0110
0000
0010
0000
1010
0000
1000
0000
1001
0000
1000
0100
1010
0100
0010
0000
,
0110
0000
0010
0000
1010
0000
1000
0000
1001
0000
1000
0000
1010
0001
0010
1000
,
0110
0000
0010
0000
1010
0000
0000
1010
0000
0000
1010
0000
0000
0000
0000
0000
,
1000
1200
0000
0310
0000
0011
0000
1000
1020
0000
1000
0000
0001
0000
1030
0000
,
1000
0001
1000
0010
1000
0100
0001
1000
,
0001
0100
1000
0001
1000
0100
0001
0000
,
1000
0100
1000
0000
0001
0010
0001
0000
,
0010
1000
0100
0000
0010
0001
0100
0000
,
0001
1000
0001
0100
0001
0100
1000
0001
,
1000
0100
0001
1000
0001
0100
1000
0000
,
0010
0001
0010
0000
0100
1000
0100
0000
,
1000
0100
0010
0000
0001
0010
0100
0000
,
0100
0010
0100
0001
0100
1000
0010
0100
,
0010
0000
0100
0010
0100
0000
0010
0000
,
1000
0100
0001
0000
0001
0100
1000
0000
,
1000
0010
0001
0000
0001
0010
1000
0000
,
1000
0100
0010
0011
0000
1100
0000
0101
,
1010
0000
1200
0000
2300
0000
3010
0200
,
0000
2300
0000
3001
0100
0000
1100
0000
,
0021
0130
1200
0320
,
0000
1030
1100
0011
,
1200
0000
0300
0000
0021
0000
0000
0032
,
0000
1003
0000
0010
2010
0000
3010
0000
,
1000
0100
0010
0001
0100
0010
1000
0010
,
0001
0100
1000
0001
0101
0000
1100
0000
,
1010
0000
0201
0000
1300
0000
0100
0002
,
0000
0103
0000
0010
0200
0000
1300
0000
,
0011
1010
1100
0200
,
0000
0000
0000
0300
0001
0000
0201
0000
,
1300
0000
1200
0000
0301
0000
0001
0201
,
0000
0301
0000
1000
0002
0000
1003
0000
,
1000
1000
0100
0100
0010
0010
0000
1001
,
0000
0000
2000
3002
,
0203
0000
0000
0000
1300
0000
0000
0020
0000
0000
0000
0000
0031
0000
1000
0000
0002
0000
0000
0000
2003
0000
0000
3020
0000
0000
0000
0000
1030
0000
1001
1010
,
0110
0000
0011
0000
1000
0000
0010
0000
0100
0000
1100
0000
1001
0000
0110
0000
0012
0000
0000
0000
0203
0000
0000
0000
2300
0000
0000
0000
3001
0000
1001
1100
,
0110
2000
3020
0032
0023
1030
1100
1010
0012
2003
3200
2300
3020
1030
0011
1010
,
1200
1000
0010
0010
0001
0001
0010
0010
,
0302
0010
0010
0100
0100
1000
1000
0013
,
1100
0000
0010
0010
0011
0000
0100
0100
1100
0000
0110
0000
0011
0010
0110
0100
,
1100
0000
1000
0100
1000
0100
1000
0001
,
0100
1000
0100
0000
0100
1000
0100
0000
,
0002
0000
0203
0000
0320
0000
1030
0001
,
1000
0100
1000
0000
1000
0100
1000
0000
,
0010
0001
0010
0001
0010
0001
0010
0000
,
0001
0010
0001
0000
0001
0010
0001
0000
,
0001
0011
1000
1100
,
0000
0010
1200
0002
,
0000
0300
2000
0003
,
0200
3000
0002
0300
,
2003
3002
0023
2030
,
0000
3001
0100
0200
,
0000
0002
0000
0300
,
0020
0003
0032
0000
,
1003
1100
1010
0001
,
0001
1010
0101
0000
,
1000
0100
1000
0100
0010
0001
0010
0000
,
0001
0010
0001
0000
0010
0001
0010
0000
,
0001
0010
0001
0010
0100
1000
0100
0000
,
1000
0100
1000
0000
0100
1000
0100
0000
,
1000
0001
1000
0001
1000
0001
1000
0000
,
0001
1000
0001
0000
1000
0001
1000
0000
,
0001
0011
2000
0000
,
3100
0010
1000
0022
,
0030
1000
0023
0000
,
0032
0000
0023
0030
,
1200
0000
1000
0300
,
2010
0000
0010
3000
,
0021
0000
0001
0030
,
1002
0000
1000
0003
,
2010
0000
0010
3000
,
0120
0000
0100
0030
,
0202
0000
0000
0303
,
2020
0000
0000
3030
,
0022
0000
0000
0033
,
2200
0000
0000
3300
,
2002
0000
3000
0000
,
0010
0000
0020
0033
,
0220
0000
0300
0000
,
0001
0000
0002
0033
,
1010
0000
0010
0000
,
1010
0000
1000
0000
,
1000
0100
1000
0100
1000
0100
1000
0000
,
0010
0001
0010
0001
0010
0001
0010
0100
,
2000
0000
0000
0000
,
3002
0000
0000
0000
,
0103
0000
0110
0000
,
0001
0000
1001
0000
,
0001
0001
0101
1000
,
1000
1010
0010
0011
,
0100
1100
0001
1000
;

//---------------dance-single - ----------------
#NOTES:
     dance-single:
     :
     Beginner:
     9:
     0.312,0.782,0.085,0.309,0.000,168.000,8.000,29.000,0.000,0.000,0.000,0.312,0.782,0.085,0.309,0.000,168.000,8.000,29.000,0.000,0.000,0.000:
0000
0000
0000
0000
,
0000
0000
0000
0000
,
1000
1000
0001
0001
,
0100
0100
0010
0010
,
0000
0000
0110
0000
0000
0100
0000
0000
,
0010
1000
0100
0010
,
1000
0000
0100
0000
,
0010
0000
0001
0000
,
0010
0000
0010
0000
,
0100
0000
0100
0000
,
0001
0000
0010
0000
,
0100
0000
1000
0000
,
0100
0000
0100
0000
,
0010
0000
0010
0000
,
1000
0000
1000
0000
,
0100
0000
0100
0000
,
0010
0000
0010
0000
,
0001
0000
0001
0000
,
1000
0000
0001
0000
0000
1000
0000
0001
,
1000
0000
0100
0000
,
0010
0010
0010
0000
,
1000
1000
1000
2000
,
0000
0000
0000
0000
,
3001
0000
0001
0000
,
0001
0001
0001
0000
,
0100
0100
0100
0000
,
0010
0010
0010
0000
,
1000
0000
1000
0000
,
0100
0000
0010
0000
,
0001
0001
0001
0002
,
0000
0000
1003
0000
,
1000
0000
1000
0000
,
0100
0100
0100
0000
,
0010
0000
0000
0000
0010
0000
0000
0001
,
0000
0000
1000
0001
,
2000
3200
0320
0032
,
2003
3200
0320
0032
,
2003
3200
0320
0032
,
1003
0100
0010
0010
,
0001
1000
0100
0010
,
1001
0110
1001
0000
,
1001
0000
0000
0000
,
0100
0000
0000
0000
,
0010
0000
0010
0000
,
0010
0000
0000
0000
,
1001
0000
0000
0000
,
0010
0000
0000
0000
,
0100
0000
0100
0000
,
0100
0000
0000
0000
,
1000
0000
0100
0000
,
0010
0000
0001
0000
,
2000
0000
0000
0000
,
3001
0000
0000
0000
,
0001
0000
0010
0000
,
0100
0000
1000
0000
,
0001
0000
0001
0000
,
1000
0000
0000
0000
,
1001
0000
0100
0000
,
0010
0000
0000
0000
,
0010
0000
0010
0000
,
0010
0000
0000
0000
,
1001
0000
0010
0000
,
0100
0000
0000
0000
,
0100
0000
0100
0000
,
0100
0000
0000
0000
,
1000
0000
0100
0000
,
0010
0000
0001
0000
,
2000
0000
0000
0000
,
3200
0000
0000
0000
,
0320
0000
0000
0000
,
0032
0000
0000
0000
,
0023
0000
0000
0000
,
0230
0000
0000
0000
,
1300
0000
0000
0000
,
2000
0000
0000
0000
,
3200
0000
0000
0000
,
0320
0000
0000
0000
,
0032
0000
0000
0000
,
0000
0000
0000
0000
,
2003
0000
0000
0000
,
0000
0000
0000
0000
,
3200
0000
0000
0000
,
0000
0000
0000
0000
,
0320
0000
0000
0000
,
0000
0000
0000
0000
,
0032
0000
0000
0000
,
0000
0000
0000
0000
,
1003
0000
0000
0000
,
1000
0000
0000
0000
,
1000
0000
0001
1000
,
0000
0001
0000
1000
,
0000
0001
1000
0001
;

//---------------dance-single - ----------------
#NOTES:
     dance-single:
     :
     Medium:
     15:
     0.728,1.000,0.533,0.863,0.107,347.000,50.000,81.000,0.000,0.000,0.000,0.728,1.000,0.533,0.863,0.107,347.000,50.000,81.000,0.000,0.000,0.000:
0000
0000
0000
0000
,
0000
0000
0000
0000
,
2000
3100
0002
0103
,
2010
3010
0002
0013
,
1010
0000
0110
0000
0000
0110
0000
0000
,
0100
2000
0000
3010
0000
0011
0000
0100
0020
0000
0130
0000
0001
0000
0100
0000
,
0100
0001
0100
0000
0100
0000
0001
0000
,
0001
0100
0100
0001
,
0100
0100
0001
0001
,
0010
0010
1000
1000
,
0001
0100
0001
0000
0001
0000
0100
0000
,
0100
0001
0001
0100
,
0010
0010
1000
1000
,
0100
0100
0001
0001
,
1000
0010
1000
0000
1000
0000
0010
0000
,
0010
1000
1000
0010
,
0100
0001
0001
0100
,
0100
0001
0001
0100
,
0100
1000
0010
0001
0000
0100
0000
1001
,
0110
0000
2000
0000
3200
0000
0310
0002
,
0000
0203
0000
0301
1000
0000
1000
0000
,
0100
0010
0002
2000
,
3003
0000
1000
0001
,
2002
0000
3003
0000
1100
0000
0000
0002
,
0000
0103
0000
0010
0200
0000
0310
0000
,
1000
0100
1000
0100
0010
0001
0010
0001
,
0100
1000
0100
0001
0001
0000
0100
0000
,
0110
0000
0002
0000
0203
0000
1300
0002
,
0000
2003
0000
3010
0002
0000
0103
0000
,
0011
0001
1100
2000
,
0000
0000
0000
3000
0002
0000
1003
0000
,
0012
0000
0013
0000
2100
0000
3100
0001
,
0000
1000
0000
0100
0002
0000
0103
0000
,
1000
0100
0010
0001
1000
0100
0000
0101
,
0000
0000
0200
0302
,
2003
0000
0000
0000
3200
0000
0000
0000
0000
0000
0000
0000
0301
0000
1000
0000
0001
0000
0000
0000
0100
0000
0000
0020
0000
0000
0000
0000
0000
0000
0031
0000
,
1000
0011
0100
0010
1000
1100
0001
0010
0002
0000
2003
0000
3200
0000
0301
0001
,
1000
0200
0320
0032
0023
0130
1000
0110
0002
0203
2300
3200
0320
0130
0001
0110
,
2100
0100
3010
0000
2001
0001
3010
0000
,
0002
0010
0010
0003
1002
0100
0103
0000
,
1100
0010
0011
1000
1100
1010
0011
1010
,
1100
0000
0100
1000
0100
0000
0100
0000
,
1000
0000
1000
0000
1000
0100
1000
0000
,
0001
2000
3010
0100
,
0100
1000
0100
0000
0100
0000
0100
0000
,
0010
0001
0010
0000
0010
0000
0010
0000
,
0001
0000
0001
0000
0001
0010
0001
0000
,
0001
0001
0100
1100
,
0000
0010
2100
0002
,
0000
3000
0200
0003
,
2000
0300
3002
0000
,
0203
0000
0302
0203
,
0000
0300
0000
2001
,
0000
0000
0002
3000
,
0023
0000
0032
0000
,
0103
1000
0110
0001
,
0000
0100
1001
0000
,
0100
1000
0100
0000
0010
0000
0010
0000
,
0001
0010
0001
0000
0010
0000
0010
0000
,
0001
0010
0001
0000
1000
0000
1000
0000
,
0100
1000
0100
0000
1000
0000
1000
0000
,
0100
0001
0100
0000
0100
0000
0100
0000
,
0001
0000
0001
0000
0100
0001
0100
0000
,
0001
0011
0200
0000
,
1300
0000
0001
0022
,
0030
0203
0320
0000
,
0032
0000
0013
0000
,
2100
0000
3100
0000
,
0210
0000
0310
0000
,
0021
0000
0031
0000
,
0102
0000
0103
0000
,
0210
0000
0310
0000
,
1020
0000
1030
0000
,
2002
0000
0003
0000
,
0020
0000
3000
0000
,
0002
0000
0030
0000
,
0200
0000
0003
0000
,
0002
0000
0300
0000
,
0013
0000
0010
0000
,
1020
0000
0000
0000
,
0001
0000
0031
0000
,
0010
0000
0010
0000
,
0100
0000
0100
0000
,
0100
1000
0100
0000
0100
1000
0100
0000
,
0010
0001
0010
0000
0010
0001
0010
0000
,
0200
0000
0000
0000
,
0302
0000
0000
0000
,
1003
0000
1010
0000
,
0001
0000
0101
0000
,
0001
0000
1001
0100
,
0000
0110
0000
0011
,
0000
1100
0001
0100
;

//---------------dance-single - ----------------
#NOTES:
     dance-single:
     :
     Easy:
     13:
     0.553,1.000,0.256,0.522,0.096,290.000,24.000,49.000,0.000,0.000,0.000,0.553,1.000,0.256,0.522,0.096,290.000,24.000,49.000,0.000,0.000,0.000:
0000
0000
0000
0000
,
0000
0000
0000
0000
,
0100
1000
0010
1000
,
0101
0001
0010
0001
,
0101
0000
1001
0000
0000
1001
0000
0000
,
1100
0000
0000
0001
0000
0011
0000
2000
0000
0000
3000
0000
0010
0000
1000
0000
,
1000
1000
1000
0010
,
0010
1000
1000
0000
,
1000
1000
0010
0010
,
0001
0001
0100
0000
,
0010
0010
0010
1000
,
1000
0010
0010
0000
,
0001
0001
0100
0100
,
1000
1000
0010
0000
,
0100
0100
0100
0001
,
0001
0100
0100
0000
,
1000
0010
0010
1000
,
1000
0010
0010
0000
,
0001
0010
0100
1000
0000
0010
0000
0001
,
0010
0000
0100
0000
1000
0000
0001
0020
,
0000
2030
0000
3010
0100
0000
0100
0000
,
1000
0001
0010
0200
,
0000
0300
0000
0000
0100
0000
0010
0000
,
0200
0000
0000
0000
2300
0000
0000
3010
,
0000
1000
0000
0001
1000
0000
0001
0000
,
0100
1000
0100
0000
0001
0010
0001
0000
,
1000
0100
1000
0010
0010
0000
1000
0000
,
1001
0000
0010
0000
1000
0000
0100
0010
,
0000
0200
0000
0301
0010
0000
1000
0000
,
1001
0001
1001
2000
,
0000
3000
0000
0000
0020
0000
0130
0000
,
0020
0000
0031
0000
2000
0000
3100
0010
,
0000
0100
0000
1000
0010
0000
0010
0000
,
0001
1000
0001
1000
0001
1000
0000
1001
,
0000
0000
0100
0010
,
0200
0000
0000
0000
2300
0000
0000
0000
3100
0000
0000
0000
0010
0000
0000
0000
0010
0000
0000
0000
1000
0000
0000
0002
0000
0000
0000
0000
0000
0000
0013
0000
,
0100
0001
1000
0001
1000
0001
1000
0001
0010
0000
0001
0000
2000
0000
0000
3010
,
0100
1000
0001
0010
0001
1000
0100
0001
0000
1000
0100
1000
0001
1000
0010
0001
,
0200
0301
0210
0301
,
0020
0031
0120
1030
,
1100
0011
1100
0011
,
1100
0100
0100
1000
,
0100
0000
0100
0000
,
0010
0100
0001
1000
,
1000
0000
1000
0000
,
0001
0001
0001
0000
,
0010
0000
0010
0000
,
0010
0010
1000
0000
,
0001
0000
1100
0020
,
0000
0000
2030
0000
,
3200
0000
0320
0000
,
2030
0000
3020
2030
,
0000
0000
0000
3200
,
0320
0032
0000
0003
,
0002
0000
0023
0000
,
1030
0100
0001
0010
,
0000
1000
0110
0000
,
1000
1000
0001
0001
,
0010
0000
0001
0000
,
0010
0010
0100
0100
,
1000
0000
0100
0000
,
1000
1000
1000
1000
,
0010
0000
1000
0000
,
0010
0001
2000
0000
,
3100
0000
0010
0001
,
0000
2000
3002
0000
,
0023
0000
0031
0000
,
1200
0000
0000
0000
,
2300
0000
0000
0000
,
3002
0000
0000
0000
,
0023
0000
0000
0000
,
2030
0000
0000
0000
,
3002
0000
0103
0000
,
0210
0000
0000
0000
,
0302
0000
0000
0000
,
0023
0000
0000
0000
,
2030
0000
0000
0000
,
3020
0000
0000
0000
,
0031
0000
0001
0000
,
0102
0000
0000
0000
,
0013
0000
0010
0000
,
0001
0000
0001
0000
,
1000
0000
1000
0000
,
1000
1000
1000
1000
,
0001
0001
0001
0001
,
2000
0000
0000
0000
,
3020
0000
0000
0000
,
0130
0000
0001
0000
,
0010
0000
1010
0000
,
0010
0000
0010
1000
,
0000
0001
0000
0001
,
0000
1100
0010
1000
;
