#TITLE:crossing field;
#SUBTITLE:ソードアート.オンライン OP;
#ARTIST:LiSA;
#TITLETRANSLIT:;
#SUBTITLETRANSLIT:Sword Art Online OP;
#ARTISTTRANSLIT:;
#GENRE:ANIMATION BEAT#0;
#CREDIT:;
#BANNER:crossing field.png;
#BACKGROUND:crossing field-bg.png;
#LYRICSPATH:;
#CDTITLE:cdtitle.png;
#MUSIC:crossing field.mp3;
#MENUCOLOR:0,0,1,1;
#METERTYPE:DDR X;
#OFFSET:0.636;
#SAMPLESTART:45.497;
#SAMPLELENGTH:12.000;
#SELECTABLE:YES;
#BPMS:0.000=179.000
;
#STOPS:
;
#BGCHANGES:;
#KEYSOUNDS:;
#ATTACKS:;

//---------------dance-single - ----------------
#NOTES:
     dance-single:
     :
     Hard:
     13:
     0.537,0.612,0.402,0.051,0.010,321.000,39.000,5.000,0.000,0.000,0.000,0.537,0.612,0.402,0.051,0.010,321.000,39.000,5.000,0.000,0.000,0.000:
0000
0000
0000
0000
,
0000
0000
0000
0000
,
0000
0000
0000
0000
,
0000
0000
0000
0000
,
0000
0000
0000
0000
,
1001
1000
0001
1000
,
0010
0100
0010
0100
,
0010
0000
1000
0000
0100
0000
0001
1001
,
0000
0001
0010
0100
0000
0000
0000
0000
,
1001
1000
1000
0001
,
0001
0000
0001
0100
,
1000
0100
0000
0100
0000
0010
0000
0001
,
0000
1000
0100
0000
1010
0000
0101
0000
,
0110
0000
1000
0100
0000
0010
0100
0001
,
0000
0100
0001
0000
0001
0010
0100
0000
,
1000
0100
0010
0000
0001
1000
0001
0000
,
1000
0000
0001
0000
0010
0000
0001
0000
0010
0000
0100
0000
1000
0100
1000
0000
,
0011
0100
0010
0100
0001
1000
0010
0100
,
0010
0000
0001
0000
1000
1000
0100
0000
,
0010
0100
0010
1000
0001
0010
0001
0100
,
0000
0010
1000
0000
0110
0000
0011
0000
,
0110
0000
1000
0100
0000
0010
1000
0001
,
0000
1000
0100
0000
0001
0100
0001
1000
,
0001
0000
0100
0000
0010
1000
0100
0001
,
0000
1000
0010
0000
0001
1000
0010
0000
,
1001
0100
0010
0001
,
0101
0010
1000
0010
,
1100
0100
0010
1000
,
0011
0100
0001
0100
,
0001
0011
0000
0100
0000
0010
0000
0010
,
0000
1000
0100
0000
0010
0001
0010
1000
,
0100
0001
1000
0001
0100
0010
0100
0001
,
0100
0000
0010
0000
1100
0000
0000
0000
0011
0000
0000
1100
0000
0000
0110
0000
,
1001
0000
0000
0100
0000
0010
0100
0000
,
0010
0000
1000
0000
0001
0001
0001
0000
,
0101
0000
1010
0000
0100
0010
0100
0010
,
0100
0010
0100
0000
0001
1000
0100
0010
,
0002
0000
0100
0000
0010
0000
1003
0010
,
0100
0010
1000
0000
0100
0010
0100
0010
,
0110
0000
0001
0100
0101
0000
1000
0100
,
1100
0000
0010
0100
0101
0000
0010
0100
,
1100
0000
1000
0100
0001
0100
0001
1001
,
0000
0100
0010
0000
1000
0100
0010
0000
,
2100
0010
3100
0001
,
0100
0010
1000
0000
0100
0001
0100
0010
,
0012
0000
0100
0000
0010
0000
1003
0010
,
0100
0010
0100
0000
0100
0010
1000
0001
,
0100
0000
0010
0100
0001
0000
0010
0100
,
1000
0000
1000
0100
0010
0000
0001
1000
,
0001
0000
0100
0010
1000
0100
0001
0100
,
0000
0001
0100
0000
0010
1000
0001
1000
,
1001
0000
0100
0000
0010
0000
0100
0010
,
0100
0000
1000
0000
0100
0001
0000
1000
,
0001
1000
0100
0010
0000
1000
0001
0100
,
0000
0001
0100
0000
0010
1000
0100
0010
,
0101
0000
0100
0010
0000
1000
0001
0100
,
0000
0001
1000
0000
0100
0000
0010
0000
,
0101
0100
0000
0100
0110
0000
1000
1001
,
0000
0100
0101
0000
0100
0010
0100
0010
,
1001
0000
0110
0000
0001
0010
0100
0001
,
0000
0100
0001
0000
1000
0100
0010
0100
,
0001
0000
0100
0000
0010
0100
0001
1000
,
0000
0100
0000
0010
0000
0001
1000
2002
,
0000
0000
0000
0000
,
0000
0000
0000
0000
,
0000
0000
0000
0000
,
3003
0000
0000
0000
;

//---------------dance-single - ----------------
#NOTES:
     dance-single:
     :
     Medium:
     9:
     0.340,0.340,0.072,0.175,0.005,207.000,7.000,17.000,0.000,0.000,0.000,0.340,0.340,0.072,0.175,0.005,207.000,7.000,17.000,0.000,0.000,0.000:
0000
0000
0000
0000
,
0000
0000
0000
0000
,
0000
0000
0000
0000
,
0000
0000
0000
0000
,
0000
0000
0000
0000
,
1001
0100
0010
0001
,
1000
0100
0001
0100
,
1000
0000
0001
0000
0100
0000
0000
0010
,
0000
1000
0001
1000
0000
0000
0000
0000
,
1001
0100
0010
1000
,
0001
0000
0100
0010
,
1000
0001
0000
0100
0000
0010
0000
1000
,
0000
0000
0010
0100
,
1001
0000
0100
0000
0010
0000
0100
0010
,
0000
1000
0001
0100
,
0010
1000
0200
0000
,
0302
0000
1003
0000
,
0100
0010
0000
1000
0000
0100
0000
0001
,
0000
0000
0000
0000
1000
0001
1000
0000
,
0100
0010
0000
0100
0000
0001
0000
2000
,
0000
3001
0100
0001
,
1001
0100
0010
0001
,
0100
0010
1000
0001
,
0100
0010
1000
1000
,
0001
0001
1000
0001
,
2000
0000
0000
0010
,
3020
0000
0000
0100
,
0230
0000
0000
0001
,
0302
0000
0000
0010
,
0013
1000
0000
0100
0000
0010
0000
0001
,
0000
0000
0100
0010
,
1000
0001
0000
0100
0000
0010
0000
0001
,
0000
0000
1000
0000
0010
0000
0000
0000
0100
0000
0000
0010
0000
0000
1000
0000
,
0002
0000
0000
0000
,
2000
0000
3003
0000
,
0110
1000
0100
0010
,
0001
0000
1000
0000
0010
0000
0100
0002
,
0000
0000
0000
0000
0000
0000
1003
0010
,
0000
0100
0000
0010
0000
1000
0000
0010
,
0000
0000
0000
1000
0010
0000
0000
0100
,
0010
0000
0000
0010
0001
0000
0000
0001
,
0010
0000
1000
0100
0000
0010
0000
2000
,
0000
0000
0000
3000
0001
0100
0001
0000
,
2000
0000
0000
0001
,
3001
0000
0100
0000
0010
0000
1000
0001
,
2000
0000
0000
0000
0000
0000
3001
0100
,
0000
0010
0000
1000
0000
0001
0000
0100
,
0000
0000
0010
1000
0010
0000
0000
0100
,
0001
0000
0000
0010
1000
0000
0000
0100
,
0010
0000
0001
0100
0000
0010
0000
2000
,
0000
0000
0000
3000
0001
0000
0100
0000
,
0001
1000
0100
0010
,
1000
0000
0001
0000
0100
0010
0000
2000
,
0000
0000
0000
0000
,
3001
0000
0100
0010
,
0100
0001
0100
0010
,
1000
0100
0010
0001
,
1000
1000
0000
0100
0100
0000
0010
0010
,
0000
0001
0001
0000
1000
0000
0001
0000
,
1001
0000
0100
0000
0010
0100
0000
0001
,
0000
1000
0000
0100
0000
0010
0000
0001
,
0000
0000
1000
0000
0010
0100
0000
0001
,
0000
1000
0000
0100
0000
0010
0000
2002
,
0000
0000
0000
0000
,
0000
0000
0000
0000
,
0000
0000
0000
0000
,
3003
0000
0000
0000
;

//---------------dance-single - ----------------
#NOTES:
     dance-single:
     :
     Easy:
     7:
     0.303,0.340,0.185,0.082,0.000,180.000,18.000,8.000,0.000,0.000,0.000,0.303,0.340,0.185,0.082,0.000,180.000,18.000,8.000,0.000,0.000,0.000:
0000
0000
0000
0000
,
0000
0000
0000
0000
,
0000
0000
0000
0000
,
0000
0000
0000
0000
,
0000
0000
0000
0000
,
1001
0100
0010
0001
,
1000
0100
0010
0001
,
1000
0000
0100
0000
0010
0000
0000
1001
,
0000
0000
0000
1001
0000
0000
0000
0000
,
0110
1000
0100
0010
,
0001
0000
1000
1000
,
0100
0010
0001
1000
,
0001
0000
0100
0010
,
1001
0100
0010
1000
,
0100
0010
0001
1000
,
0010
0100
0001
1000
,
0001
0100
0010
0000
,
1001
0100
0010
0001
,
1000
0000
1000
1000
,
0100
0010
0001
1000
,
0001
0100
0010
0000
,
1001
0100
0010
0001
,
0100
0000
1000
0010
,
0100
0000
0001
1000
,
0001
0000
1001
0000
,
0110
0000
0000
0100
,
0100
0000
0000
0010
,
0010
0000
0000
0001
,
0001
0000
0000
1000
,
1001
0100
0010
0001
,
1000
0100
0001
1000
,
0001
1000
0100
0010
,
1001
0000
0100
0000
,
1001
0000
0000
0100
,
0000
0000
0010
0000
,
1000
0100
0010
0001
,
1000
0010
0100
0001
,
2000
0000
0000
0000
,
3001
0100
0010
1000
,
0001
0000
0001
0000
,
1000
0000
0100
0000
,
0010
0100
0010
1000
,
0001
0000
0100
0010
,
1000
0100
0010
0001
,
0100
0010
1000
0010
,
0002
0000
0000
0000
,
0103
0010
1000
0010
,
0100
0000
0001
0000
,
0010
0000
0100
0000
,
1000
0100
0010
0001
,
1000
0000
0100
0010
,
0100
0001
1000
0100
,
0010
0001
0100
0010
,
2000
0000
3002
0000
,
0203
0000
0320
0000
,
1030
0100
0010
0001
,
0100
0010
1000
0001
,
1001
0000
0000
0110
0000
0000
0011
0000
,
0000
1001
0000
0000
0000
0000
0000
0000
,
0110
1000
0100
0010
,
0001
0100
0010
1000
,
0001
0000
0100
0010
,
1000
0000
0100
0000
0010
0000
0000
2002
,
0000
0000
0000
0000
,
0000
0000
0000
0000
,
0000
0000
0000
0000
,
3003
0000
0000
0000
;

//---------------dance-single - ----------------
#NOTES:
     dance-single:
     :
     Beginner:
     3:
     0.146,0.162,0.103,0.000,0.000,89.000,10.000,0.000,0.000,0.000,0.000,0.146,0.162,0.103,0.000,0.000,89.000,10.000,0.000,0.000,0.000,0.000:
0000
0000
0000
0000
,
0000
0000
0000
0000
,
0000
0000
0000
0000
,
0000
0000
0000
0000
,
0000
0000
0000
0000
,
1000
0000
0100
0000
,
0010
0000
0001
0000
,
0010
0000
0100
0000
,
1000
0000
0000
0000
,
1001
0000
0100
0000
,
0010
0000
0000
0000
,
0001
0000
0100
0000
,
1000
0000
0000
0000
,
1001
0000
0000
0000
,
0010
0000
0000
0000
,
0100
0000
0000
0000
,
1000
0000
0000
0000
,
1001
0000
0100
0000
,
0001
0000
0000
0000
,
0001
0000
0100
0000
,
1000
0000
0000
0000
,
1001
0000
0000
0000
,
1000
0000
0000
0000
,
0100
0000
0000
0000
,
0010
0000
0001
0000
,
1000
0000
0000
0000
,
1000
0000
0000
0000
,
1000
0000
0000
0000
,
1000
0000
0000
0000
,
1001
0000
0001
0000
,
0000
0000
1000
0000
,
0100
0000
0000
0000
,
0010
0000
0001
0000
,
1001
0000
0000
0000
,
0100
0000
0010
0000
,
1000
0000
0100
0000
,
0010
0000
0001
0000
,
1000
0000
0000
0000
,
0001
0000
0010
0000
,
1000
0000
1000
0000
,
1000
0000
0001
0000
,
0001
0000
1000
0000
,
0010
0000
0000
0000
,
1000
0000
0100
0000
,
0010
0000
0001
0000
,
0001
0000
0000
0000
,
1000
0000
0001
0000
,
0100
0000
0010
0000
,
0010
0000
1000
0000
,
0100
0000
0010
0000
,
1000
0000
0001
0000
,
1000
0000
0000
0000
,
0100
0000
0010
0000
,
0001
0000
0000
0000
,
1000
0000
0000
0000
,
0010
0000
0000
0000
,
1000
0000
0000
0000
,
1001
0000
1001
0000
,
1001
0000
0000
0000
,
0100
0000
0010
0000
,
1000
0000
0001
0000
,
1000
0000
0001
0000
,
0100
0000
0010
0000
,
1001
0000
0000
0000
;

//---------------dance-single - ----------------
#NOTES:
     dance-single:
     :
     Challenge:
     16:
     0.662,0.941,0.422,0.247,0.268: // measure 1
0000
0000
0000
0000
,
0000
0000
0000
0000
,
0000
0000
0000
0000
,  // measure 3
0000
0000
0000
0000
,  // measure 4
0000
0000
0000
0000
,  // measure 5
0001
0200
0001
0302
1000
2003
0010
3010
,  // measure 6
0200
0000
0301
0200
0001
0302
1000
1003
,  // measure 7
0101
0010
1000
1010
0010
0100
0001
0110
,  // measure 8
0000
1000
0100
0010
0000
0001
0100
0000
,  // measure 9
1010
0100
0010
0001
,  // measure 10
0100
1000
0100
0010
,  // measure 11
0002
1000
0000
0000
0100
0000
0000
0000
0010
0000
0000
0000
1000
0000
0000
0000
,  // measure 12
0010
1000
0103
0002
,  // measure 13
1003
0100
0010
0100
0001
1000
0000
0100
,  // measure 14
0010
0100
0010
0000
1000
0100
2000
0000
,  // measure 15
3100
0100
0010
0001
0100
0010
1000
0020
,  // measure 16
0000
0000
0031
0000
0100
0000
0010
0000
0100
0000
0010
0100
1000
0010
0100
0001
,  // measure 17
0010
0001
1001
0100
0010
0011
0101
1010
,  // measure 18
0110
0000
0011
0000
0100
0010
1000
0100
0010
0001
1000
0100
0020
0000
1030
0000
,  // measure 19
0001
0100
0010
1000
0100
0010
1000
0001
,  // measure 20
0000
0000
0000
0000
1000
0000
0010
0000
0100
0000
0001
1000
0000
0000
0100
0000
,  // measure 21
0010
0000
0100
0001
0000
0000
1000
0000
0100
0000
0010
0000
0100
0001
0000
0000
,  // measure 22
1000
0000
0100
0000
0010
1000
0000
0000
0001
0000
0000
0000
0000
0000
0000
0000
,  // measure 23
0000
0000
0000
0000
0100
0001
0000
0001
,  // measure 24
1000
0010
0100
1001
,  // measure 25
0100
0010
1000
0001
,  // measure 26
0100
0010
1000
1001
,  // measure 27
0100
0000
0010
0000
0100
0000
0010
0100
,  // measure 28
0010
0000
1000
0001
1000
0000
0101
0000
,  // measure 29
0100
0010
0000
0001
1000
0000
0010
0000
,  // measure 30
0100
0010
0002
0000
1000
0000
1003
0000
,  // measure 31
1000
0001
1000
0000
1001
0000
0100
0010
,  // measure 32
0100
0000
0010
0000
1100
0000
0000
0000
0011
0000
0000
1100
0000
0000
0110
0000
,  // measure 33
1001
0000
0000
0100
0000
0010
0100
0000
,  // measure 34
2002
0000
0000
3003
,  // measure 35
1001
0000
0100
0000
0010
0100
0010
0000
,  // measure 36
0001
0010
0100
1000
0100
0010
0001
0000
,  // measure 37
0100
0000
0010
1000
0000
1000
0010
0000
,  // measure 38
0100
0001
0010
0100
1000
0100
0010
0000
,  // measure 39
1000
0000
0001
0100
0000
0100
0001
0000
1000
0000
0100
0010
0000
0010
0001
0000
,  // measure 40
0100
0000
1000
0001
0000
1000
0010
0000
0001
0000
0100
0010
0000
1000
0010
0000
,  // measure 41
0010
0100
0010
0100
0010
0100
0010
0100
0001
1000
0001
1000
0001
1000
0001
1000
,  // measure 42
0001
0000
0010
0100
0010
0000
0100
0010
0000
0100
0010
0000
1001
0000
0000
0000
,  // measure 43
1100
0010
0001
0000
1000
0100
0010
0001
,  // measure 44
0110
1000
1010
0100
0101
0000
1000
0100
,  // measure 45
0010
0100
0001
0000
1000
0100
0010
0001
,  // measure 46
1100
0000
0110
0100
0110
0000
0010
0100
,  // measure 47
0001
0020
0031
0000
0100
0000
1000
0000
0000
0000
0001
0000
0000
0000
0001
0000
,  // measure 48
1000
0200
1300
0000
0010
0000
0001
0000
0000
0000
1000
0000
0000
0000
1000
0000
,  // measure 49
0001
0200
0301
0000
0100
0000
1000
0000
0000
0000
0010
0000
0000
0000
0010
0000
,  // measure 50
1000
0020
1030
0000
0000
0000
0010
0000
0001
0000
0100
0000
0020
0000
0130
0000
,  // measure 51
1100
0000
0001
0010
0000
1000
0001
0000
1000
0000
0010
0000
0100
0000
0000
0000
,  // measure 52
0101
0000
0001
0010
0000
1000
0100
0000
1000
0100
0010
1000
0100
0000
0000
0000
,  // measure 53
0000
0110
0000
0010
1000
0010
0100
0110
,  // measure 54
0000
0110
0000
0110
0000
1000
0010
0000
,  // measure 55
0110
1000
0100
0010
,  // measure 56
0001
0000
0000
0000
0100
0000
0000
0000
0010
0000
1000
0000
0001
0000
1000
0001
,  // measure 57
1000
1100
0000
0001
0011
0000
0100
0110
,  // measure 58
0000
0000
1000
0000
0100
0000
0000
0000
0010
0000
1000
0100
0001
0010
0100
1000
,  // measure 59
0100
0000
1000
0000
0100
0000
0020
0001
0000
0031
0010
0000
0100
0000
0200
1000
,  // measure 60
0000
1300
0100
0000
0001
0000
0002
1000
0000
1003
0001
0000
1000
0000
0000
0000
,  // measure 61
0110
1000
0000
0100
0010
0001
0000
1000
,  // measure 62
0100
0010
0001
0010
0100
1000
0000
2002
,  // measure 63
0000
0000
0000
0000
,  // measure 64
0000
0000
0000
0000
,  // measure 65
0000
0000
0000
0000
,  // measure 66
0000
3003
0000
0000
;
