#TITLE:Zamrud Khatulistiwa (From VOCALO.ID loves Indonesia);
#SUBTITLE:;
#ARTIST:Mixtrelle & REDSHiFT feat. Megurine Luka & Hatsune Miku;
#TITLETRANSLIT:;
#SUBTITLETRANSLIT:;
#ARTISTTRANSLIT:;
#GENRE:DRUM & BASS;
#CREDIT:;
#BANNER:Zamrud Khatulistiwa (From VOCALO.ID loves Indonesia).png;
#BACKGROUND:Zamrud Khatulistiwa (From VOCALO.ID loves Indonesia)-bg.png;
#LYRICSPATH:;
#CDTITLE:cdtitle.png;
#MUSIC:Zamrud Khatulistiwa (From VOCALO.ID loves Indonesia).mp3;
#METERTYPE:DDR X;
#MENUCOLOR:0,1,0,1;
#OFFSET:-0.050;
#SAMPLESTART:81.876;
#SAMPLELENGTH:12.000;
#SELECTABLE:YES;
#BPMS:0.000=173.000,296.000=160.000;
#STOPS:228.000=1.387
;
#BGCHANGES:;

//---------------dance-single - ----------------
#NOTES:
     dance-single:
     :
     Hard:
     12:
     0.493,0.574,0.092,0.200,0.000:
0000
0000
0000
0000
,
0000
0000
0000
0000
,
0000
0000
0000
0000
,
0000
0000
0000
0000
,
0000
0000
0000
0000
,
1000
0010
0100
0001
,
1000
0100
0001
0100
,
1000
0010
0100
0001
,
2002
0000
0000
3003
,
0110
0000
1000
0001
1000
0001
0200
0000
,
0310
1000
0010
0100
0001
0100
0020
0000
,
0130
0001
1000
0100
0010
0001
0200
0000
,
1300
0100
0001
0100
0010
1000
0020
0000
,
0130
0001
0100
0010
1000
0001
0200
0000
,
0301
1000
0100
0010
0001
0100
2000
0000
,
3001
0100
0010
1000
0100
0010
0002
0000
,
1003
0100
0010
0100
0002
0000
0000
0000
,
1003
0100
0010
0001
0100
0010
0100
0010
,
0000
0000
1000
0100
0010
0100
0010
0000
,
0100
0000
0001
1000
0001
0100
1000
0100
,
0000
0010
0100
0110
,
1000
0100
0001
0100
0000
0010
1000
0020
,
0000
1000
0001
0100
,
0130
0000
1000
0010
0100
0001
0100
0010
,
0000
0001
0010
0000
0100
0000
1100
0000
,
0010
0100
0010
0100
0010
0000
0100
0010
,
0000
1000
0100
0010
0000
0100
0001
0000
,
0100
0001
0100
0001
0100
0000
0010
1000
,
0000
0100
0010
0000
0100
0010
0100
0010
,
1000
0100
0010
0001
0100
0000
0010
1000
,
0000
0010
0100
0000
0010
0000
0100
0000
,
2000
0010
3001
0100
,
0002
1000
2003
0000
,
3010
0100
0010
0100
0000
1000
0100
0020
,
0000
0000
0130
0000
0001
0100
0001
0100
,
0001
0000
1000
0100
0000
0010
0100
0010
,
0000
1000
0100
0000
0010
0000
0110
0000
,
1000
0100
0001
0100
0000
0010
0000
2000
,
0000
0000
0010
0010
,
3010
0000
0100
0001
0100
0010
0100
0010
,
0000
0010
0001
0000
0100
0000
0011
0000
,
1000
0100
0001
0100
0010
0000
1000
0020
,
0000
0230
0000
0000
0301
0000
0001
0000
,
0001
1000
0010
0100
0000
0010
0100
0002
,
0000
1000
0010
0100
,
0103
1000
0010
0100
0010
0000
1000
0100
,
0000
0020
0000
0000
0000
0000
0000
0000
,
1030
0000
0100
0000
0001
0010
0100
0001
,
2000
0000
0000
0000
0002
0000
0000
3003
,
0100
0000
0010
0100
0000
0010
1000
0100
,
0000
0001
0100
0000
0010
0100
0001
0000
,
0100
0000
0010
0000
0001
0000
0100
0010
,
0000
0100
0010
0000
1000
0100
0010
0000
,
0001
0010
0100
1000
0000
0010
0100
0000
,
0010
0100
0001
0100
0000
1000
0100
0000
,
0001
0100
0001
1000
0000
1000
0100
0000
,
0010
0100
0001
0000
1000
0000
0000
0000
,
1001
0000
0000
0000
,
1001
0000
0100
0010
0100
0001
0100
0000
,
0010
0100
0010
1000
0100
0010
0001
0100
,
0010
0000
1000
0100
0001
0100
1000
0100
,
0000
0010
0100
0000
0001
1000
0100
0000
,
0010
0100
0001
1000
0100
0010
0000
0100
,
0010
0100
0001
0100
1000
0100
0010
0100
,
0010
0000
0010
0001
0010
0100
0010
0100
,
0010
0001
0001
0010
0100
0001
0100
0000
,
1000
0100
0010
0100
1000
0000
0100
0010
,
0100
0010
0100
0010
0000
0100
0010
0100
,
1000
0000
0100
0000
0010
0100
0010
0100
,
0010
0001
0100
0010
0100
0010
0100
0000
,
1010
0000
0000
0000
0100
0000
0000
0010
,
0000
0100
0010
0100
,
1000
0000
0100
0000
0000
0010
0000
0001
,
0000
0000
1000
0000
,
0001
0000
1000
0000
0010
0100
0000
0010
,
0000
0100
0000
0000
,
1001
0000
0100
0010
,
0010
0100
0000
0000
0000
0000
0000
0000
,
0000
0000
0000
0000
,
2002
0000
0000
0000
,
0000
0000
0000
0000
,
0000
3003
0000
0000
0000
0000
0000
0000
0000
0000
0000
0000
0000
0000
0000
0000
0000
0000
0000
0000
0000
0000
0000
0000
0000
0000
0000
0000
0000
0000
0000
0000
0000
0000
0000
0000
0000
0000
0000
0000
0000
0000
0000
0000
0000
0000
0000
0000
0000
0000
0000
0000
0000
0000
0000
0000
0000
0000
0000
0000
0000
0000
0000
0000
0000
0000
0000
0000
0000
0000
0000
0000
0000
0000
0000
0000
0000
0000
0000
0000
0000
0000
0000
0000
0000
0000
0000
0000
0000
0000
0000
0000
0000
0000
0000
0000
0000
0000
0000
0000
0000
0000
0000
0000
0000
0000
0000
0000
0000
0000
0000
0000
0000
0000
0000
0000
0000
0000
0000
0000
0000
0000
0000
0000
0000
0000
0000
0000
0000
0000
0000
0000
0000
0000
0000
0000
0000
0000
0000
0000
0000
0000
0000
0000
0000
0000
0000
0000
0000
0000
0000
0000
0000
0000
0000
0000
0000
0000
0000
0000
0000
0000
0000
0000
0000
0000
0000
0000
0000
0000
0000
0000
0000
0000
0000
0000
0000
0000
0000
0000
0000
0000
0000
0000
0000
0000
0000
0000
0000
0000
0000
0000
;

//---------------dance-single - ----------------
#NOTES:
     dance-single:
     :
     Medium:
     8:
     0.338,0.439,0.017,0.258,0.000:
0000
0000
0000
0000
,
0000
0000
0000
0000
,
0000
0000
0000
0000
,
0000
0000
0000
0000
,
0000
0000
0000
0000
,
1000
0100
0010
0001
,
1000
0100
0010
0001
,
0001
0010
0100
1000
,
0002
0000
2000
0000
,
3003
0000
0100
0000
0010
0100
0010
0000
,
1000
0100
0000
0010
0100
0010
0100
0010
,
1000
0000
0100
0000
0001
0100
0001
0100
,
0000
0010
0000
0000
1000
0010
1000
0010
,
0100
0000
0010
0000
0100
0010
0100
0010
,
0000
1000
0000
0000
0100
0001
0100
0001
,
0100
0000
0010
0000
1000
0010
1000
0010
,
0000
1000
0000
0000
0002
0000
0000
0000
,
1003
0000
0100
0010
0000
0100
0010
2000
,
0000
0000
0010
0001
,
3001
0000
0100
0010
0000
0001
0000
2000
,
0000
0000
3010
0000
0100
0010
0100
0000
,
0010
0000
1000
0100
0000
0010
0000
0002
,
0000
1000
1000
1000
,
1003
0000
0100
0010
0000
1000
0100
0010
,
0000
0001
0100
0010
,
0000
1000
0000
0100
0010
0000
0100
0010
,
0000
2000
0000
0000
0000
0000
0010
0000
,
3001
0000
0100
0001
0000
0100
0000
0010
,
0000
2000
0000
0000
0000
0000
0000
0000
,
3010
0100
0010
0100
0010
0000
1000
0100
,
0000
0020
0000
0000
0000
0000
0000
0000
,
1030
0100
0010
0001
,
2000
0000
0002
0000
,
3003
0000
0100
0000
0010
0100
0000
0020
,
0000
0000
0100
0000
,
1030
0000
0100
0010
0000
0001
0000
0200
,
0000
0000
0301
0000
1000
0001
0100
0000
,
0001
0000
1000
0100
0000
0010
0000
0002
,
0000
0000
0100
0100
,
0103
0000
1000
0100
0000
0010
0000
0020
,
0000
0000
0130
0000
0001
1000
0001
0000
,
0000
0100
0000
0010
0100
0000
0010
0100
,
0000
0020
0000
0000
0000
0000
0000
1030
,
0000
0100
0010
0100
,
0010
0001
0000
0000
,
1000
0000
0001
0000
0100
0000
0010
0100
,
0000
0020
0000
0000
0000
0000
0000
0000
,
1030
0100
0010
0100
,
0002
0000
2000
0000
,
3003
0000
0100
0010
0000
0100
0000
0010
,
0000
1000
0000
0100
0000
0010
0000
0000
,
0001
0000
0000
1000
0000
0001
1000
0001
,
0000
0100
0010
0100
,
0001
0000
1000
0100
0000
0010
0000
0200
,
0000
0301
0100
0010
,
1000
0000
0000
0000
0100
0010
0000
0200
,
0000
0000
0000
0000
,
0002
0303
0000
0000
0000
0000
0000
0000
,
1001
0000
0100
0010
0000
0100
0000
0020
,
0000
0000
1000
1000
,
1030
0000
0100
0010
0000
1000
0000
0002
,
0000
0100
0000
0000
,
1003
0000
0100
0010
0000
0100
0000
0002
,
0000
0000
0010
0000
,
1003
0000
0100
0010
0000
0100
0000
2000
,
0000
3010
0100
0001
,
0000
0010
0000
0001
0001
0000
0100
0001
,
0000
2000
0000
0000
0000
0000
3010
0000
,
0100
0010
1000
0100
,
0010
0100
0010
0002
,
0000
0000
0000
0000
,
1000
0000
0000
0000
,
2003
0000
0000
0000
,
0001
0000
0000
0000
,
3001
0000
0100
0000
,
0010
0000
1000
0000
,
0001
0000
0000
0000
,
0100
0000
0000
0000
,
1000
0000
0000
0000
,
2002
0000
0000
0000
,
0000
0000
0000
0000
,
0000
0000
3003
0000
0000
0000
0000
0000
0000
0000
0000
0000
0000
0000
0000
0000
0000
0000
0000
0000
0000
0000
0000
0000
0000
0000
0000
0000
0000
0000
0000
0000
0000
0000
0000
0000
0000
0000
0000
0000
0000
0000
0000
0000
0000
0000
0000
0000
0000
0000
0000
0000
0000
0000
0000
0000
0000
0000
0000
0000
0000
0000
0000
0000
0000
0000
0000
0000
0000
0000
0000
0000
0000
0000
0000
0000
0000
0000
0000
0000
0000
0000
0000
0000
0000
0000
0000
0000
0000
0000
0000
0000
0000
0000
0000
0000
0000
0000
0000
0000
0000
0000
0000
0000
0000
0000
0000
0000
0000
0000
0000
0000
0000
0000
0000
0000
0000
0000
0000
0000
0000
0000
0000
0000
0000
0000
0000
0000
0000
0000
0000
0000
0000
0000
0000
0000
0000
0000
0000
0000
0000
0000
0000
0000
0000
0000
0000
0000
0000
0000
0000
0000
0000
0000
0000
0000
0000
0000
0000
0000
0000
0000
0000
0000
0000
0000
0000
0000
0000
0000
0000
0000
0000
0000
0000
0000
0000
0000
0000
0000
0000
0000
0000
0000
0000
0000
0000
0000
0000
0000
0000
0000
;

//---------------dance-single - ----------------
#NOTES:
     dance-single:
     :
     Easy:
     5:
     0.262,0.304,0.008,0.133,0.000: // measure 1
0000
0000
0000
0000
,  // measure 2
0000
0000
0000
0000
,  // measure 3
0000
0000
0000
0000
,  // measure 4
0000
0000
0000
0000
,  // measure 5
0000
0000
0000
0000
,  // measure 6
1000
0000
0100
0000
,  // measure 7
0010
0000
0001
0000
,  // measure 8
0001
0000
0010
0000
,  // measure 9
2000
0000
0000
0000
,  // measure 10
3001
0000
0100
0010
,  // measure 11
0000
0000
1000
0001
,  // measure 12
0100
0000
0010
1000
,  // measure 13
0000
0000
0010
0100
,  // measure 14
0010
0000
1000
0001
,  // measure 15
0000
0100
0010
0001
,  // measure 16
0100
0000
0001
1000
,  // measure 17
0010
0000
0100
0100
,  // measure 18
0100
0010
1000
0100
,  // measure 19
0002
0000
1000
0000
,  // measure 20
1003
0100
0010
0001
,  // measure 21
2000
0000
3010
0100
,  // measure 22
0010
0001
0100
0010
,  // measure 23
2000
0000
0001
0000
,  // measure 24
3010
0100
0010
0001
,  // measure 25
0100
0010
0001
1000
,  // measure 26
0000
0001
0100
0010
,  // measure 27
0001
1000
0000
0000
,  // measure 28
0100
0010
0001
0100
,  // measure 29
0010
0001
0000
0000
,  // measure 30
1000
0100
0010
0001
,  // measure 31
1000
0001
0000
0000
,  // measure 32
1000
0100
1000
0100
,  // measure 33
0020
0000
0032
0000
,  // measure 34
1003
0100
0010
1000
,  // measure 35
0002
0000
1000
0000
,  // measure 36
1003
0100
0010
0001
,  // measure 37
0100
0010
1000
0100
,  // measure 38
1000
0010
0010
0001
,  // measure 39
2000
0000
3001
0000
,  // measure 40
0100
0010
1000
0100
,  // measure 41
0010
0010
0001
0001
,  // measure 42
0000
0100
0010
1000
,  // measure 43
0100
0001
0000
0000
,  // measure 44
0100
0001
1000
0100
,  // measure 45
0010
0001
0000
0000
,  // measure 46
1000
0100
0010
1000
,  // measure 47
0100
0001
0000
0000
,  // measure 48
0001
0010
0100
0001
,  // measure 49
2000
0000
3002
0000
,  // measure 50
1003
0100
0010
0001
,  // measure 51
1000
0001
0100
0010
,  // measure 52
1000
0000
0000
0001
0000
0000
1000
0000
,  // measure 53
0001
0000
0100
0010
,  // measure 54
0100
0010
1000
0100
,  // measure 55
0001
0100
0010
0000
,  // measure 56
1000
0000
0100
0001
,  // measure 57
2000
0000
0000
0000
,  // measure 58
3000
0000
0000
0000
,  // measure 59
1001
0100
0010
0100
,  // measure 60
0002
0000
0000
0000
,  // measure 61
1003
0100
0010
0001
,  // measure 62
0001
0100
0010
0001
,  // measure 63
1000
0100
0010
1000
,  // measure 64
0020
0000
0000
0000
,  // measure 65
0130
1000
0100
0001
,  // measure 66
0100
0010
0001
1000
,  // measure 67
0000
0010
0100
0001
,  // measure 68
1000
0001
0000
0000
,  // measure 69
0100
0010
1000
0100
,  // measure 70
0010
0001
1000
0020
,  // measure 71
0000
0000
0000
0000
,  // measure 72
1000
0000
0000
0000
,  // measure 73
0230
0000
0000
0000
,  // measure 74
0001
0000
0000
0000
,  // measure 75
0300
0000
0001
0000
,  // measure 76
1000
0000
0010
0000
,  // measure 77
0100
0000
0000
0000
,  // measure 78
1000
0000
0000
0000
,  // measure 79
0000
0000
0000
0000
,  // measure 80
2000
0000
0000
0000
,  // measure 81
0000
0000
0000
0000
,  // measure 82
3000
0000
0000
0000
;

//---------------dance-single - ----------------
#NOTES:
     dance-single:
     :
     Beginner:
     2:
     0.112,0.165,0.058,0.000,0.000: // measure 1
0000
0000
0000
0000
,  // measure 2
0000
0000
0000
0000
,  // measure 3
0000
0000
0000
0000
,  // measure 4
0000
0000
0000
0000
,  // measure 5
0000
0000
0000
0000
,  // measure 6
1000
0000
0000
0000
,  // measure 7
0010
0000
0000
0000
,  // measure 8
0100
0000
0000
0000
,  // measure 9
0001
0000
0000
0000
,  // measure 10
1001
0000
0000
0000
,  // measure 11
0010
0000
0000
0000
,  // measure 12
0100
0000
0000
0000
,  // measure 13
0001
0000
0000
0000
,  // measure 14
1001
0000
0000
0000
,  // measure 15
1000
0000
0000
0000
,  // measure 16
0010
0000
0000
0000
,  // measure 17
1000
0000
0000
0000
,  // measure 18
1001
0000
0001
0000
,  // measure 19
0001
0000
0000
0000
,  // measure 20
0010
0000
0010
0000
,  // measure 21
0010
0000
0000
0000
,  // measure 22
1000
0000
1000
0000
,  // measure 23
1000
0000
0000
0000
,  // measure 24
0100
0000
0001
0000
,  // measure 25
0001
0000
0000
0000
,  // measure 26
0010
0000
0000
0000
,  // measure 27
1000
0000
0000
0000
,  // measure 28
0001
0000
0000
0000
,  // measure 29
1000
0000
0000
0000
,  // measure 30
0001
0000
0000
0000
,  // measure 31
1000
0000
0000
0000
,  // measure 32
0010
0000
0000
0000
,  // measure 33
1000
0000
0000
0000
,  // measure 34
1001
0000
0000
0000
,  // measure 35
0010
0000
0000
0000
,  // measure 36
0001
0000
0000
0000
,  // measure 37
0100
0000
0000
0000
,  // measure 38
0100
0000
0000
0000
,  // measure 39
0001
0000
0000
0000
,  // measure 40
1000
0000
0000
0000
,  // measure 41
0100
0000
0000
0000
,  // measure 42
1000
0000
0000
0000
,  // measure 43
0001
0000
0000
0000
,  // measure 44
0010
0000
0000
0000
,  // measure 45
0100
0000
0000
0000
,  // measure 46
1000
0000
0000
0000
,  // measure 47
0001
0000
0000
0000
,  // measure 48
0010
0000
0000
0000
,  // measure 49
1000
0000
1000
0000
,  // measure 50
1000
0000
0000
0000
,  // measure 51
0100
0000
0010
0000
,  // measure 52
0001
0000
0000
0000
,  // measure 53
1000
0000
0001
0000
,  // measure 54
1000
0000
0000
0000
,  // measure 55
1000
0000
0010
0000
,  // measure 56
0100
0000
0000
0000
,  // measure 57
0001
0000
1000
0000
,  // measure 58
1000
0000
0000
0000
,  // measure 59
1001
0000
0100
0000
,  // measure 60
0100
0000
0000
0000
,  // measure 61
0010
0000
0010
0000
,  // measure 62
0010
0000
0000
0000
,  // measure 63
1000
0000
1000
0000
,  // measure 64
1000
0000
0000
0000
,  // measure 65
0001
0000
0001
0000
,  // measure 66
0001
0000
0000
0000
,  // measure 67
1001
0000
0100
0000
,  // measure 68
0100
0000
0000
0000
,  // measure 69
0010
0000
0010
0000
,  // measure 70
0010
0000
0000
0000
,  // measure 71
0001
0000
0000
0000
,  // measure 72
0000
0000
0000
0000
,  // measure 73
1000
0000
0000
0000
,  // measure 74
0000
0000
0000
0000
,  // measure 75
1001
0000
0000
0000
,  // measure 76
0100
0000
0000
0000
,  // measure 77
0100
0000
0000
0000
,  // measure 78
0100
0000
0000
0000
,  // measure 79
0000
0000
0000
0000
,  // measure 80
0001
0000
0000
0000
;
