#TITLE:ユメセカイ;
#SUBTITLE:ソードアート.オンライン ED;
#ARTIST:戸松 遥;
#TITLETRANSLIT:Yume Sekai;
#SUBTITLETRANSLIT:Sword Art Online ED;
#ARTISTTRANSLIT:Haruka Tomatsu;
#GENRE:ANIMATION BEAT#0;
#CREDIT:;
#BANNER:Yume Sekai.png;
#BACKGROUND:Yume Sekai-bg.png;
#LYRICSPATH:;
#CDTITLE:cdtitle.png;
#MUSIC:Yume Sekai.mp3;
#OFFSET:-0.965;
#SAMPLESTART:59.285;
#SAMPLELENGTH:12.000;
#SELECTABLE:YES;
#BPMS:0.000=162.000
,224.000=81.000
;
#STOPS:
;
#BGCHANGES:;
#KEYSOUNDS:;
#ATTACKS:;

//---------------dance-single - ----------------
#NOTES:
     dance-single:
     :
     Hard:
     13:
     0.450,0.519,0.615,0.157,0.011,213.000,55.000,14.000,0.000,0.000,0.000,0.450,0.519,0.615,0.157,0.011,213.000,55.000,14.000,0.000,0.000,0.000:
0000
0000
0000
0000
,
0000
0000
0000
0000
,
0000
0000
0000
0000
,
0000
0000
0000
0000
,
1001
0000
0100
0110
,
0000
0000
0001
0000
1000
0001
1000
0000
,
0110
0010
0011
0001
,
1000
0000
0010
0000
1000
0001
1000
0000
,
0101
0000
0010
0000
0010
0000
1000
0001
,
0000
0000
0100
0010
0000
0000
1000
0001
,
2000
0000
0001
0000
,
3001
0000
0100
0000
0010
0100
0010
0000
,
0002
0000
0000
0000
0000
0000
1003
0020
,
0000
0100
0130
0100
,
0101
0100
1010
0000
,
0101
0010
0011
0000
,
1001
0000
0100
0000
0010
0000
1000
0001
,
0000
0000
0100
0010
0000
0000
1000
0010
,
0200
0000
0001
0000
,
1300
0000
0100
0000
0010
0100
0010
0000
,
0002
0000
0000
0000
0000
0000
1003
0020
,
0000
0100
0130
1000
,
0101
0010
0011
0000
,
1010
0100
0101
0000
,
0110
0010
0011
0001
,
0101
1000
1100
0100
,
0110
0001
1001
0100
,
0101
0010
0011
0001
,
1001
0100
1010
0100
,
0101
0010
0011
0001
,
1001
0100
0110
1000
,
0101
0000
1010
0000
0100
0001
0100
0000
,
1001
0100
1100
0100
,
0101
0100
1010
0100
,
0101
0010
0011
0001
,
1001
0000
1000
0000
1000
0100
0010
0000
,
1001
0001
1010
0100
,
0101
0001
0011
1000
,
1010
0110
0011
1001
,
0101
0000
1000
0001
1000
0001
1000
0001
,
2001
0001
0010
0010
,
0001
0000
0001
0000
0010
0000
3010
1000
,
0200
0000
0010
0000
0010
0000
0001
0001
,
0001
1000
1300
0000
,
1002
1000
0100
0100
,
1000
1000
0100
0100
,
0023
0000
0000
0000
0100
0000
1030
0100
,
0000
1000
0100
0000
0001
0100
0001
0000
,
1001
0100
0010
1000
,
0010
0100
0001
0100
,
0020
0000
0000
0000
0000
0000
1030
0001
,
0000
0101
0000
0000
0010
0000
1010
0000
,
1001
0000
0010
0011
,
1001
0000
0000
0100
0010
0000
0001
0100
,
0001
0000
1000
0000
0100
0010
0100
0000
,
1001
0000
0010
0001
,
2000
0000
0000
0000
3001
0000
0200
0000
0010
0000
0000
0310
1000
0000
0001
0200
,
0000
0000
0000
0000
,
0300
0000
0000
0000
;

//---------------dance-single - ----------------
#NOTES:
     dance-single:
     :
     Medium:
     9:
     0.281,0.357,0.145,0.212,0.000,144.000,13.000,19.000,0.000,0.000,0.000,0.281,0.357,0.145,0.212,0.000,144.000,13.000,19.000,0.000,0.000,0.000:
0000
0000
0000
0000
,
0000
0000
0000
0000
,
0000
0000
0000
0000
,
0000
0000
0000
0000
,
1001
0000
0100
1100
,
0000
0010
0100
0010
,
0011
0100
0001
1001
,
0000
0100
0010
0000
,
1001
0100
0010
1000
,
0001
0100
0010
0001
,
2000
0000
0001
0000
,
3001
0100
0010
0100
,
0002
0000
0000
0000
,
2003
0000
0000
0000
,
3010
0100
0010
0000
,
0100
0001
0100
0000
,
1001
0100
0010
0000
,
0001
0100
0010
1000
,
0200
0000
0010
0000
,
0310
1000
0100
0001
,
2000
0000
0000
0000
,
3002
0000
0000
0000
,
0103
0010
0100
0000
,
0001
1000
0001
0000
,
0110
0000
0010
0000
,
0001
0000
1000
0000
,
1010
0000
0100
0000
,
0010
0000
0001
0000
,
0110
0000
1000
0000
,
0100
0000
0010
0000
,
0110
0000
0001
0000
,
1000
0000
0100
0000
0100
0010
0100
0000
,
0110
0000
0100
0000
,
0010
0000
1000
0000
,
0100
0000
0010
0000
,
0001
0000
1000
0000
,
1000
1000
0100
0100
,
0010
0010
0001
0001
,
2000
0000
3002
0000
,
0103
0000
0010
0000
1000
0001
1000
0001
,
2000
0000
0001
0000
,
0010
0000
0001
0000
,
3002
0000
0000
0000
,
2000
0000
0000
3003
,
0200
0000
0010
0000
,
1000
0000
0010
0000
,
0020
0000
0000
0000
0330
0000
0001
1000
,
0000
0001
0000
0100
0000
0010
0000
2000
,
0000
3001
0100
0000
0010
0000
0001
0000
,
0100
0010
0001
0100
,
0020
0000
0000
0000
0000
0000
1030
0001
,
0000
0100
0000
0000
0010
0000
0100
0000
,
0110
0000
0100
0010
,
0110
0000
0000
1000
0001
0000
0001
2000
,
0000
0000
0000
0000
,
0002
0000
3003
0100
,
0010
0000
0100
0020
0000
0000
1000
0000
,
0200
0000
0000
0000
,
0330
0000
0000
0000
;

//---------------dance-single - ----------------
#NOTES:
     dance-single:
     :
     Easy:
     6:
     0.233,0.259,0.201,0.190,0.000,111.000,18.000,17.000,0.000,0.000,0.000,0.233,0.259,0.201,0.190,0.000,111.000,18.000,17.000,0.000,0.000,0.000:
0000
0000
0000
0000
,
0000
0000
0000
0000
,
0000
0000
0000
0000
,
0000
0000
0000
0000
,
1001
0000
0000
0110
,
0000
0000
0000
0000
,
0110
0000
0000
1001
,
0000
0100
0010
0000
,
1001
0000
0100
0000
,
0010
0000
1000
0001
,
2000
0000
0000
0000
,
3001
0000
0100
0010
,
0200
0000
0000
0000
,
0320
0000
0000
0000
,
1030
0001
1000
0000
,
0010
0100
0010
0000
,
1000
0000
0100
0000
,
0010
0000
0001
1000
,
0002
0000
0000
0000
,
1003
0100
0010
1000
,
0002
0000
0000
0000
,
0023
0000
0000
0000
,
1030
0100
0010
0000
,
0001
0010
0100
0000
,
1001
0000
0000
0000
,
0110
0000
0000
0000
,
1100
0000
0000
0000
,
0101
0000
0000
0000
,
1100
0000
0000
0000
,
0110
0000
0000
0000
,
0101
0000
0000
0000
,
0110
0000
0000
0000
,
1001
0000
0000
0000
,
0110
0000
0000
0000
,
0011
0000
0000
0000
,
1100
0000
0000
0000
,
1000
0001
1000
0100
,
0010
0001
1000
0010
,
2000
0000
0002
0000
,
3003
0000
0100
0010
,
1000
0100
0010
0001
,
1000
0100
0001
0100
,
2000
0000
0000
0000
,
0002
0000
3003
0000
,
0010
0100
1000
0100
,
0010
0001
0100
0010
,
0200
0000
0000
0000
,
0020
0000
0330
0000
,
1000
0100
0010
0000
,
0001
0010
0100
1000
,
0002
0000
0000
0000
,
2000
0000
3003
0100
,
0010
0000
0010
0100
,
0010
0000
0001
0010
,
0100
1000
0100
0010
,
1001
0000
0100
0010
,
2000
0000
3200
0000
,
0302
0000
0000
0000
,
0003
0000
0000
0000
;

//---------------dance-single - ----------------
#NOTES:
     dance-single:
     :
     Beginner:
     2:
     0.110,0.191,0.067,0.000,0.000,63.000,6.000,0.000,0.000,0.000,0.000,0.110,0.191,0.067,0.000,0.000,63.000,6.000,0.000,0.000,0.000,0.000:
0000
0000
0000
0000
,
0000
0000
0000
0000
,
0000
0000
0000
0000
,
0000
0000
0000
0000
,
1001
0000
0000
0000
,
0000
0000
0000
0000
,
0110
0000
0000
0000
,
0000
0000
0000
0000
,
1001
0000
0000
0000
,
0100
0000
0000
0000
,
0001
0000
0000
0000
,
1000
0000
0000
0000
,
0100
0000
0000
0000
,
0010
0000
0000
0000
,
1000
1000
1000
0000
,
0100
0100
0100
0000
,
0001
0000
0000
0000
,
0010
0000
0000
0000
,
1000
0000
0000
0000
,
0100
0000
0000
0000
,
0100
0000
0000
0000
,
0010
0000
0000
0000
,
0001
0001
0001
0000
,
0100
0100
0100
0000
,
1000
0000
0000
0000
,
0001
0000
0000
0000
,
0010
0000
0000
0000
,
0001
0000
0000
0000
,
1000
0000
0000
0000
,
0100
0000
0000
0000
,
0010
0000
0000
0000
,
0001
0000
0000
0000
,
1000
0000
0000
0000
,
0100
0000
0000
0000
,
0010
0000
0000
0000
,
0001
0000
0000
0000
,
1000
0000
1000
0000
,
0001
0000
0001
0000
,
0100
0000
0010
0000
,
0000
0000
0000
0000
,
1001
0000
0000
0000
,
0010
0000
0000
0000
,
0100
0000
0000
0000
,
0001
0000
0000
0000
,
1000
0000
0000
0000
,
0100
0000
0000
0000
,
0010
0000
0000
0000
,
0001
0000
0000
0000
,
1001
0000
0000
0000
,
0010
0000
0000
0000
,
0100
0000
0000
0000
,
0001
0000
0000
0000
,
1000
0000
0000
0000
,
0001
0000
0000
0000
,
0100
0000
0000
0000
,
1001
0000
0000
0000
,
1000
0000
0001
0000
,
1000
0000
0000
0000
;
