#TITLE:ユメセカイ EVOLVED TYPE3;
#SUBTITLE:ソードアート.オンライン ED;
#ARTIST:戸松 遥;
#TITLETRANSLIT:Yume Sekai EVOLVED TYPE3;
#SUBTITLETRANSLIT:Sword Art Online ED;
#ARTISTTRANSLIT:Haruka Tomatsu;
#GENRE:ANIMATION BEAT#0;
#CREDIT:;
#BANNER:Yume Sekai EVOLVED TYPE3.png;
#BACKGROUND:Yume Sekai EVOLVED TYPE3-bg.png;
#LYRICSPATH:;
#CDTITLE:cdtitle.png;
#MUSIC:Yume Sekai EVOLVED TYPE3.mp3;
#MENUCOLOR:0,0,1,1;
#METERTYPE:DDR X;
#OFFSET:-0.949;
#SAMPLESTART:0.000;
#SAMPLELENGTH:10.000;
#SELECTABLE:YES;
#BPMS:0.000=162.000,104.000=81.000,120.000=162.000,236.000=81.000;
#STOPS:;
#BGCHANGES:;

//---------------dance-single - ----------------
#NOTES:
     dance-single:
     :
     Hard:
     12:
     0.389,0.483,0.227,0.173,0.059: // measure 1
0000
0000
0000
0000
,  // measure 2
0000
0000
0000
0000
,  // measure 3
0000
0000
0000
0000
,  // measure 4
0000
0000
0000
0000
,  // measure 5
1001
0100
0010
0101
,  // measure 6
0000
0010
0100
0001
,  // measure 7
1010
0001
0100
1010
,  // measure 8
0100
0000
0010
0000
1000
0100
0010
0000
,  // measure 9
0101
0000
1000
0000
0010
0000
0100
0010
,  // measure 10
0000
0001
1000
0000
0010
1000
0001
1000
,  // measure 11
0001
0000
0010
0000
1000
0000
0001
1000
,  // measure 12
0000
1000
0100
0000
0010
0100
0010
0000
,  // measure 13
1100
0000
0001
0000
0100
0000
0010
1000
,  // measure 14
0000
0001
0100
0000
0010
0100
0010
0000
,  // measure 15
1001
0000
0100
0000
0010
0000
0001
1000
,  // measure 16
0000
1000
0001
0100
1000
0001
1000
0000
,  // measure 17
0110
0000
0100
0010
0100
0010
0000
1000
,  // measure 18
0001
0000
0010
0200
0000
0000
0310
0000
,  // measure 19
0110
0000
2000
0000
3001
0000
0010
0200
,  // measure 20
0000
0310
0000
0001
0000
1000
0001
2000
,  // measure 21
0000
0000
0001
0001
,  // measure 22
3001
0100
0000
0010
0000
0001
1000
0001
,  // measure 23
1000
0000
1000
0001
0000
1000
0000
0002
,  // measure 24
0000
0000
1000
1000
,  // measure 25
2000
0000
0000
0000
,  // measure 26
3003
0000
0000
0100
1000
0100
0010
0001
,  // measure 27
1000
0000
0010
0000
0001
0000
0010
0000
0100
0000
1000
0000
0010
0000
1000
0200
,  // measure 28
0000
0000
0000
0000
0000
0000
0301
0020
0000
0001
0000
0000
0000
0000
0000
0000
,  // measure 29
1030
0100
0001
0100
0010
0001
0100
0010
,  // measure 30
2000
0000
0000
0000
0000
0000
3001
0100
0000
0001
0000
0100
0000
1000
0000
0000
,  // measure 31
0110
0000
0011
0010
,  // measure 32
0110
0001
1100
1000
,  // measure 33
0101
0000
0000
0000
1010
0000
0001
1000
,  // measure 34
0000
1000
0000
0000
0010
0000
0100
0000
,  // measure 35
0002
0000
1003
0010
,  // measure 36
0002
0000
1003
0010
,  // measure 37
1001
0010
1000
0010
,  // measure 38
0100
0000
0000
0001
0010
0100
0010
0100
,  // measure 39
0000
0000
0000
0100
1000
0001
1000
0100
,  // measure 40
0002
1000
0103
0010
,  // measure 41
0100
0000
0010
0000
1000
0000
0001
2000
,  // measure 42
0000
0000
0001
0000
3001
0000
0100
0020
,  // measure 43
0000
1000
0030
0000
0010
0000
0010
0000
,  // measure 44
1001
0100
0010
0001
,  // measure 45
1000
0100
0010
1000
,  // measure 46
0002
0000
0000
0000
1003
0000
0100
0001
,  // measure 47
0000
0001
1000
0000
0010
0000
0100
0000
,  // measure 48
1001
0100
0010
1000
,  // measure 49
0001
0100
0010
1000
,  // measure 50
0002
0000
0000
0000
0000
0000
1003
0010
,  // measure 51
0000
0001
0000
0000
1000
0000
0010
0000
,  // measure 52
1001
0000
0001
0010
,  // measure 53
1001
0000
0000
0100
0010
0000
0001
1000
,  // measure 54
0001
0100
0010
1000
,  // measure 55
0100
0010
1000
1001
,  // measure 56
0110
0000
0001
1001
,  // measure 57
0110
0000
0000
0100
0010
0000
0010
0100
,  // measure 58
0000
0010
1000
0001
,  // measure 59
1002
0000
0100
0100
,  // measure 60
0103
0000
0000
0000
0010
0000
1000
0000
0020
0000
0000
0130
0010
0000
0001
0100
,  // measure 61
0010
0000
1000
0000
0000
0100
0000
0000
0010
0000
0000
0100
0000
0000
0010
0000
,  // measure 62
0000
0000
0000
0000
1000
0000
0000
0000
0000
0000
0000
0000
0001
0000
0000
0000
0000
0000
0000
0000
0000
0000
0000
1000
0100
0000
0002
0000
0000
0000
0000
0000
,  // measure 63
0000
0000
0003
0000
;

//---------------dance-single - ----------------
#NOTES:
     dance-single:
     :
     Medium:
     9:
     0.303,0.398,0.273,0.118,0.032: // measure 1
0000
0000
0000
0000
,  // measure 2
0000
0000
0000
0000
,  // measure 3
0000
0000
0000
0000
,  // measure 4
0000
0000
0000
0000
,  // measure 5
1010
0000
0100
1001
,  // measure 6
0000
0100
0000
1000
,  // measure 7
0110
0000
0001
0110
,  // measure 8
0000
0100
0010
0100
,  // measure 9
1001
0000
0010
0000
0100
0000
0001
0100
,  // measure 10
0000
1000
0000
0000
0100
0000
1000
0000
,  // measure 11
1001
0000
0100
0000
0010
0000
1000
0010
,  // measure 12
0000
0010
0000
0000
0100
0000
0100
0000
,  // measure 13
0110
0000
1000
0000
0001
0000
0100
0010
,  // measure 14
0000
1000
0000
0000
0100
0000
0100
0000
,  // measure 15
1010
0000
0001
0000
0100
0000
1000
0010
,  // measure 16
0000
0010
0000
0000
0010
0000
1000
0000
,  // measure 17
0101
0001
0001
1000
,  // measure 18
2000
0000
0000
3002
0000
0000
0103
0000
,  // measure 19
1000
0000
0010
0000
1000
0000
0100
0001
,  // measure 20
0000
0100
0000
1000
0000
0010
0000
0020
,  // measure 21
0000
0000
0000
0000
,  // measure 22
1030
0100
1000
0100
,  // measure 23
0001
0000
0010
1000
0000
0010
0000
2000
,  // measure 24
0000
0000
0010
0000
,  // measure 25
0020
0000
0000
0000
,  // measure 26
3030
0000
1000
0001
,  // measure 27
0010
0100
1000
0000
0001
0010
0100
0020
,  // measure 28
0000
0000
0030
2000
0000
0000
3000
0000
,  // measure 29
0010
0100
1000
0000
0100
0010
0001
0000
,  // measure 30
0020
0000
0000
0000
0000
0000
2030
0000
0000
0000
0000
3001
0000
0010
0000
0000
,  // measure 31
0101
0000
1100
0000
,  // measure 32
0101
0000
0011
0000
,  // measure 33
1001
0000
0110
1000
,  // measure 34
0000
0010
0000
0000
0100
0000
0001
0000
,  // measure 35
1001
0000
0010
0100
,  // measure 36
1001
0000
0010
0100
,  // measure 37
1010
0000
0110
0000
,  // measure 38
1001
0000
0000
1000
0000
0001
0000
0001
,  // measure 39
0000
0000
1000
0100
,  // measure 40
1000
0010
0001
0100
,  // measure 41
0001
0100
0010
0002
,  // measure 42
0000
0000
0000
1000
0000
0000
0000
1003
,  // measure 43
0000
0010
0000
0000
0100
0000
0000
0000
,  // measure 44
1010
0001
0100
1000
,  // measure 45
0010
0001
0100
0010
,  // measure 46
2000
0000
0000
0000
3010
0000
0001
1000
,  // measure 47
0000
1000
0000
0010
0000
0100
0000
0000
,  // measure 48
1001
0000
0101
0010
,  // measure 49
1000
0001
0100
0010
,  // measure 50
2000
0000
0000
3010
,  // measure 51
0000
1000
0000
0000
0010
0000
0100
0000
,  // measure 52
0110
0000
0100
0010
,  // measure 53
0110
0000
0000
0001
0100
0000
1000
0000
,  // measure 54
1001
0001
0100
0010
,  // measure 55
0001
0100
0010
0000
,  // measure 56
1001
0000
0101
0000
,  // measure 57
0101
0000
0000
0001
0100
0000
0100
0001
,  // measure 58
0000
0100
0010
1000
,  // measure 59
1001
0000
0001
0001
,  // measure 60
0000
0000
0000
0000
0100
0000
0010
0000
0000
0000
0000
0001
0000
0000
1000
0000
,  // measure 61
0100
0000
0000
0000
0000
0100
0000
0000
0000
0000
0000
0100
0000
0000
0000
0000
,  // measure 62
0000
0000
0100
0000
0000
0000
0000
1000
0000
0000
0000
0000
0000
2000
0000
0000
,  // measure 63
0000
0000
3000
0000
;

//---------------dance-single - ----------------
#NOTES:
     dance-single:
     :
     Easy:
     6:
     0.222,0.311,0.191,0.127,0.000: // measure 1
0000
0000
0000
0000
,  // measure 2
0000
0000
0000
0000
,  // measure 3
0000
0000
0000
0000
,  // measure 4
0000
0000
0000
0000
,  // measure 5
0110
0000
0000
1100
,  // measure 6
0000
0001
0000
0000
,  // measure 7
0011
0000
0000
0011
,  // measure 8
0000
0001
0010
0000
,  // measure 9
1100
0010
0001
1000
,  // measure 10
0000
0000
0001
0000
,  // measure 11
1100
0001
0010
0100
,  // measure 12
0000
0000
0001
0000
,  // measure 13
0011
0100
1000
0001
,  // measure 14
0000
0000
1000
0000
,  // measure 15
0110
1000
0001
0100
,  // measure 16
0000
0000
0000
0000
,  // measure 17
0110
0000
1000
0000
,  // measure 18
0200
0000
0300
0000
,  // measure 19
0100
0000
0100
0001
,  // measure 20
0000
1000
0100
0020
,  // measure 21
0000
0000
0000
0000
,  // measure 22
0030
0000
0100
0000
,  // measure 23
1000
0010
0000
0200
,  // measure 24
0000
0000
0000
0000
,  // measure 25
0020
0000
0000
0000
,  // measure 26
0330
0000
0100
0000
,  // measure 27
0010
0100
1000
0010
,  // measure 28
0002
0000
0203
0000
,  // measure 29
0310
0100
0001
1000
,  // measure 30
0020
0030
0100
0001
,  // measure 31
1001
0000
0001
0000
,  // measure 32
1001
0000
1000
0000
,  // measure 33
1100
0000
0001
0100
,  // measure 34
0010
0000
0001
1000
,  // measure 35
0000
0000
1000
0001
,  // measure 36
0000
0000
0010
0000
,  // measure 37
0110
0000
0001
0000
,  // measure 38
1100
0000
1000
0100
,  // measure 39
0001
0000
0100
0000
,  // measure 40
0110
0010
1000
0000
,  // measure 41
1000
0001
0010
2000
,  // measure 42
0000
3000
0000
0010
,  // measure 43
0001
0000
0001
0000
,  // measure 44
0110
1000
0001
0000
,  // measure 45
0010
1000
0001
0000
,  // measure 46
0200
0000
0300
1000
,  // measure 47
0001
0000
1000
0001
,  // measure 48
1100
0000
1001
0010
,  // measure 49
0100
0000
0001
0010
,  // measure 50
0200
0000
0000
0300
,  // measure 51
0001
0000
0010
0001
,  // measure 52
0010
0000
0010
1000
,  // measure 53
0010
0000
0001
0100
,  // measure 54
1000
0000
0001
0000
,  // measure 55
1000
0001
0010
0000
,  // measure 56
1100
0000
0001
0000
,  // measure 57
1001
1000
0100
0010
,  // measure 58
0001
0010
0100
1000
,  // measure 59
1001
0000
1000
0000
,  // measure 60
0100
0001
0100
0100
,  // measure 61
0002
0000
0203
0000
,  // measure 62
0320
0000
0000
2030
,  // measure 63
0000
3000
0000
0000
;

//---------------dance-single - ----------------
#NOTES:
     dance-single:
     :
     Beginner:
     1:
     0.109,0.171,0.155,0.073,0.000: // measure 1
0000
0000
0000
0000
,  // measure 2
0000
0000
0000
0000
,  // measure 3
0000
0000
0000
0000
,  // measure 4
0000
0000
0000
0000
,  // measure 5
1001
0000
0000
0110
,  // measure 6
0000
0000
0000
0000
,  // measure 7
0110
0000
0000
1001
,  // measure 8
0000
0000
0000
0000
,  // measure 9
1001
0000
1000
0000
,  // measure 10
0001
0000
0000
0000
,  // measure 11
1001
0000
0001
0000
,  // measure 12
1000
0000
0000
0000
,  // measure 13
0110
0000
0010
0000
,  // measure 14
0100
0000
0000
0000
,  // measure 15
0110
0000
0100
0000
,  // measure 16
0010
0000
0000
0000
,  // measure 17
1001
0000
0000
0000
,  // measure 18
0002
0000
0000
0000
,  // measure 19
0003
0000
0000
0000
,  // measure 20
1000
0000
0000
0000
,  // measure 21
0200
0000
0000
0000
,  // measure 22
0300
0000
0000
0000
,  // measure 23
0010
0000
0000
0000
,  // measure 24
0002
0000
0000
0000
,  // measure 25
0003
0000
0000
0000
,  // measure 26
1000
0000
0000
0000
,  // measure 27
0010
0000
0001
0000
,  // measure 28
0200
0000
0300
0000
,  // measure 29
1000
0000
0100
0000
,  // measure 30
0010
0000
0001
0000
,  // measure 31
1001
0000
0100
0000
,  // measure 32
0010
0000
0001
0000
,  // measure 33
2000
0000
0000
0000
,  // measure 34
3000
0000
0000
0000
,  // measure 35
0001
0000
0000
0000
,  // measure 36
1000
0000
0000
0000
,  // measure 37
1001
0000
0000
0000
,  // measure 38
0010
0000
0000
0000
,  // measure 39
1000
0000
0000
0000
,  // measure 40
1001
0000
0000
0000
,  // measure 41
0010
0000
0000
0000
,  // measure 42
0002
0000
0000
0000
,  // measure 43
0003
0000
0000
0000
,  // measure 44
1000
0000
0000
0000
,  // measure 45
0100
0000
0000
0000
,  // measure 46
0020
0000
0000
0000
,  // measure 47
0030
0000
0000
0000
,  // measure 48
1001
0000
0000
0000
,  // measure 49
0010
0000
0000
0000
,  // measure 50
0100
0000
0000
0000
,  // measure 51
0001
0000
0000
0000
,  // measure 52
1000
0000
0000
0000
,  // measure 53
0010
0000
0000
0000
,  // measure 54
0100
0000
0000
0000
,  // measure 55
0001
0000
0000
0000
,  // measure 56
1001
0000
0000
0000
,  // measure 57
1001
0000
0000
0000
,  // measure 58
0110
0000
0000
0000
,  // measure 59
1001
0000
0000
0000
,  // measure 60
0200
0000
0000
0000
,  // measure 61
0000
0000
0000
0000
,  // measure 62
0000
0000
0000
0000
,  // measure 63
0000
0000
0000
0000
0000
0000
0000
0000
0000
0000
0000
0000
0000
0000
0000
0000
0000
0000
0000
0000
0000
0000
0000
0000
0000
0000
0000
0000
0000
0000
0000
0000
0000
0000
0000
0000
0000
0000
0000
0000
0000
0000
0000
0000
0000
0000
0000
0000
0000
0000
0000
0000
0000
0000
0000
0000
0000
0000
0000
0000
0000
0000
0000
0000
0000
0000
0000
0000
0000
0000
0000
0000
0000
0000
0000
0000
0000
0000
0000
0000
0000
0000
0000
0000
0000
0000
0000
0000
0000
0000
0000
0000
0000
0000
0000
0000
0000
0300
0000
0000
0000
0000
0000
0000
0000
0000
0000
0000
0000
0000
0000
0000
0000
0000
0000
0000
0000
0000
0000
0000
0000
0000
0000
0000
0000
0000
0000
0000
0000
0000
0000
0000
0000
0000
0000
0000
0000
0000
0000
0000
0000
0000
0000
0000
0000
0000
0000
0000
0000
0000
0000
0000
0000
0000
0000
0000
0000
0000
0000
0000
0000
0000
0000
0000
0000
0000
0000
0000
0000
0000
0000
0000
0000
0000
0000
0000
0000
0000
0000
0000
0000
0000
0000
0000
0000
0000
0000
0000
0000
0000
0000
0000
;
