#TITLE:ユメセカイ EVOLVED TYPE2;
#SUBTITLE:ソードアート.オンライン ED;
#ARTIST:戸松 遥;
#TITLETRANSLIT:Yume Sekai EVOLVED TYPE2;
#SUBTITLETRANSLIT:Sword Art Online ED;
#ARTISTTRANSLIT:Haruka Tomatsu;
#CREDIT:;
#BANNER:Yume Sekai EVOLVED TYPE2.png;
#BACKGROUND:Yume Sekai EVOLVED TYPE2-bg.png;
#LYRICSPATH:;
#CDTITLE:cdtitle.png;
#MUSIC:Yume Sekai EVOLVED TYPE2.mp3;
#MENUCOLOR:0,0,1,1;
#METERTYPE:DDR X;
#OFFSET:-0.949;
#SAMPLESTART:0.000;
#SAMPLELENGTH:10.000;
#SELECTABLE:YES;
#BPMS:0.000=162.000,228.000=81.000;
#STOPS:;
#BGCHANGES:;

//---------------dance-single - ----------------
#NOTES:
     dance-single:
     :
     Hard:
     12:
     0.404,0.484,0.350,0.180,0.000:
0000
0000
0000
0000
,
0000
0000
0000
0000
,
0000
0000
0000
0000
,
0000
0000
0000
0000
,
1001
0100
0010
0101
,
0000
0010
0100
0001
,
1010
0001
0100
1010
,
0100
0000
0010
0000
1000
0100
0010
0000
,
0101
0000
1000
0000
0010
0000
0100
0001
,
0000
0001
0100
0000
0010
0000
1000
0100
,
0020
0100
0100
0001
,
0130
0000
1000
0000
0100
0001
0100
0000
,
0020
0000
0001
0000
1030
0000
0100
0001
,
0100
0010
0101
0100
,
0200
0001
1300
0000
,
0200
1000
0301
0000
,
0100
0000
0010
0000
1000
0000
0001
1000
,
0000
0001
0100
0000
0010
0000
1000
0010
,
0020
0001
0001
1000
,
1030
0000
0100
0000
0010
0100
0010
0000
,
2000
0000
0000
0000
3001
0000
0100
0001
,
1000
0001
0100
0000
0010
0000
0100
0000
,
0200
1000
0310
0000
,
0020
0000
0001
0000
0130
0010
0100
0000
,
1001
0100
0101
0010
,
0011
0100
0110
1000
,
1100
0100
0110
0010
,
0011
0000
0001
0000
1000
0001
0100
0010
,
0100
0000
1000
0002
1000
0000
1003
0002
,
0010
0000
0100
0023
0100
0000
1030
0000
,
1100
0001
0101
1000
,
1000
0010
0100
0000
0001
1000
0001
0000
,
1001
0100
0110
0010
,
0011
0001
1001
1000
,
1010
0100
0101
0010
,
0011
0000
1000
0000
1000
0001
0100
0010
,
0210
0010
0010
1000
,
1000
0010
0010
0001
,
0301
1000
0001
0100
,
0010
0000
1000
0000
1000
0100
0010
0001
,
1001
0100
0110
0001
,
0100
0010
0100
0000
0010
0000
1000
0010
,
2000
0000
0001
0000
,
3001
0100
0010
0000
,
1001
0100
0010
0100
,
0010
0100
0010
0000
1000
0001
1000
0000
,
0101
0000
0000
0000
0010
0000
0100
0010
,
0000
0010
0100
0000
1000
0000
0001
0000
,
1001
0000
0100
0010
,
0100
0010
1000
0001
,
2000
0000
0000
0000
3001
0000
0100
0001
,
0000
0001
0100
0000
0010
0000
1000
0000
,
1001
0000
0010
0100
,
0101
0000
0010
1000
,
0011
0000
0000
0110
0000
0000
1010
0000
,
0000
0101
0000
0000
0010
0000
0100
0000
,
2002
0000
0000
3003
,
0100
0000
0010
0100
0010
0000
1000
0001
,
2000
0000
0000
0000
,
0000
0000
0000
0002
,
0000
0000
3003
0000
;

//---------------dance-single - ----------------
#NOTES:
     dance-single:
     :
     Medium:
     9:
     0.317,0.393,0.200,0.160,0.000:
0000
0000
0000
0000
,
0000
0000
0000
0000
,
0000
0000
0000
0000
,
0000
0000
0000
0000
,
1010
0000
0100
1001
,
0000
0100
0000
1000
,
0110
0000
0001
0110
,
0000
0100
0010
0100
,
1001
0000
0010
0000
0100
0000
0001
1000
,
0000
0001
0100
0010
,
0200
0000
0001
0000
,
0301
0000
0010
0000
0001
1000
0001
0000
,
0200
0000
0000
0000
0310
0000
0001
1000
,
0000
0100
1000
0001
,
0002
0000
0013
0000
,
0002
0000
1003
0000
,
0001
0000
0100
0000
0010
0000
1000
0010
,
0000
0001
0100
0010
,
0200
0000
1000
0000
,
0310
0000
0001
0000
1000
0001
1000
0000
,
0020
0000
0000
0000
1030
0000
0001
2000
,
0000
0000
3100
0001
,
0002
0000
0103
0000
,
0200
0000
0301
1000
,
1010
0001
0001
0100
,
1100
0001
0001
0010
,
0011
0001
0001
0100
,
1100
1000
0010
0001
,
1000
0000
0010
1000
0000
0000
0010
1000
,
0000
0010
0001
0010
,
0001
1000
0001
0010
,
0010
0001
1000
1000
,
1010
0001
0001
0100
,
1100
1000
0010
0010
,
0110
0001
0001
0100
,
1100
0000
0010
0000
0010
1000
0001
0000
,
0102
0000
0100
0000
,
0010
0000
0100
0000
,
1003
0010
1000
0001
,
0100
0010
0010
0100
,
1010
0001
0101
1000
,
0001
0000
0100
0000
0100
0000
0010
0200
,
0000
0000
1300
0000
,
1000
0001
0100
0000
,
1010
0001
0100
0001
,
0100
0100
0010
0010
,
1001
0000
0000
0000
0100
0000
0001
0100
,
0000
0100
0001
0000
0010
0000
1000
0000
,
1010
0000
0001
0100
,
0001
0100
0010
1000
,
0020
0000
0000
0000
1030
0000
0001
1000
,
0000
1000
0000
0000
0100
0000
0010
0000
,
0010
0000
0100
0001
,
0001
0000
0100
0010
,
0100
0000
0000
0100
0000
0000
0100
0000
,
0000
0100
0000
0000
0100
0000
0001
0000
,
2020
0000
0000
3030
,
0001
0100
0100
0010
,
0002
0000
0000
0000
,
0000
0000
0000
2003
,
0000
0000
3000
0000
;

//---------------dance-single - ----------------
#NOTES:
     dance-single:
     :
     Easy:
     6:
     0.233,0.272,0.180,0.180,0.000:
0000
0000
0000
0000
,
0000
0000
0000
0000
,
0000
0000
0000
0000
,
0000
0000
0000
0000
,
0110
0000
0000
1100
,
0000
0001
0000
0000
,
0011
0000
0000
0011
,
0000
0001
0010
0000
,
1100
0000
0001
1000
,
0000
1000
0001
0000
,
0002
0000
0003
0000
,
0000
0010
1000
0100
,
0002
0000
0013
2000
,
0000
3010
0100
0000
,
2000
0000
3010
0000
,
0002
0000
0103
0000
,
0000
0001
0010
0100
,
0000
1000
0001
0002
,
0000
0000
0100
0000
,
0003
1000
0100
0001
,
0020
0000
0030
0002
,
0000
0000
0003
1000
,
2000
0000
3001
0000
,
0002
0000
1003
0000
,
0110
0000
1000
0000
,
0101
0000
1000
0000
,
1010
0000
1000
0000
,
0101
0000
0010
0000
,
0100
0010
0000
0010
,
0000
0010
1000
0010
,
1000
0100
0000
0010
,
0010
1000
0000
0000
,
0110
0000
1000
0000
,
0101
0000
0010
0000
,
0011
0000
1000
0000
,
0101
0010
1000
0001
,
2000
3000
0002
0003
,
0020
0030
0002
0003
,
0100
0010
0200
0000
,
0300
0000
0010
0100
,
0110
1000
0001
0000
,
1000
0001
0001
0002
,
0000
0000
0003
0000
,
0100
1000
0001
0000
,
0110
1000
0001
0000
,
0001
0001
0000
0010
,
1100
0000
0001
1000
,
0001
1000
0010
0000
,
0110
0000
0000
0001
,
1000
0000
0010
0100
,
0020
0000
0130
0100
,
0010
0000
0001
0010
,
0000
0000
0001
1000
,
0000
0000
0001
0010
,
0001
0000
1000
0000
,
0001
0000
0100
0010
,
0110
0000
0000
0000
,
1000
0000
0100
0010
,
2000
0000
0000
0000
,
0000
0000
0000
0000
,
0000
0000
3000
0000
;

//---------------dance-single - ----------------
#NOTES:
     dance-single:
     :
     Beginner:
     1:
     0.099,0.182,0.110,0.080,0.000:
0000
0000
0000
0000
,
0000
0000
0000
0000
,
0000
0000
0000
0000
,
0000
0000
0000
0000
,
1001
0000
0000
0110
,
0000
0000
0000
0000
,
0110
0000
0000
1001
,
0000
0000
0000
0000
,
1001
0000
0000
0000
,
1000
0000
0000
0000
,
0002
0000
0000
0000
,
0003
0000
0000
0000
,
0200
0000
0000
0000
,
0300
0000
0000
0000
,
0010
0000
0000
0000
,
0001
0000
0000
0000
,
1000
0000
0000
0000
,
0100
0000
0000
0000
,
0020
0000
0000
0000
,
0030
0000
0000
0000
,
0002
0000
0000
0000
,
0003
0000
0000
0000
,
1000
0000
0000
0000
,
0100
0000
0000
0000
,
1001
0000
0000
0000
,
0010
0000
0000
0000
,
0100
0000
0000
0000
,
0001
0000
0000
0000
,
1000
0000
0000
0000
,
0100
0000
0000
0000
,
0010
0000
0000
0000
,
0001
0000
0000
0000
,
1001
0000
0000
0000
,
0001
0000
0000
0000
,
0010
0000
0000
0000
,
0100
0000
0000
0000
,
0110
0000
0001
0000
,
0010
0000
0100
0000
,
1000
0000
0100
0000
,
0010
0000
0001
0000
,
1001
0000
0000
0000
,
0100
0000
0000
0000
,
0020
0000
0000
0000
,
0030
0000
0000
0000
,
1000
0000
0000
0000
,
0100
0000
0000
0000
,
0002
0000
0000
0000
,
0003
0000
0000
0000
,
1001
0000
0000
0000
,
0100
0000
0000
0000
,
0020
0000
0000
0000
,
0030
0000
0000
0000
,
1000
0000
0000
0000
,
0100
0000
0000
0000
,
0010
0000
0000
0000
,
1001
0000
0000
0000
,
0000
0000
0000
0000
,
0200
0000
0000
0000
,
0000
0000
0000
0000
,
0000
0000
0000
0000
,
0000
0000
0300
0000
;
