#TITLE:ユメセカイ EVOLVED TYPE1;
#SUBTITLE:ソードアート.オンライン ED;
#ARTIST:戸松 遥;
#TITLETRANSLIT:Yume Sekai EVOLVED TYPE1;
#SUBTITLETRANSLIT:Sword Art Online ED;
#ARTISTTRANSLIT:Haruka Tomatsu;
#GENRE:ANIMATION BEAT#0;
#CREDIT:;
#BANNER:Yume Sekai EVOLVED TYPE1.png;
#BACKGROUND:Yume Sekai EVOLVED TYPE1-bg.png;
#LYRICSPATH:;
#CDTITLE:cdtitle.png;
#MUSIC:Yume Sekai EVOLVED TYPE1.mp3;
#MENUCOLOR:0,0,1,1;
#METERTYPE:DDR X;
#OFFSET:-0.949;
#SAMPLESTART:0.000;
#SAMPLELENGTH:10.000;
#SELECTABLE:YES;
#BPMS:0.000=162.000
,240.000=81.000
;
#STOPS:
;
#BGCHANGES:;
#KEYSOUNDS:;
#ATTACKS:;

//---------------dance-single - ----------------
#NOTES:
     dance-single:
     :
     Hard:
     12:
     0.401,0.430,0.232,0.222,0.005,243.000,24.000,23.000,0.000,0.000,0.000,0.401,0.430,0.232,0.222,0.005,243.000,24.000,23.000,0.000,0.000,0.000:
0000
0000
0000
0000
,
0000
0000
0000
0000
,
0000
0000
0000
0000
,
0000
0000
0000
0000
,
1001
0100
0010
0101
,
0000
0010
0100
0001
,
1010
0001
0100
1010
,
0100
0000
0010
0000
1000
0100
0010
0000
,
0101
0000
1000
0000
0010
0000
1000
0010
,
0000
0010
1000
0000
0001
0000
0100
0000
,
0020
0100
0130
0000
,
2000
0000
0001
0000
3001
0100
0001
0000
,
0010
0000
0100
0000
0010
0000
1000
0001
,
0000
0010
0100
0000
0010
0000
0100
0000
,
0020
1000
1030
0000
,
0200
0001
0301
0100
,
0010
0000
1000
0000
0001
0000
0100
0010
,
0000
0001
1000
0000
0010
0000
0100
0010
,
0002
1000
1003
0000
,
0200
0000
0010
0000
0310
0100
0010
0000
,
2000
0001
3001
0000
,
0200
0001
0301
0000
,
0020
0001
0031
0000
,
0002
0000
1000
0000
1003
0001
1000
0000
,
1001
0000
0100
0010
0000
0000
0100
0001
,
0000
1000
0100
0000
0010
0000
0001
0000
,
0200
0010
0010
1000
,
0002
0000
0000
0303
,
0100
0000
0010
0000
1000
0000
0010
0100
,
0000
0001
1000
0000
0100
0000
0010
0000
,
0001
0000
0100
0010
0000
0100
0010
0000
,
1000
0000
0100
0000
0010
0100
0010
0100
,
1001
0100
0110
0001
,
0011
0100
1100
0100
,
0110
0010
0011
0001
,
0101
0000
1000
0000
0100
0010
0100
0010
,
1001
0100
0101
0010
,
1010
0000
0100
0001
0100
0010
1000
0001
,
0020
1000
0100
0001
,
0100
0000
1000
0000
0100
0100
0031
0001
,
1001
0100
0010
0001
,
0100
0000
0001
0000
1000
0000
0010
1000
,
0002
0000
0000
0000
1000
0000
1000
1000
,
2003
0010
3100
0000
,
0011
0100
0010
1000
,
1000
0000
0001
0000
0100
0000
0010
0100
,
2000
0000
0000
0000
3001
0000
0100
0001
,
0000
0100
0010
0000
1000
0000
0010
0000
,
1001
0000
0100
0100
0010
0000
0100
0000
,
0001
0100
0010
1000
,
0200
0000
0000
0000
0310
0000
1000
0001
,
0000
1000
0001
0000
0100
0000
0010
0000
,
1001
0000
0010
0001
,
1001
0000
0000
0000
0010
0000
0100
0010
,
0100
0000
0010
0000
1000
1000
0100
0000
,
0010
0000
0001
0000
0100
0100
0010
0000
,
1001
0100
0011
0100
,
0001
0000
1000
0000
0100
0000
0010
0100
,
0000
0001
1000
0000
0100
0010
0100
0000
,
2002
0000
0000
3003
,
0200
0010
0320
1000
,
2030
0000
0000
0000
,
0000
0000
0000
0000
0000
0000
0000
0001
0000
0000
0000
0000
0002
0000
0000
0000
,
0000
0000
3003
0000
;

//---------------dance-single - ----------------
#NOTES:
     dance-single:
     :
     Medium:
     9:
     0.322,0.338,0.184,0.242,0.000,189.000,19.000,25.000,0.000,0.000,0.000,0.322,0.338,0.184,0.242,0.000,189.000,19.000,25.000,0.000,0.000,0.000:
0000
0000
0000
0000
,
0000
0000
0000
0000
,
0000
0000
0000
0000
,
0000
0000
0000
0000
,
1010
0000
0100
1001
,
0000
0100
0000
1000
,
0110
0000
0001
0110
,
0000
0100
0010
0100
,
1001
0000
0010
0000
0100
0000
0010
0100
,
0000
0001
1000
0001
,
0200
0000
0301
0000
,
0010
0000
1000
0000
1000
0001
1000
0000
,
0200
0000
0000
0000
0310
0000
0010
2000
,
0000
0000
3100
0001
,
0200
0000
0310
0000
,
0200
0000
0301
0001
,
1000
0000
0010
0000
1000
0000
0001
0200
,
0000
0000
0310
0000
1000
0000
0001
2000
,
0000
0000
3010
1000
,
0001
0000
0100
0000
0100
0001
1000
0000
,
0020
0000
1030
0000
,
0002
0000
1003
0000
,
0200
0000
1300
0000
,
2000
0000
3010
0010
,
1010
0000
0001
0200
0000
0000
1000
0000
,
1000
0301
0100
1000
,
0001
0100
1000
0100
,
2000
0000
0000
3001
,
0001
0000
0100
0000
0010
0000
0100
0002
,
0000
0000
0103
0100
,
1000
0001
0000
0100
,
0010
0001
0100
0100
,
1010
0001
0001
1000
,
1100
0001
0001
0001
,
0101
0100
1000
1000
,
1001
0010
0001
0001
,
1010
0000
1001
0000
,
0110
0001
0001
0010
,
0200
0000
0001
0000
,
0001
0000
0001
1300
,
1010
0001
0100
1000
,
0001
1000
0010
0100
,
2000
0000
0010
0000
,
3020
0000
0031
0000
,
1100
0001
0100
0010
,
0010
1000
0001
0100
,
0020
0000
0000
0000
1030
0000
0001
1000
,
0000
0001
0000
0010
0000
0000
0100
0000
,
1001
0000
0100
0001
,
1000
0001
0100
0010
,
0002
0000
0000
0000
0103
0000
0010
1000
,
0000
0010
0000
0000
0001
0000
0100
0000
,
1000
0000
0100
1000
,
0010
0000
0100
0001
,
1000
0100
0010
0001
,
0100
1000
0001
0100
,
1010
0001
1000
0001
,
1001
0010
0001
0100
,
1000
0010
0001
0001
,
2020
0000
0000
3030
,
0002
0000
0203
0000
,
0320
0000
0000
0000
,
0000
0000
0000
2030
,
0000
0000
3000
0000
;

//---------------dance-single - ----------------
#NOTES:
     dance-single:
     :
     Easy:
     6:
     0.227,0.246,0.164,0.203,0.000,126.000,17.000,21.000,0.000,0.000,0.000,0.227,0.246,0.164,0.203,0.000,126.000,17.000,21.000,0.000,0.000,0.000:
0000
0000
0000
0000
,
0000
0000
0000
0000
,
0000
0000
0000
0000
,
0000
0000
0000
0000
,
0110
0000
0000
1100
,
0000
0001
0000
0000
,
0011
0000
0000
0011
,
0000
0001
0010
0000
,
1100
0000
0001
0010
,
0000
1000
0000
1000
,
0002
0000
0003
0000
,
0000
0100
0010
0100
,
0002
0000
0003
0200
,
0000
0000
0300
1000
,
0001
0000
0010
0000
,
0002
0000
0000
0003
,
0000
0010
0100
0002
,
0000
0003
0100
0200
,
0000
0000
0300
0000
,
0000
0001
0001
0100
,
0020
0000
0030
0000
,
2000
0000
3000
0000
,
0002
0000
0003
0000
,
0200
0000
0310
0000
,
0110
0002
0000
0100
,
0000
1003
0001
0100
,
1000
0001
0000
0001
,
0200
0000
0000
0300
,
1000
0001
0000
2000
,
0000
0000
3001
0001
,
0100
1000
0000
0001
,
0010
1000
0000
0000
,
0110
0000
1000
0000
,
0101
0000
1000
0000
,
1001
0000
0100
0000
,
1100
0000
1000
0000
,
0110
0000
1000
0000
,
0001
0010
0100
1000
,
0002
0000
2003
0000
,
3000
0000
1000
0000
,
0110
1000
0001
0000
,
1000
0100
0010
0000
,
0200
0000
0310
0000
,
0020
0000
0130
0000
,
0101
1000
0001
0000
,
0010
0100
1000
0000
,
0020
0000
0130
0200
,
0000
0310
0000
0000
,
1100
0000
0001
1000
,
0100
0000
0001
0010
,
2000
0000
3000
0010
,
0001
0000
1000
0001
,
0000
0000
0001
0100
,
0000
0000
0001
1000
,
0100
0000
0010
1000
,
0001
0000
1000
0001
,
0110
0000
0100
1000
,
1100
0000
1000
0001
,
0100
0000
0010
0100
,
0110
0000
0000
0000
,
1000
0000
0001
0000
,
0020
0000
0000
0000
,
0000
0000
0000
0000
,
0000
0000
0030
0000
;

//---------------dance-single - ----------------
#NOTES:
     dance-single:
     :
     Beginner:
     1:
     0.101,0.123,0.116,0.058,0.000,55.000,12.000,6.000,0.000,0.000,0.000,0.101,0.123,0.116,0.058,0.000,55.000,12.000,6.000,0.000,0.000,0.000:
0000
0000
0000
0000
,
0000
0000
0000
0000
,
0000
0000
0000
0000
,
0000
0000
0000
0000
,
1001
0000
0000
0110
,
0000
0000
0000
0000
,
0110
0000
0000
1001
,
0000
0000
0000
0000
,
1001
0000
0000
0000
,
1000
0000
0000
0000
,
0200
0000
0000
0000
,
0300
0000
0000
0000
,
0010
0000
0000
0000
,
0002
0000
0000
0000
,
0003
0000
0000
0000
,
1000
0000
0000
0000
,
0001
0000
0000
0000
,
0010
0000
0000
0000
,
0200
0000
0000
0000
,
0300
0000
0000
0000
,
2000
0000
0000
0000
,
3000
0000
0000
0000
,
0100
0000
0000
0000
,
0010
0000
0000
0000
,
1001
0000
0000
0000
,
0001
0000
0000
0000
,
1000
0000
0000
0000
,
0001
0000
0000
0000
,
0110
0000
0000
0000
,
0010
0000
0000
0000
,
0100
0000
0000
0000
,
0010
0000
0000
0000
,
1001
0000
0000
0000
,
0010
0000
0000
0000
,
0100
0000
0000
0000
,
0010
0000
0000
0000
,
1000
0000
0100
0000
,
0010
0000
0001
0000
,
0010
0000
0100
0000
,
1000
0000
0000
0000
,
1001
0000
0000
0000
,
0010
0000
0000
0000
,
0010
0000
0000
0000
,
0100
0000
0000
0000
,
1001
0000
0000
0000
,
0100
0000
0000
0000
,
0100
0000
0000
0000
,
0010
0000
0000
0000
,
0110
0000
0000
0000
,
0001
0000
0000
0000
,
0002
0000
0000
0000
,
0003
0000
0000
0000
,
1000
0000
0000
0000
,
0100
0000
0000
0000
,
0010
0000
0000
0000
,
0001
0000
0000
0000
,
1001
0000
0000
0000
,
0001
0000
0000
0000
,
0010
0000
0000
0000
,
0100
0000
0000
0000
,
0002
0000
0000
0000
,
0000
0000
0000
0000
,
0000
0000
0000
0000
,
0000
0000
0000
0000
0000
0000
0000
0000
0000
0000
0000
0000
0000
0000
0000
0000
0000
0000
0000
0000
0000
0000
0000
0000
0000
0000
0000
0000
0000
0000
0000
0000
0000
0000
0000
0000
0000
0000
0000
0000
0000
0000
0000
0000
0000
0000
0000
0000
0000
0000
0000
0000
0000
0000
0000
0000
0000
0000
0000
0000
0000
0000
0000
0000
0000
0000
0000
0000
0000
0000
0000
0000
0000
0000
0000
0000
0000
0000
0000
0000
0000
0000
0000
0000
0000
0000
0000
0000
0000
0000
0000
0000
0000
0000
0000
0000
0000
0003
0000
0000
0000
0000
0000
0000
0000
0000
0000
0000
0000
0000
0000
0000
0000
0000
0000
0000
0000
0000
0000
0000
0000
0000
0000
0000
0000
0000
0000
0000
0000
0000
0000
0000
0000
0000
0000
0000
0000
0000
0000
0000
0000
0000
0000
0000
0000
0000
0000
0000
0000
0000
0000
0000
0000
0000
0000
0000
0000
0000
0000
0000
0000
0000
0000
0000
0000
0000
0000
0000
0000
0000
0000
0000
0000
0000
0000
0000
0000
0000
0000
0000
0000
0000
0000
0000
0000
0000
0000
0000
0000
0000
0000
0000
;
