#TITLE:ユナイト;
#SUBTITLE:アクセル ワールド OP2;
#ARTIST:三澤 紗千香;
#TITLETRANSLIT:Unite;
#SUBTITLETRANSLIT:Accel World ED2;
#ARTISTTRANSLIT:Sachika Misawa;
#CREDIT:;
#GENRE:ANIMATION BEAT#0;
#BANNER:Unite.png;
#BACKGROUND:Unite-bg.png;
#LYRICSPATH:;
#CDTITLE:cdtitle.png;
#MUSIC:Unite.mp3;
#MENUCOLOR:0,0,1,1;
#METERTYPE:DDR X;
#OFFSET:-0.150;
#SAMPLESTART:37.126;
#SAMPLELENGTH:12.000;
#SELECTABLE:YES;
#BPMS:0.000=188.000;
#STOPS:;
#BGCHANGES:;

//---------------dance-single - ----------------
#NOTES:
     dance-single:
     :
     Hard:
     13:
     0.575,0.581,0.262,0.150,0.012: // measure 1
0000
0000
0000
0000
,  // measure 2
0000
0000
0000
0000
,  // measure 3
0000
0000
0000
0000
,  // measure 4
0000
0000
0000
0000
,  // measure 5
1001
0000
0100
0000
0010
0100
0010
0000
,  // measure 6
1000
0000
0100
0000
0010
0100
0010
0000
,  // measure 7
1000
0100
0001
0100
0000
0001
0100
0010
,  // measure 8
0000
0001
1000
0010
0000
0110
0000
0000
,  // measure 9
1010
0000
0100
0010
0100
0000
0010
0000
,  // measure 10
2000
0100
0010
0001
,  // measure 11
0100
0000
0001
0000
3100
0001
0100
0000
,  // measure 12
1000
0000
0100
0000
0010
0100
0010
0100
,  // measure 13
0010
1000
0100
0001
,  // measure 14
0002
1000
0010
0100
,  // measure 15
0100
1000
0100
0013
,  // measure 16
0101
0000
0101
0000
0000
0000
1000
0000
0010
1000
0000
0000
0100
0001
0000
0000
,  // measure 17
0110
0000
1000
0100
0010
0000
0001
0000
,  // measure 18
0100
0000
0001
0000
1000
0001
1000
0000
,  // measure 19
0010
0000
0100
0000
0010
0100
0010
0100
,  // measure 20
0010
0000
0100
0000
0001
1000
0001
0000
,  // measure 21
1000
0000
0010
0100
0000
0010
0000
0110
,  // measure 22
0000
1000
0100
0000
0010
0000
0100
0001
,  // measure 23
0100
0000
0010
1000
0000
0010
0000
0110
,  // measure 24
0000
1000
0100
0000
0010
0100
0010
0100
,  // measure 25
0010
0000
1000
0100
0000
0010
0000
0102
,  // measure 26
0000
1000
1003
0000
0010
0000
0100
0000
,  // measure 27
0001
0000
0100
0001
0000
0100
0000
2100
,  // measure 28
0000
0001
3001
0000
0010
0100
0010
0000
,  // measure 29
1000
0000
0010
1000
0000
0010
0000
0110
,  // measure 30
0000
1000
0100
0000
0010
0100
0010
0000
,  // measure 31
0100
0000
0100
0000
0010
1000
0010
0000
,  // measure 32
0100
0000
0001
0000
1000
0100
0010
0000
,  // measure 33
1000
0100
0010
0001
0010
0100
1000
0000
,  // measure 34
0010
0000
0100
0001
0100
0000
0020
0000
,  // measure 35
1000
0000
0100
0000
0001
0030
0100
0001
,  // measure 36
0100
0000
1000
0000
0010
0000
0100
0010
,  // measure 37
2000
0000
0010
0000
0001
0000
3001
0100
,  // measure 38
0001
0000
1000
0000
0100
0010
0000
0001
,  // measure 39
1000
0000
0010
0000
0100
0010
1000
0000
,  // measure 40
0100
0010
0100
0001
0000
0100
0000
0110
,  // measure 41
0000
1000
0100
0000
0010
0000
1000
0100
,  // measure 42
0010
0000
0001
0100
0010
0100
0200
0000
,  // measure 43
1000
0000
0010
0000
0301
0000
0100
0010
,  // measure 44
1000
0000
0100
0010
0100
0000
0010
1000
,  // measure 45
0002
0000
0100
0000
0010
0000
1003
0010
,  // measure 46
1000
0000
0100
0000
0010
0100
0000
0010
,  // measure 47
1000
0000
0100
0000
0010
0100
0010
0000
,  // measure 48
1000
0100
0010
0001
0000
0101
0000
1010
,  // measure 49
0000
0100
0010
0000
0100
0010
0100
0010
,  // measure 50
2000
0100
0010
3001
,  // measure 51
0002
0010
0100
1003
,  // measure 52
1010
0000
0100
0000
0010
0100
0010
0000
,  // measure 53
1000
0000
0100
0010
0100
0010
1000
0000
,  // measure 54
0001
0100
0001
0000
0100
0010
1000
0000
,  // measure 55
1000
0100
0010
0000
0001
0100
0001
0100
,  // measure 56
0101
0000
1000
0010
0100
0010
0100
0000
,  // measure 57
1000
0100
0010
0000
0100
0001
0100
0000
,  // measure 58
1000
0100
0010
0110
0000
0100
0001
0110
,  // measure 59
0000
0100
0010
0110
0000
0110
0000
2002
,  // measure 60
0000
0000
0000
0000
,  // measure 61
0000
0000
0000
0000
,  // measure 62
0000
0000
0000
0000
,  // measure 63
3003
0000
0000
0000
;

//---------------dance-single - ----------------
#NOTES:
     dance-single:
     :
     Medium:
     9:
     0.389,0.426,0.237,0.150,0.000:
0000
0000
0000
0000
,
0000
0000
0000
0000
,
0000
0000
0000
0000
,
0000
0000
0000
0000
,
1001
0100
0010
0001
,
0010
0100
0010
1000
,
1010
0000
0000
0110
0000
0000
0000
0101
,
0000
0000
0000
0110
0000
0110
0000
0000
,
2000
0100
0100
0000
,
0010
0010
0010
0000
,
0001
0001
0001
0000
,
3001
0000
0100
0010
,
0100
0002
1000
1000
,
1000
0000
0100
0100
,
0100
0000
1000
1000
,
1003
0000
0100
0010
,
0110
0200
0010
0010
,
1000
1000
0000
0010
,
0010
0000
0001
0001
,
0301
0000
0010
1000
,
0020
0000
0100
0000
0000
0001
0000
0001
,
0000
0100
0100
0000
,
1000
0000
0000
0100
0000
0100
0000
0100
,
0000
1000
1000
0000
,
1030
0000
1000
0001
0000
0001
0000
0001
,
0000
0100
0010
1000
,
0010
0000
0010
1000
0000
1000
0000
1000
,
0000
0100
0010
0001
,
1000
0000
0010
0100
0000
0100
0000
0100
,
0000
1000
0010
0001
,
0100
0010
1000
0010
,
1001
0000
0100
0010
,
0200
0000
0000
0000
,
0310
1000
0100
0002
,
0000
1000
0000
0103
,
1000
0100
0010
0100
,
0020
0000
1000
0000
,
0130
1000
0010
0001
,
2000
3010
0100
0010
,
0100
0000
0000
0001
0000
0100
0000
0101
,
0000
1000
0010
0100
,
0010
1000
0010
0020
,
0000
0001
0000
0130
,
0010
1000
0100
0010
,
0101
0000
0100
0010
,
1000
0100
0010
0100
,
0001
0001
0001
0100
,
0010
0000
1000
0010
0000
0100
0000
0110
,
0000
1000
0001
0100
,
0020
0000
1000
0000
,
0130
0010
1000
0001
,
1001
0100
0010
0001
,
0010
0100
0010
1000
,
0001
1000
0010
0100
,
0010
1000
0010
0100
,
1001
0100
0010
0001
,
0010
0100
1000
0010
,
1010
0000
0000
0110
0000
0000
0000
0011
,
0000
0000
0000
0110
0000
0110
0000
2002
,
0000
0000
0000
0000
,
0000
0000
0000
0000
,
0000
0000
0000
0000
,
3003
0000
0000
0000
;

//---------------dance-single - ----------------
#NOTES:
     dance-single:
     :
     Easy:
     6:
     0.325,0.387,0.112,0.137,0.000:
0000
0000
0000
0000
,
0000
0000
0000
0000
,
0000
0000
0000
0000
,
0000
0000
0000
0000
,
1001
0000
0100
0000
,
0010
0100
0010
0000
,
1001
0000
0000
0100
0000
0000
0000
0010
,
0000
0000
0000
0100
0000
0000
0000
0000
,
1010
0000
0100
0000
,
0010
0000
0100
0000
,
0001
0000
1000
0000
,
1001
0000
0010
0100
,
0010
0000
1000
0000
,
0001
0000
0100
0000
,
0010
0000
0100
0000
,
0110
0000
0110
0000
,
1000
0100
0010
0000
,
0001
0010
0100
0000
,
1000
0001
1000
0001
,
1000
0000
0010
0100
,
0010
0000
0000
0100
0000
0010
0000
0100
,
0000
0001
1000
0000
,
0100
0000
0000
0010
0000
0100
0000
0010
,
0000
1000
0001
0000
,
2000
0000
0000
0001
0000
0001
0000
3001
,
0000
0100
0010
0100
,
0002
0000
0000
1000
0000
1000
0000
1003
,
0000
0100
0010
0001
,
0020
0000
0000
0100
0000
0100
0000
0130
,
0000
1000
0100
0010
,
0002
0000
2003
0000
,
3020
0000
0000
0000
,
0200
0000
0000
0330
,
1000
0100
0010
0001
,
0000
0100
0010
0100
,
0000
1000
0100
0001
,
1000
0001
0000
0100
,
0010
1000
0100
0010
,
0002
1003
0100
0010
,
0100
0000
0010
0000
1000
0000
0000
1001
,
0000
0100
0010
0100
,
0001
0100
0010
1000
,
0000
0010
0100
0001
,
1000
0100
0010
1000
,
0001
0000
1000
0000
,
0100
0010
1000
0010
,
0001
0100
0010
0100
,
1000
0000
0000
0100
0000
0100
0000
0100
,
0000
0010
1000
0001
,
0010
0000
0100
0000
,
0020
0000
0000
0000
,
0130
1000
0100
0010
,
0001
0100
0010
1000
,
0000
0001
0100
0001
,
0000
1000
0010
1000
,
0010
0000
0100
0010
,
0100
0001
0100
0010
,
1001
0000
0000
0100
0000
0000
0000
0010
,
0000
0000
0000
0100
0000
0001
0000
2002
,
0000
0000
0000
0000
,
0000
0000
0000
0000
,
0000
0000
0000
0000
,
3003
0000
0000
0000
;

//---------------dance-single - ----------------
#NOTES:
     dance-single:
     :
     Beginner:
     2:
     0.137,0.184,0.187,0.000,0.000:
0000
0000
0000
0000
,
0000
0000
0000
0000
,
0000
0000
0000
0000
,
0000
0000
0000
0000
,
1001
0000
0000
0000
,
0100
0000
0000
0000
,
0010
0000
0000
0000
,
0000
0000
0000
0000
,
1001
0000
0100
0000
,
0100
0000
0000
0000
,
0010
0000
0010
0000
,
0010
0000
0000
0000
,
0001
0000
0001
0000
,
0001
0000
0000
0000
,
0100
0000
0100
0000
,
0100
0000
0000
0000
,
1000
0000
1000
0000
,
1000
0000
0000
0000
,
0001
0000
0001
0000
,
0001
0000
0000
0000
,
0100
0000
0000
0000
,
0100
0000
0000
0000
,
0010
0000
0000
0000
,
0010
0000
0000
0000
,
1001
0000
0000
0000
,
0100
0000
0000
0000
,
1001
0000
0000
0000
,
0010
0000
0000
0000
,
1001
0000
0000
0000
,
0100
0000
0000
0000
,
1000
0000
1000
0000
,
1000
0000
0000
0000
,
0001
0000
0000
0000
,
0110
0000
0000
0000
,
1000
0000
0000
0000
,
1001
0000
0000
0000
,
0010
0000
0000
0000
,
0110
0000
0000
0000
,
0001
0000
0000
0000
,
1001
0000
0000
0000
,
0100
0000
0000
0000
,
1000
0000
0000
0000
,
0100
0000
0000
0000
,
0010
0000
0000
0000
,
0001
0000
0000
0000
,
1001
0000
0000
0000
,
0100
0000
0000
0000
,
0110
0000
0000
0000
,
1000
0000
0000
0000
,
0100
0000
0000
0000
,
1001
0000
0000
0000
,
0110
0000
0000
0000
,
1000
0000
0000
0000
,
0100
0000
0000
0000
,
0010
0000
0000
0000
,
1001
0000
0000
0000
,
0010
0000
0000
0000
,
0100
0000
0000
0000
,
1000
0000
0000
1001
;
