#TITLE:SEE YOU;
#SUBTITLE:夏雪 ランデブー OP;
#ARTIST:松下優也;
#TITLETRANSLIT:;
#SUBTITLETRANSLIT:Natsuyuki Rendezvous OP;
#ARTISTTRANSLIT:Yuuya Matsushita;
#CREDIT:;
#GENRE:ANIMATION BEAT#0;
#BANNER:SEE YOU.png;
#BACKGROUND:SEE YOU-bg.png;
#LYRICSPATH:;
#CDTITLE:cdtitle.png;
#MUSIC:SEE YOU.mp3;
#MENUCOLOR:0,0,1,1;
#METERTYPE:DDR X;
#OFFSET:-0.006;
#SAMPLESTART:53.328;
#SAMPLELENGTH:12.000;
#SELECTABLE:YES;
#BPMS:0.000=144.000;
#STOPS:;
#BGCHANGES:;

//---------------dance-single - ----------------
#NOTES:
     dance-single:
     :
     Hard:
     7:
     0.251,0.292,0.011,0.135,0.000:
0000
0000
0000
0000
,
0000
0000
0000
0000
,
0000
0000
0000
0000
,
0000
0000
0000
0000
,
1000
0100
0001
0100
,
1000
0100
0000
0000
,
1000
0010
0001
0010
,
1000
0020
0000
0000
,
0030
1000
0001
1000
,
0001
1000
0000
0000
,
0001
1000
0001
1000
,
0002
0000
0000
0000
,
0103
0010
0100
0001
,
1000
0100
0000
0010
,
1000
0001
0100
0010
,
2000
0000
0002
0000
,
3003
0100
0010
1000
,
0001
0100
0010
0000
,
0100
0001
0100
0010
,
2000
0000
0000
0000
,
3001
0100
0010
1000
,
0001
1000
0000
0000
,
0100
0010
1000
0010
,
0100
0001
0000
0000
,
0001
1000
0010
0100
,
0010
1000
0100
0010
,
0002
0000
2000
0000
,
3003
0000
0100
0010
,
1000
0001
2000
0000
,
0000
0000
3000
0010
,
0100
0001
1000
0001
,
2000
0000
0002
3003
,
1001
0100
0010
1000
,
0001
0100
0010
0001
,
1000
0000
0100
0010
,
2000
0000
0000
0000
,
3010
0100
0001
0100
,
0010
0001
1000
0010
,
0000
0100
0010
1000
,
0002
0000
0000
0000
,
0013
0100
0001
0000
,
0100
0010
1000
0000
,
1000
0100
0010
0000
,
0001
0010
0100
0000
,
1000
0100
0001
0000
,
0100
0010
1000
0000
,
0100
0010
0001
0000
,
0100
0010
1000
0100
,
0001
1000
0100
0010
,
1000
0000
0100
0000
,
0010
0001
1000
0010
,
0001
1000
0010
1000
;

//---------------dance-single - ----------------
#NOTES:
     dance-single:
     :
     Challenge:
     8:
     0.341,0.379,0.011,0.237,0.000: // measure 1
0000
0000
0000
0000
,  // measure 2
0000
0000
0000
0000
,  // measure 3
0000
0000
0000
0000
,  // measure 4
0000
0000
0000
0000
,  // measure 5
1000
0000
0010
0000
0100
0000
0001
1000
,  // measure 6
0000
1000
0100
0000
0000
0000
0010
0100
,  // measure 7
0010
0000
1000
0000
0100
0000
0001
2000
,  // measure 8
0000
3002
0000
0000
,  // measure 9
1003
0000
0100
0000
0010
0000
0001
0100
,  // measure 10
0000
0100
1000
0000
0000
0000
1000
0100
,  // measure 11
0010
0000
0001
0200
0000
0000
0310
2000
,  // measure 12
0000
0000
0000
0000
,  // measure 13
3010
0000
0100
0010
1000
0000
0100
0010
,  // measure 14
0000
0001
0100
0000
0000
0000
0100
0010
,  // measure 15
0100
1000
0100
0010
,  // measure 16
2000
0000
0000
3001
0020
0000
0000
0000
,  // measure 17
0130
0000
0100
0010
0100
0000
1000
0100
,  // measure 18
0000
0010
0100
0010
0000
0000
1000
0100
,  // measure 19
0001
0000
0100
0010
0000
0001
1000
0002
,  // measure 20
0000
0000
0000
0000
,  // measure 21
1003
0100
0001
0010
,  // measure 22
0100
1000
0001
0000
0000
0000
0000
0000
,  // measure 23
1000
0100
0010
0001
,  // measure 24
0010
0001
1000
0000
0000
0000
0000
0000
,  // measure 25
0100
1000
0010
0001
,  // measure 26
0100
0010
1000
0100
,  // measure 27
0002
0000
1003
2000
0000
0000
0000
0000
,  // measure 28
0000
0000
3001
0000
0100
0000
0010
2000
,  // measure 29
0000
3001
0000
0200
0000
0000
0000
0000
,  // measure 30
0000
0000
0000
0000
0000
0310
1000
0100
,  // measure 31
0010
0000
1000
0000
0100
0000
0001
2000
,  // measure 32
0000
0000
3001
0200
0000
0310
1000
0000
,  // measure 33
0101
0000
0010
0000
1000
0000
0100
0020
,  // measure 34
0000
0000
2030
0000
3002
0000
0103
0010
,  // measure 35
0000
0000
1000
0000
0100
0000
0010
2000
,  // measure 36
0000
0000
0000
0000
0000
0000
3001
0100
,  // measure 37
0010
0000
0001
0000
1000
0000
1000
0010
,  // measure 38
1000
0000
0100
0010
0000
0001
0000
0000
,  // measure 39
0100
0000
0010
2000
0000
0000
3001
0200
,  // measure 40
0000
0000
0000
0000
0000
0000
0310
1000
,  // measure 41
0001
0000
0100
0010
0000
0000
0001
0010
,  // measure 42
0100
0000
0010
0001
0000
0000
1000
0100
,  // measure 43
0001
0000
0001
0010
0000
0000
0100
0010
,  // measure 44
0100
0000
0010
0000
0001
0000
1000
0010
,  // measure 45
0000
0200
0010
0000
0000
0000
0310
1000
,  // measure 46
0010
0000
0000
0100
0000
0010
0000
1000
,  // measure 47
0001
0000
0100
0020
0000
0000
0001
0000
,  // measure 48
0001
0000
1000
1000
,  // measure 49
1030
0000
0100
0000
0010
0000
0001
1000
,  // measure 50
0000
1000
0001
0000
0100
0000
0010
0100
,  // measure 51
0000
0100
0010
0000
0001
0000
1000
0000
,  // measure 52
0001
1000
0100
1000
;

//---------------dance-single - ----------------
#NOTES:
     dance-single:
     :
     Medium:
     5:
     0.201,0.262,0.011,0.147,0.000:
0000
0000
0000
0000
,
0000
0000
0000
0000
,
0000
0000
0000
0000
,
0000
0000
0000
0000
,
1000
0100
0010
0000
,
0001
0100
0000
0000
,
1000
0100
0010
0000
,
0002
2000
0000
3003
,
0000
0100
0010
0000
,
1000
0001
0000
0000
,
0100
0010
1000
0000
,
0020
0000
0000
0000
,
0030
1000
0010
0000
,
0100
0001
0000
0100
,
0010
0100
0010
0000
,
2000
0000
0002
0000
,
3003
0100
0010
1000
,
0001
0100
0010
0000
,
1000
0010
0100
0001
,
2000
0000
0000
0000
,
3000
0001
0100
0010
,
1000
0001
0000
0000
,
0100
0010
1000
0100
,
0001
1000
0000
0000
,
0010
1000
0100
0001
,
0010
0100
0010
0001
,
1000
0000
0002
0000
,
0003
0000
1000
0001
,
1000
0000
0000
0000
,
0100
0010
0100
0000
,
0002
0000
0000
0000
,
1003
0000
0000
0000
,
1001
0010
0100
0000
,
0001
0100
0010
0000
,
1000
0001
1000
0000
,
0010
0100
0010
0000
,
1000
0000
1000
0000
,
0001
0001
0001
0000
,
0100
0000
0100
0000
,
0010
0010
0010
0000
,
2000
0000
3001
0000
,
0002
0000
1003
0000
,
0200
0000
0310
0000
,
0020
0000
0130
0000
,
1000
0000
1000
0000
,
0001
0000
0001
0000
,
0100
0000
0001
0000
,
1000
0000
0001
0000
,
0200
0000
0000
0000
,
1000
0000
0000
0000
,
0001
0000
0000
0000
,
0010
0000
0000
0000
0000
0000
0000
0000
0000
0000
0000
0000
0000
0000
0000
0000
0000
0000
0000
0000
0000
0000
0000
0000
0000
0000
0000
0000
0000
0000
0000
0000
0000
0000
0000
0000
0000
0000
0000
0000
0000
0000
0000
0000
0000
0000
0000
0000
0000
0000
0000
0000
0000
0000
0000
0000
0000
0000
0000
0000
0000
0000
0000
0000
0000
0000
0000
0000
0000
0000
0000
0000
0000
0000
0000
0000
0000
0000
0000
0000
0000
0000
0000
0000
0000
0000
0000
0000
0000
0000
0000
0000
0000
0000
0000
0000
0000
0000
0000
0000
0000
0000
0000
0000
0000
0000
0000
0000
0000
0000
0000
0000
0000
0000
0000
0000
0000
0000
0000
0000
0000
0000
0000
0000
0000
0000
0000
0000
0000
0000
0000
0000
0000
0000
0000
0000
0000
0000
0000
0000
0000
0000
0000
0000
1000
0300
0000
0000
0000
0000
0000
0000
0000
0000
0000
0000
0000
0000
0000
0000
0000
0000
0000
0000
0000
0000
0000
0000
0000
0000
0000
0000
0000
0000
0000
0000
0000
0000
0000
0000
0000
0000
0000
0000
0000
0000
0000
0000
0000
0000
0000
0000
;

//---------------dance-single - ----------------
#NOTES:
     dance-single:
     :
     Easy:
     3:
     0.114,0.175,0.011,0.090,0.000:
0000
0000
0000
0000
,
0000
0000
0000
0000
,
0000
0000
0000
0000
,
0000
0000
0000
0000
,
1000
0000
0010
0000
,
0100
0000
0000
0000
,
0001
0000
0100
0000
,
0010
0000
0000
0000
,
1000
0000
0001
0000
,
1000
0000
0000
0000
,
0001
0000
1000
0000
,
0002
0000
0000
0000
,
0003
0000
0100
0000
,
0010
0000
0100
0000
,
0001
0000
0000
0000
,
2000
0000
0002
0000
,
3003
0000
0100
0000
,
0010
0000
0100
0000
,
1000
0000
0000
0000
,
0002
0000
0000
0000
,
0003
0000
0100
0000
,
0010
0000
1000
0000
,
0100
0000
0000
0000
,
0001
0000
1000
0000
,
0010
0000
0000
0000
,
0100
0000
0010
0000
,
2000
0000
0000
0000
,
3000
0000
0010
0000
,
0100
0000
0002
0000
,
0000
0000
0003
0000
,
0100
0000
0010
0000
,
1000
0000
0001
0000
,
1001
0000
0000
0000
,
1000
0000
0000
0000
,
0100
0000
0000
0000
,
0010
0000
0000
0000
,
0001
0000
0000
0000
,
0100
0000
0000
0000
,
0010
0000
0000
0000
,
2000
0000
0000
0000
,
3001
0000
0000
0000
,
0001
0000
0100
0000
,
1000
0000
0000
0000
,
1000
0000
0100
0000
,
0001
0000
0000
0000
,
0010
0000
0000
0000
,
1000
0000
0002
0000
,
0000
0000
0000
0000
,
0003
0000
0000
0000
,
0100
0000
0000
0000
,
0010
0000
0000
0000
,
1000
0000
0000
1000
;

//---------------dance-single - ----------------
#NOTES:
     dance-single:
     :
     Beginner:
     1:
     0.079,0.087,0.000,0.000,0.000:
0000
0000
0000
0000
,
0000
0000
0000
0000
,
0000
0000
0000
0000
,
0000
0000
0000
0000
,
1000
0000
0000
0000
,
0100
0000
0000
0000
,
0010
0000
0000
0000
,
0001
0000
0000
0000
,
0010
0000
0000
0000
,
0100
0000
0000
0000
,
1000
0000
0000
0000
,
0100
0000
0000
0000
,
0001
0000
0000
0000
,
0100
0000
0000
0000
,
1000
0000
0000
0000
,
0010
0000
0000
0000
,
0100
0000
0000
0000
,
1000
0000
0000
0000
,
0001
0000
0000
0000
,
0100
0000
0000
0000
,
0100
0000
0000
0000
,
0010
0000
0000
0000
,
0001
0000
0000
0000
,
1000
0000
0000
0000
,
0001
0000
0000
0000
,
0010
0000
0000
0000
,
1000
0000
0000
0000
,
0001
0000
0000
0000
,
0010
0000
0000
0000
,
0100
0000
0000
0000
,
1000
0000
0000
0000
,
0001
0000
0000
0000
,
0100
0000
0000
0000
,
0010
0000
0000
0000
,
1000
0000
0000
0000
,
0001
0000
0000
0000
,
0100
0000
0000
0000
,
1000
0000
0000
0000
,
0001
0000
0000
0000
,
0100
0000
0000
0000
,
0010
0000
0000
0000
,
1000
0000
0000
0000
,
0001
0000
0000
0000
,
0001
0000
0000
0000
,
0100
0000
0000
0000
,
0010
0000
0000
0000
,
0010
0000
0000
0000
,
1000
0000
0000
0000
,
0001
0000
0000
0000
,
1000
0000
0000
0000
,
0010
0000
0000
0000
,
1000
0000
0000
1000
;
