#TITLE:Realization;
#SUBTITLE:はぐれ勇者の鬼畜美学 OP;
#ARTIST:飛蘭;
#TITLETRANSLIT:;
#SUBTITLETRANSLIT:Hagure Yuusha no Estethica OP;
#ARTISTTRANSLIT:Faylan;
#GENRE:ANIMATION BEAT#0;
#CREDIT:;
#BANNER:Realization.png;
#BACKGROUND:Realization-bg.png;
#LYRICSPATH:;
#CDTITLE:cdtitle.png;
#MUSIC:Realization.mp3;
#MENUCOLOR:0,0,1,1;
#METERTYPE:DDR X;
#OFFSET:-0.035;
#SAMPLESTART:47.250;
#SAMPLELENGTH:12.000;
#SELECTABLE:YES;
#BPMS:0.000=187.000,18.500=374.000,19.500=187.000,92.500=374.000,93.000=187.000,108.500=374.000,109.000=187.000,143.500=374.000,147.000=187.000;
#STOPS:18.500=0.160
,92.500=0.080
,108.500=0.080
,143.500=0.040
,143.750=0.040
,144.000=0.040
,144.250=0.040
,144.500=0.040
,144.750=0.040
,145.000=0.040
,145.250=0.040
,145.500=0.040
,145.750=0.040
,146.000=0.040
,146.250=0.040
,146.500=0.040
,146.750=0.040
;
#DISPLAYBPM:187;
#BGCHANGES:;

//---------------dance-single - ----------------
#NOTES:
     dance-single:
     :
     Beginner:
     5:
     0.202,0.257,0.100,0.000,0.000:
0000
0000
0000
0000
,
0000
0000
0000
0000
,
0000
0000
0000
0000
,
0000
0000
0000
0000
,
0000
0000
1001
0000
,
0000
1000
0000
0001
,
0000
1000
0000
0001
,
0001
0001
0000
0100
,
0000
0010
0000
1000
,
1000
0000
0001
0000
,
0100
0000
0010
0000
,
1000
1000
1000
0000
,
0000
0000
0000
0000
,
1001
0000
0100
0000
,
0010
0000
1000
0000
,
0000
0001
0001
0000
,
1000
1000
1000
0000
,
0010
0010
0010
0000
,
0100
0100
0100
0000
,
0000
0001
0001
0000
,
1000
1000
1000
0000
,
0001
0000
0000
0000
,
1000
0000
0000
0000
,
0000
1001
0000
0000
,
0000
0100
0000
0100
,
0000
0100
0000
0100
,
0000
0010
0000
0100
,
0000
1001
0000
0100
,
0000
0010
0000
0001
,
0000
1000
0000
0010
,
0000
0100
0000
0000
,
1000
0000
1000
0000
,
1000
0000
0000
0000
,
0001
0000
0001
0000
,
0001
0000
0000
0000
,
1001
0000
0000
0000
,
0000
0000
0000
0000
,
0000
1000
0001
0000
,
0000
0001
1000
0000
,
0010
0000
0010
0000
,
0100
0000
0100
0000
,
0000
0100
0001
0000
,
0000
0010
1000
0000
,
1000
0000
1000
0000
,
0001
0000
1000
0000
,
0000
1000
0000
0001
,
0000
0100
0000
0100
,
0000
0010
0000
0000
,
1000
1000
1000
0000
,
0010
0000
0000
0001
,
0001
0000
0100
0100
,
0100
0000
0000
0000
,
0010
0000
0010
0000
,
1000
0000
0000
0000
,
1001
0000
0000
0000
,
0110
0000
0100
0000
,
0010
0000
0100
0000
,
0010
0000
1000
0000
,
1000
0000
0001
0001
,
0001
0000
0100
0100
,
0100
0000
0010
0010
,
0010
0000
0000
1000
,
0000
0000
0001
0001
,
1000
0000
0000
1000
,
0000
0000
0001
0000
,
1001
0000
0000
0000
,
0110
0000
0000
0000
,
0000
0000
0000
0000
,
0000
0000
0000
0000
,
0000
0000
0000
0000
,
0000
0000
0000
0000
;

//---------------dance-single - ----------------
#NOTES:
     dance-single:
     :
     Easy:
     9:
     0.370,0.381,0.111,0.144,0.000:
0000
0000
0000
0000
,
0000
0000
0000
0000
,
0000
0000
0000
0000
,
0000
0000
0000
0000
,
0000
0000
0000
0000
1000
0001
0000
1001
,
0000
0000
0100
0000
0001
1000
0001
1000
,
0000
0000
0100
0000
0010
0000
0100
0010
,
0000
2000
0000
0000
0000
0000
0000
3001
,
0000
0000
0100
0000
0010
0000
0100
0001
,
0100
0000
1000
0000
0010
0000
1000
0001
,
0000
0000
0100
0000
0010
0000
1000
0001
,
0000
1000
0000
0001
0000
0000
0000
1000
,
0000
0001
0000
1000
0000
0001
0000
0000
,
1001
0100
0010
0100
,
0001
1000
0001
0000
,
1001
0000
0100
0000
0010
0100
0000
0001
,
0000
1000
0000
0000
0100
0010
0000
0100
,
0000
0000
1000
0001
1000
0001
0000
0100
,
0000
0010
0000
0100
0000
0000
0000
0000
,
0000
0000
0010
0100
0010
0100
0000
0001
,
0000
1000
0000
0001
0000
0100
0000
0000
,
1000
0000
0000
0001
0000
0000
0000
0000
,
0100
0000
0000
0010
0000
0000
0000
0000
,
0000
1001
0000
0100
,
0010
0100
0001
1000
,
0010
0100
0001
1000
,
0001
0100
0010
1000
,
0000
1001
0000
0100
,
0010
0100
0001
1000
,
0001
0000
1000
0001
0000
0100
0000
0010
,
0000
1000
0001
0000
0100
0000
0010
0000
,
2000
0000
0001
0000
,
3002
0000
0100
0000
,
2003
0000
0001
0000
,
3002
0000
0100
0000
,
1003
0000
0000
0001
0000
1000
0000
0002
,
0000
0000
0000
0000
0000
0000
0000
1003
,
0000
0000
0100
0000
0010
0000
0000
1000
,
0000
0001
0100
0010
,
1000
0100
0010
0001
,
0100
0000
0001
0000
0100
0000
0000
1001
,
0000
0000
0100
0000
0010
0000
0000
1001
,
0000
0100
0010
1000
,
0001
0100
1000
0010
,
1000
0010
0100
0001
,
0000
0000
1000
0000
0010
0100
0000
0001
,
0000
0000
1000
0000
,
0000
0000
0001
1000
0001
1000
0000
0010
,
0000
0100
0000
0010
0000
1000
0000
0001
,
1000
0000
0100
0010
,
0001
0100
0010
1000
,
0001
0000
0000
2000
0000
0000
0000
0000
,
0000
0000
0000
0000
,
3001
0100
0010
1000
,
0002
0000
2000
0000
,
3003
0100
0010
0100
,
0010
1000
0100
0010
,
1001
0100
0010
0100
,
0001
1000
0100
0010
,
0001
1000
0001
1000
,
0001
1000
0010
0100
,
0001
0000
1000
0001
0000
1000
0001
0000
,
1000
0001
0000
0000
0100
0000
0010
0000
,
0100
0000
0010
0100
0000
0010
0100
0000
,
0010
0100
0000
0000
1000
0000
0001
0000
,
2002
0000
0000
0000
0000
0000
0000
3003
,
0000
0220
0000
0000
0000
0000
0000
0000
,
0000
0000
0000
0000
,
0000
0000
0000
0000
0000
0000
0000
0000
0000
0000
0000
0000
0000
0000
0000
0000
0000
0000
0000
0000
0000
0000
0000
0000
0000
0000
0000
0000
0000
0000
0000
0000
0000
0000
0000
0000
0000
0000
0000
0000
0000
0000
0000
0000
0000
0000
0000
0000
0000
0000
0000
0000
0000
0000
0000
0000
0000
0000
0000
0000
0000
0000
0000
0000
0000
0000
0000
0000
0000
0000
0000
0000
0000
0000
0000
0000
0000
0000
0000
0000
0000
0000
0000
0000
0000
0000
0000
0000
0000
0000
0000
0000
0000
0000
0000
0000
0000
0000
0000
0000
0000
0000
0000
0000
0000
0000
0000
0000
0000
0000
0000
0000
0000
0000
0000
0000
0000
0000
0000
0000
0000
0330
0000
0000
0000
0000
0000
0000
0000
0000
0000
0000
0000
0000
0000
0000
0000
0000
0000
0000
0000
0000
0000
0000
0000
0000
0000
0000
0000
0000
0000
0000
0000
0000
0000
0000
0000
0000
0000
0000
0000
0000
0000
0000
0000
0000
0000
0000
0000
0000
0000
0000
0000
0000
0000
0000
0000
0000
0000
0000
0000
0000
0000
0000
0000
0000
0000
0000
0000
0000
0000
0000
,
0000
0000
0000
0000
,
0000
0000
0000
0000
;

//---------------dance-single - ----------------
#NOTES:
     dance-single:
     :
     Medium:
     13:
     0.548,0.648,0.400,0.167,0.000:
0000
0000
0000
0000
,
0000
0000
0000
0000
,
0000
0000
0000
0000
,
0000
0000
0000
0000
,
0000
0000
0000
0000
1000
1001
0000
1001
,
0000
0000
0100
0000
0010
0100
0010
0100
,
0000
1000
0100
0000
0001
0100
0001
1000
,
0000
0010
0100
0000
1000
0000
0100
0000
,
0010
0100
0010
0000
1000
0000
1000
0100
,
0001
0000
0100
0000
0010
1000
0010
1000
,
0000
0100
0010
0000
0001
0100
0001
0100
,
0000
1010
0000
0110
0000
0001
0100
0101
,
0000
1010
0000
0110
0000
0110
0000
0000
,
1001
0100
0010
0001
,
1000
0000
0100
0000
0001
1000
0001
1000
,
0001
0000
0100
0010
0100
0010
0000
1000
,
0000
0001
0000
0100
0000
0010
0100
0010
,
0000
0000
1000
0100
0001
0100
0000
0020
,
0000
1030
0000
0001
0000
0100
0001
0000
,
0100
0000
1000
0100
0010
0001
0000
0100
,
0000
0010
0000
0100
0000
0001
0000
0100
,
0100
0000
0010
1010
0000
0100
0001
0000
,
1000
1000
0001
0001
0000
0000
0100
0001
,
0100
1001
0000
0100
,
0010
0000
0100
0000
1000
0100
0010
0001
,
0000
0100
1000
0010
0000
0001
0100
0001
,
0000
1000
0100
0000
0010
0000
1000
0001
,
1000
1001
0000
0100
,
0010
0000
0100
0000
1000
0100
0001
0000
,
0100
0000
0010
0100
0000
0001
0010
1000
,
0000
0100
0010
0000
1000
0001
0100
0000
,
2000
0000
0000
0001
0000
0000
0001
0000
,
3002
0000
0000
0100
0000
0000
0010
0000
,
2003
0000
0000
0100
0000
0000
0001
0000
,
3002
0000
0000
0100
0000
0000
0010
0000
,
0103
0110
0000
1000
0000
1001
0000
2002
,
0000
0000
0000
0000
0000
3003
0000
0110
,
0000
1000
0100
0000
0010
0000
0000
0101
,
0000
0000
1000
0000
0010
0000
0100
0001
,
0100
0000
1000
0100
0000
0010
0000
0100
,
0000
0001
0100
0001
0100
0001
0000
1010
,
0000
0000
0100
0000
0010
0000
0100
0110
,
0000
0000
1000
0000
0001
0000
0100
0001
,
0100
0000
1000
0100
0000
0010
0000
0001
,
0000
0100
0000
1000
0000
0010
1000
0000
,
1001
0000
0100
0010
0100
0010
0000
1000
,
0000
0100
0010
0000
0001
0100
0001
0100
,
0001
0000
1000
0100
0010
0100
0000
0002
,
0000
1003
0000
0100
0000
0010
0000
0100
,
0020
0000
0000
1000
,
1030
0000
0100
0010
0100
0000
0100
0000
,
0001
0000
1000
0001
0000
1000
0001
0000
,
0100
0010
0100
0000
0001
1000
0001
1000
,
0001
0000
0100
0010
0000
0100
0000
2002
,
0000
0000
0000
0000
0000
0000
3003
0110
,
0000
0010
0100
0000
0010
0100
0010
0100
,
0010
1000
0100
0000
0010
0100
0001
0000
,
0100
0001
0100
0000
1000
0010
1000
0010
,
0000
0100
0001
0000
0100
0001
0100
0001
,
0000
1000
0010
0000
0100
0001
0100
0001
,
0000
1000
0100
0000
0001
1000
0001
0000
,
1001
0000
0100
0101
0000
1000
1010
0000
,
0100
0101
0000
1000
0110
0000
0101
0000
,
0110
0000
1000
1010
0000
0100
0101
0000
,
0010
0011
0000
0100
0101
0000
1001
0000
,
2020
0000
0000
3030
,
1000
2002
0000
0000
0000
0000
0000
0000
,
0000
0000
0000
0000
,
0000
0000
0000
0000
0000
3003
0000
0000
,
0000
0000
0000
0000
,
0000
0000
0000
0000
;

//---------------dance-single - ----------------
#NOTES:
     dance-single:
     :
     Hard:
     16:
     0.770,1.000,0.578,0.133,0.117:
0000
0000
0000
0000
,
0000
0000
0000
0000
,
0000
0000
0000
0000
,
0000
0000
0000
0000
,
0000
0000
0000
0000
1001
1001
0000
1001
,
0000
0100
0010
0100
0010
0100
0010
1100
,
0000
0000
0100
0000
0010
0000
0000
0000
0001
0000
0100
0000
0001
0010
0100
0000
,
0001
0100
0010
0000
1000
0100
0010
1001
,
0000
0000
0100
0000
0010
0000
0000
0000
0001
0000
0100
0010
1000
0100
0001
0100
,
1000
0000
1000
0100
0010
0000
0001
0100
,
0000
0000
0001
0000
0100
0000
0000
0000
1000
0000
0100
0000
0010
1000
0001
0000
,
0000
0110
0000
0010
1000
0010
0100
0110
,
0000
0110
0000
0110
0000
1000
0010
0000
,
0110
1000
0100
0010
,
0001
0000
0000
0000
0100
0000
0000
0000
0010
0000
1000
0000
0001
0000
1000
0001
,
1000
0000
0100
0001
0010
1000
0000
0100
,
0000
0010
0000
1000
0000
0100
0010
0100
,
0001
0000
1000
0001
1000
0001
1000
0001
,
0000
0001
0000
1000
0100
0001
0000
0000
,
0110
0000
1000
0100
0001
0100
0000
1000
,
0000
0010
0100
0010
1000
0100
0010
0000
,
0100
0000
0001
0101
0000
1000
0010
1000
,
1000
0000
0010
0000
0100
0000
0110
0000
0000
0000
1000
0000
0100
0010
0100
0000
,
0000
0000
1001
0000
0100
0010
0100
0010
,
1000
0100
0010
0000
0001
0100
0001
1000
,
0100
0010
0001
0101
0000
1000
0100
0010
,
0100
0000
0001
0000
0100
0000
0010
0000
1000
0000
0100
0000
0001
1000
0001
0000
,
0000
0000
1001
0000
0100
0010
0100
0010
,
1000
0100
0010
0001
0100
0001
1000
0010
,
1010
0000
0100
0010
0100
0001
1000
0001
,
0000
0100
0010
0000
0001
0010
0100
1000
,
0110
0000
1000
0010
0100
0000
0010
0100
,
0001
0000
0100
0010
0000
1000
0100
0010
,
0001
0000
0100
0001
0000
0100
0001
1000
,
0100
0000
0010
0000
0001
0000
0100
0000
0010
0000
0100
0010
0100
0010
0100
0000
,
1100
1100
0000
0011
0000
0110
0000
2002
,
0000
0000
0000
0000
0000
0000
3003
0210
,
0000
0000
1300
0000
0010
0000
0100
0000
0010
0000
0100
0010
0100
0000
0102
0000
,
0000
0000
1003
0000
0010
0000
0100
0000
0010
0000
0100
0000
0010
1000
0010
1000
,
0010
1000
0100
0001
0100
0010
1000
0010
,
0100
0001
0100
0010
1000
0100
0010
0021
,
0000
0000
1030
0000
0100
0000
0010
0000
0001
0000
1000
0100
1000
0000
1200
0000
,
0000
1300
0100
0010
0001
0100
0010
0100
,
0010
0000
1000
0100
0001
0100
1000
0010
,
0010
1000
1000
0001
0001
0100
0100
0010
,
1000
0000
0100
0010
0100
0001
1000
0100
,
0010
0001
0100
0001
1000
0010
0100
0010
,
0000
0000
1000
0100
0001
0100
0010
1000
,
0000
0100
0001
1000
0100
0010
0001
0100
,
1000
0000
0000
0000
0010
0100
0010
1000
,
0100
0010
0001
0100
0010
1000
0100
0010
,
0000
0100
0100
0001
1000
0100
0001
0100
,
0001
1000
0100
0010
0001
0100
0010
0100
,
0110
1000
0100
0010
0100
0001
1000
0012
,
0000
0000
0000
0000
2000
0000
3003
1001
,
0000
0001
0100
0010
0100
0010
0100
0010
,
1000
0100
0010
0001
0100
0010
1000
0110
,
0001
1000
0100
0001
0100
0010
0001
1100
,
0010
0001
0100
1000
0100
0010
0001
0110
,
0001
1000
0010
0100
0010
0100
0001
1001
,
0100
0010
1000
0010
0100
0010
0100
0010
,
1100
0000
0100
0001
0100
0000
0110
0000
0100
1000
0100
0000
0110
0000
0010
1000
,
0010
0000
0011
0000
0001
0100
0001
0000
0101
0000
0101
0000
0101
0000
0100
0000
,
1010
0000
1000
0000
1001
0000
0110
0000
0100
1000
0010
0000
0011
0000
0100
0001
,
0010
0000
0110
0000
1000
0001
1000
0000
1100
0000
0011
0000
1100
0000
0010
0000
,
0220
0000
0000
0000
0000
0000
0000
0330
,
1001
0220
0000
0000
0000
0000
0000
0000
,
0000
0000
0000
0000
,
0000
0000
0000
0000
0000
0330
0000
0000
,
0000
0000
0000
0000
,
0000
0000
0000
0000
;

//---------------dance-single - ----------------
#NOTES:
     dance-single:
     :
     Challenge:
     17:
     1.000,1.000,1.000,0.156,0.394: // measure 1
0000
0000
0000
0000
,  // measure 2
0000
0000
0000
0000
,  // measure 3
0000
0000
0000
0000
,  // measure 4
0000
0000
0000
0000
,  // measure 5
0000
0000
0000
0000
1001
0110
0000
0110
,  // measure 6
0000
0000
0100
0000
0010
0000
0100
0001
0010
0000
0100
0000
0010
0000
1100
0000
,  // measure 7
0000
0000
0100
0000
0010
0000
1000
0000
0001
0000
0100
0001
0100
0001
0100
0000
,  // measure 8
0001
0000
0100
0000
0110
0000
0000
0000
1000
0000
0100
0000
0010
1000
0001
0000
,  // measure 9
0000
0000
1100
0000
0001
0000
0001
0000
0001
0000
0100
0010
1000
0100
0001
0100
,  // measure 10
1000
0000
0010
0000
1000
0000
1000
0000
0010
0000
0010
1000
0001
0010
0001
0000
,  // measure 11
0000
0000
1001
0000
0101
0000
0000
0000
1000
0001
0100
0001
0010
1000
0001
0000
,  // measure 12
1000
0110
0000
1100
1000
0011
0100
0110
,  // measure 13
1000
0110
0001
0110
1000
0110
2002
3003
,  // measure 14
0120
0000
1000
1000
0100
0100
0001
0001
,  // measure 15
0130
0000
0100
0000
0010
0000
0010
0000
0001
0000
1001
0000
1000
0001
1000
0001
,  // measure 16
1000
0000
1100
0001
0010
1100
0000
0110
,  // measure 17
0000
0011
0000
1001
0000
0100
0110
0100
,  // measure 18
0011
0000
1000
0011
1000
0101
1000
1001
,  // measure 19
0000
0000
0011
0000
1000
0001
1000
0000
0100
0010
0001
0000
0100
0000
1000
0000
,  // measure 20
0110
0001
1000
1100
0001
0110
0000
1001
,  // measure 21
0000
1010
0101
0011
1000
0100
1010
0000
,  // measure 22
1100
0000
0011
0101
0000
1100
0010
1000
,  // measure 23
1100
0000
0010
0000
0100
0000
0110
0000
0000
0000
1000
0001
0010
0100
0010
0000
,  // measure 24
0000
0000
1001
0000
0100
0100
0110
0010
,  // measure 25
1100
0100
0011
0100
1001
0100
0011
1100
,  // measure 26
1000
0000
0010
0000
0101
0000
0101
0000
1000
0100
1000
0001
0100
0000
0110
0000
,  // measure 27
0100
0000
0011
0000
0100
0000
0011
0000
1000
0000
1000
0100
0001
1000
0001
0000
,  // measure 28
0000
0000
1001
0000
1100
0010
1100
0010
,  // measure 29
1001
0100
0110
0001
0110
0001
1000
0110
,  // measure 30
1010
0000
0100
0011
0100
0001
1000
1001
,  // measure 31
0000
0100
1010
0000
0011
0110
0101
1001
,  // measure 32
0110
0000
1000
0010
0101
0000
0010
0100
,  // measure 33
0011
0000
0100
1010
0000
1001
0100
0010
,  // measure 34
0011
0000
0100
0011
0000
0100
0001
1010
,  // measure 35
0100
0000
0010
0000
0001
0000
0100
0000
0010
0000
0100
0010
0100
0010
0100
0010
,  // measure 36
0100
0000
1100
0000
0000
0000
0011
0000
0000
0000
0110
0000
0000
0000
1000
0001
,  // measure 37
1000
0001
1000
0001
1000
0001
1000
0001
1000
0001
1000
0001
1000
0000
0210
0000
,  // measure 38
0000
0000
1300
0000
0010
0000
0100
0000
0010
0000
0100
0010
0100
0010
0002
0000
,  // measure 39
0000
0000
1003
0000
0010
0000
0100
0000
0010
0000
0100
0000
1000
0100
0002
1000
,  // measure 40
0013
1000
0100
0011
1000
1010
1000
0110
,  // measure 41
0001
0000
0001
0000
0100
0000
0010
0000
1001
0000
0100
1000
0010
0000
0021
0000
,  // measure 42
0000
0000
1030
0000
0100
0000
0010
0000
0001
0000
1000
0100
1000
0001
0200
0000
,  // measure 43
0000
1300
0100
1010
0001
1100
0011
0101
,  // measure 44
0010
0000
1000
0100
0101
0100
1000
0110
,  // measure 45
0010
1000
1001
0001
0001
0100
1100
0010
,  // measure 46
1001
0000
0000
0000
0100
0000
0010
0000
0100
0000
0001
1000
0001
1000
0100
0000
,  // measure 47
0010
0000
0001
0000
0100
0000
0001
0000
1000
0000
0010
0100
0010
0100
0010
0100
,  // measure 48
0010
0000
1100
0100
0001
0100
0010
1100
,  // measure 49
0000
1000
0100
0000
0001
0000
1000
0000
0100
0000
0010
1000
0001
0000
0100
0001
,  // measure 50
1000
0000
0000
0000
1010
0100
0011
1000
,  // measure 51
0110
0010
0001
1100
0010
1010
0100
0010
,  // measure 52
0011
0100
0100
0101
1000
0100
0001
1100
,  // measure 53
0001
1000
0100
0010
0001
0100
0010
0100
,  // measure 54
0110
1000
0100
0010
0100
0001
1000
0012
,  // measure 55
0000
0000
0000
0000
2000
0000
3003
1001
,  // measure 56
0000
0000
0001
0000
0100
0000
0010
1000
0100
0000
0010
0001
0100
0000
0010
0100
,  // measure 57
1000
0000
0100
0001
0010
0000
0001
1000
0100
0000
0010
0100
1000
0100
0010
0100
,  // measure 58
0001
0000
1001
0000
0100
0010
0001
0000
0100
0000
0010
0000
0001
0000
1100
0000
,  // measure 59
0010
1000
0001
0000
0100
0000
1000
0000
0100
0000
0010
0000
0001
0000
0110
0000
,  // measure 60
0001
0100
1000
0000
0010
0000
0100
0000
0010
0000
0100
0000
0001
0000
1001
0000
,  // measure 61
0100
0010
1000
0000
1000
0000
0010
0000
0100
0000
0010
0000
0100
0000
0010
0000
,  // measure 62
1100
0000
0100
0001
0100
0010
0100
0000
0100
1000
0100
0000
0110
0000
0010
1000
,  // measure 63
0010
0001
0010
0000
0001
0100
0001
0000
1100
0000
0011
0000
0101
0000
1100
0000
,  // measure 64
1010
0000
1000
0001
1000
0001
0100
0000
0100
1000
0010
0000
0011
0000
0100
0001
,  // measure 65
0010
0001
0100
0000
1000
0001
1000
0000
1100
0000
0011
0000
0101
0000
1010
0000
,  // measure 66
0220
0000
0000
0000
0000
0000
0000
0330
,  // measure 67
0101
0220
0000
0000
0000
0000
0000
0000
,  // measure 68
0000
0000
0000
0000
,  // measure 69
0000
0000
0000
0000
0000
0330
0000
0000
;
