#TITLE:リアルワールド;
#SUBTITLE:人類は衰退しました OP;
#ARTIST:nano.RIPE;
#TITLETRANSLIT:Real World;
#SUBTITLETRANSLIT:Jinrui wa Suitai Shimashita OP;
#ARTISTTRANSLIT:;
#GENRE:ANIMATION BEAT#0;
#CREDIT:;
#BANNER:Real World.png;
#BACKGROUND:Real World-bg.png;
#LYRICSPATH:;
#CDTITLE:cdtitle.png;
#MUSIC:Real World.mp3;
#MENUCOLOR:0,0,1,1;
#METERTYPE:DDR X;
#OFFSET:-1.614;
#SAMPLESTART:48.575;
#SAMPLELENGTH:12.000;
#SELECTABLE:YES;
#BPMS:0.000=196.000
,120.000=98.000
,128.000=196.000
;
#STOPS:23.500=1.224
;
#BGCHANGES:;
#KEYSOUNDS:;
#ATTACKS:;

//---------------dance-single - ----------------
#NOTES:
     dance-single:
     :
     Hard:
     15:
     0.765,0.762,1.000,0.429,0.034,337.000,99.000,38.000,0.000,0.000,0.000,0.765,0.762,1.000,0.429,0.034,337.000,99.000,38.000,0.000,0.000,0.000:
0000
0000
0000
0000
,
0000
0000
0000
0000
,
0000
0000
0000
0000
,
0000
0000
0000
0000
,
0000
0000
0000
0000
,
1001
0000
0010
0000
0100
0010
0100
0101
,
0011
0000
0110
0000
0001
0000
0100
1001
,
0000
0100
0010
0000
1000
0100
1000
0100
,
1000
0000
0110
0000
1000
0001
1000
0110
,
0000
0001
0100
0010
1000
0100
0011
0000
,
1001
0000
0110
0000
0001
1000
0100
0110
,
0000
0100
0001
0000
1000
0100
0001
1000
,
0002
0100
0013
2000
0000
3100
0010
0102
,
0000
0103
0010
1000
0200
0000
0310
0000
,
2001
0010
0001
0010
,
0001
0000
0001
0001
0000
0001
3001
0000
,
0102
1000
0100
1000
,
1000
0000
1000
1000
0000
1000
1003
0000
,
0002
0203
0320
0230
,
0302
2003
3020
0230
,
0320
2030
3200
0320
,
0032
0000
2003
0010
3010
0000
0101
0000
,
2010
3200
0320
0032
,
2003
0000
0100
3200
0000
0010
0310
0000
,
0020
0230
0320
2030
,
3200
0000
0001
0301
0000
0000
0001
1000
,
0002
0023
0230
0320
,
1030
0000
0100
0010
0000
0001
0100
0010
,
0000
1000
0020
0230
,
0302
0000
1000
1000
1003
0000
1000
0000
,
1001
0000
0100
0000
0010
0000
0010
0100
0100
0000
1000
0000
0100
0000
0010
0001
,
0100
0000
0010
0100
0000
0100
0000
0010
0010
0000
1000
0000
0100
0000
0010
0000
,
0101
0000
0100
1001
0000
0010
0001
0010
,
0100
1000
0001
0110
0000
0001
0100
0000
,
0110
0000
0100
1000
0010
0001
0100
0001
,
1001
0000
1100
0000
1000
0100
0010
0001
,
1010
0110
0101
0110
,
1100
0000
0110
0000
0011
0000
0101
0100
,
0101
0110
1010
0101
,
0110
0000
1001
0000
0100
0010
0100
0010
,
0110
0000
1000
0100
0001
0000
0010
1000
,
0010
0000
1000
0100
0010
0000
0100
0001
,
0101
0000
0100
0100
0000
0010
0100
0110
,
0000
0100
0001
0100
0010
0000
0100
0010
,
1100
0110
0101
0110
,
1100
0000
0101
0000
0011
0000
1010
1000
,
1001
0110
1010
0110
,
0101
0110
1100
0101
,
0110
0000
0100
0101
0000
0100
0010
0110
,
0000
0000
1000
0000
0001
0000
0101
0000
0000
1000
0000
0000
0010
0000
0100
0000
,
0101
0000
1000
0100
0010
0100
0001
1010
,
0000
0100
0010
0000
0100
0100
0010
0000
,
1001
1010
0101
1001
,
0110
0000
0101
0000
1001
0000
0110
0100
,
0101
0011
0110
0101
,
0110
0000
0011
0000
0110
0000
0101
0100
,
1100
0000
0100
0010
0100
0000
0001
1000
,
0001
0000
0001
0100
0010
0000
1000
0100
,
0010
0000
0001
0100
0000
0010
1000
1100
,
0000
0010
0100
0001
1000
0000
0100
0001
,
1100
0101
1001
0110
,
0101
0000
0110
0000
1001
0000
1001
0100
,
0101
0000
1010
0000
0101
0000
0100
0010
,
0100
0010
0001
1000
0110
0000
0011
0000
,
0011
0000
0100
0110
0000
1000
0010
0101
,
0000
1000
0010
0101
0010
1000
0100
0010
,
0101
0000
0100
0110
0000
0100
0001
0100
,
0000
0001
1000
0100
0001
0000
0000
0000
;

//---------------dance-single - ----------------
#NOTES:
     dance-single:
     :
     Medium:
     12:
     0.473,0.648,0.395,0.056,0.056,253.000,35.000,5.000,0.000,0.000,0.000,0.473,0.648,0.395,0.056,0.056,253.000,35.000,5.000,0.000,0.000,0.000:
0000
0000
0000
0000
,
0000
0000
0000
0000
,
0000
0000
0000
0000
,
0000
0000
0000
0000
,
0000
0000
0000
0000
,
1001
0000
0100
0000
0001
0100
0000
1001
,
1001
0000
0100
0000
0010
0000
0100
0010
,
0000
1000
0100
0000
0001
1000
0001
0000
,
0100
0000
0010
0000
1000
0000
0010
0100
,
0000
0010
0100
0000
0001
0000
0110
0000
,
0101
0000
1000
0000
0010
0000
0100
0010
,
0000
0100
0100
0000
0010
0000
1000
0100
,
0010
0000
0001
0100
0000
0010
1000
0002
,
0000
1003
0010
0100
,
1000
0100
0010
0001
,
1000
0000
0001
2000
0000
0000
0000
3000
,
0001
0100
0010
1000
,
0100
0000
0010
0200
0000
0000
0000
0000
,
0301
1000
0100
0010
,
0001
1000
0100
0010
,
1000
0001
0100
0010
,
2000
0000
0000
3001
0001
0000
0000
0000
,
0100
0010
1000
0100
,
0010
0000
0001
1000
0000
0000
0100
0000
,
0010
0100
0001
1000
,
0100
0000
0010
0001
0000
0000
0100
0001
,
0100
0010
1000
0100
,
0010
0000
1000
0001
0000
1000
0010
0100
,
0000
0000
0001
1000
,
0002
0000
0000
1003
0001
0000
0100
0000
,
1001
0000
0100
0010
0000
0100
0010
0100
0000
0000
0000
0000
0000
0000
0001
1000
,
0001
0000
0100
0010
0000
1000
0000
0100
0000
0010
0000
0001
0000
0100
0000
0000
,
1001
0000
0100
0010
0000
1000
0000
0100
,
0001
0100
0000
0010
0000
0110
0000
0000
,
1000
0000
0100
0010
0000
0001
0000
0110
,
0000
1000
0000
0000
,
0101
1000
0010
0100
,
0011
1000
0001
0100
,
0110
1000
0100
0010
,
1100
0100
0010
0001
,
1001
0000
0000
0100
0000
0000
0010
0000
,
0100
0000
0000
0101
0000
0000
1000
0000
,
0010
0000
0100
0010
0000
1000
0000
0001
,
0000
0100
0000
0010
0000
0000
0000
1000
,
0001
1000
0100
0010
,
0001
0100
0010
1000
,
1001
0100
0010
0001
,
1001
0100
0010
0100
,
1100
0000
0000
0100
0000
0000
0000
0110
,
0000
0000
0000
0110
0000
0000
0010
0000
,
1001
0100
0010
0100
,
0101
1000
0100
0010
,
1001
0100
0010
0001
,
1100
0100
0010
0001
,
1001
0100
0010
0001
,
1000
0100
0010
0001
,
0101
0000
0000
0010
0000
0000
1000
0000
,
1001
0000
0000
0100
0000
0000
0000
0010
,
0001
0100
0010
0100
,
0010
1000
0101
0000
,
0110
1000
0100
0010
,
0001
1000
0001
1000
,
1001
0100
0010
0001
,
0011
0100
0001
1000
,
1100
0000
0000
0110
0000
0000
0000
0110
,
0000
0000
0000
0011
0000
0000
0100
0000
,
0001
0000
1000
0100
0000
0000
0010
0000
,
0000
1000
0100
0010
0001
0000
0000
0000
;

//---------------dance-single - ----------------
#NOTES:
     dance-single:
     :
     Easy:
     8:
     0.360,0.305,0.102,0.068,0.000,208.000,9.000,6.000,0.000,0.000,0.000,0.360,0.305,0.102,0.068,0.000,208.000,9.000,6.000,0.000,0.000,0.000:
0000
0000
0000
0000
,
0000
0000
0000
0000
,
0000
0000
0000
0000
,
0000
0000
0000
0000
,
0000
0000
0000
0000
,
1000
0100
0001
0100
,
0000
0000
1000
0000
0010
0000
0000
0100
,
0000
0010
0100
0010
,
1000
0000
0100
0000
0010
0000
0000
0001
,
0000
0100
0010
0000
,
1001
0000
0100
0000
0000
0010
0000
0100
,
0000
0000
0010
0000
0100
0000
0000
0100
,
0002
0000
0000
2003
0000
0000
3000
0020
,
0000
0000
0000
0030
0100
0000
0000
0000
,
0001
1000
0100
0010
,
0001
1000
0000
0000
,
0010
0100
0001
1000
,
0010
0100
0001
0000
,
0001
1000
0100
0010
,
0001
1000
0001
0100
,
0010
0010
1000
0000
,
0001
0001
0100
0000
,
1000
0100
0010
0001
,
1000
0010
0100
0000
,
0001
1000
0100
0010
,
0100
0000
0001
0000
0100
0000
0000
0010
,
0000
0010
1000
0000
0000
0100
0010
0000
,
0001
0100
0010
1000
,
0100
0010
0001
1000
,
0100
0010
0001
1000
,
1001
0000
0010
0000
,
0100
0000
0010
0000
,
1001
0000
0000
0100
0000
0000
0000
0000
,
0010
0000
0000
0110
0000
0000
0000
0000
,
1001
0000
0000
0110
0000
0000
0000
0001
,
0000
0100
0000
0000
,
1000
0100
0010
0001
,
0100
0010
0001
0100
,
0010
1000
0100
0010
,
0001
0100
0010
1000
,
1001
0000
0100
0010
,
0100
0000
0001
1000
,
0001
0100
0010
1000
,
0100
0010
0001
0000
,
1000
0010
0100
1000
,
0100
0010
0001
0100
,
0010
1000
0100
0001
,
0100
0010
1000
0001
,
1001
0000
0000
0100
0000
0000
0000
0010
,
0000
0000
0000
0100
0000
0000
0010
0000
,
1000
0100
0010
0001
,
1000
0100
0001
0000
,
1000
0100
0001
0100
,
1000
0010
0100
0001
,
1000
0100
0010
0001
,
1000
0010
0100
0001
,
1000
0000
0000
0001
0000
0000
0100
0000
,
0010
0000
0000
1000
0000
0000
0001
0000
,
0100
0010
1000
0010
,
1000
0001
2000
0000
,
3001
0100
0010
1000
,
0100
0010
0001
1000
,
0100
0010
0001
1000
,
0001
1000
0100
0010
,
2000
0000
0000
0000
,
3002
0000
0000
0000
,
0103
0010
1000
0100
,
0010
1000
1001
0000
;

//---------------dance-single - ----------------
#NOTES:
     dance-single:
     :
     Beginner:
     4:
     0.218,0.229,0.136,0.000,0.000,123.000,12.000,0.000,0.000,0.000,0.000,0.218,0.229,0.136,0.000,0.000,123.000,12.000,0.000,0.000,0.000,0.000:
0000
0000
0000
0000
,
0000
0000
0000
0000
,
0000
0000
0000
0000
,
0000
0000
0000
0000
,
0000
0000
0000
0000
,
1000
0000
0000
0000
,
0000
0000
0000
0000
,
0100
0000
0000
0000
,
0010
0000
0000
0000
,
1000
0000
0000
0000
,
1001
0000
0000
0000
,
0010
0000
0000
0000
,
0100
0000
0000
0000
,
1001
0000
0000
0000
,
0100
0000
0010
0000
,
0100
0000
0001
0000
,
1000
0000
0010
0000
,
0001
0000
1000
0000
,
0100
0000
0010
0000
,
0001
0000
1000
0000
,
0001
0000
1000
0000
,
0001
0001
0001
0000
,
1000
0000
0100
0000
,
0010
0000
0001
0000
,
0100
0000
0010
0000
,
0001
0000
1000
0000
,
1000
1000
1000
0000
,
0001
0001
0001
0000
,
0100
0000
0010
0000
,
0100
0000
0001
0000
,
1001
0000
0100
0000
,
0100
0000
0100
0000
,
0100
0000
0000
0000
,
0110
0000
0000
0000
,
1001
0000
0000
0000
,
1001
0000
0000
0000
,
0100
0000
0010
0000
,
1000
0000
0010
0000
,
0100
0000
0001
0000
,
1000
0000
0001
0000
,
0100
0100
0100
0000
,
0010
0010
0010
0000
,
1000
1000
1000
0000
,
0001
0001
0001
0000
,
1001
0000
0100
0000
,
0010
0000
0001
0000
,
0100
0000
0010
0000
,
1000
0000
0100
0000
,
1001
0000
0010
0000
,
0100
0000
0001
0000
,
1000
0000
0001
0000
,
0100
0000
0010
0000
,
1001
0000
0100
0000
,
0010
0000
0001
0000
,
1000
0000
0100
0000
,
0010
0000
0001
0000
,
1000
1000
1000
0000
,
0010
0010
0010
0000
,
0100
0100
0100
0000
,
0001
0001
0001
0000
,
1001
0000
0100
0000
,
0010
0000
0001
0000
,
0100
0000
1000
0000
,
0100
0000
0010
0000
,
0110
0000
0010
0000
,
0100
0000
0001
0000
,
1000
0000
0100
0000
,
0010
0000
1001
0000
;

//---------------dance-single - ----------------
#NOTES:
     dance-single:
     :
     Challenge:
     18:
     1.000,1.000,1.000,0.441,0.429: // measure 1
0000
0000
0000
0000
,  // measure 2
0000
0000
0000
0000
,  // measure 3
0000
0000
0000
0000
,  // measure 4
0000
0000
0000
0000
,  // measure 5
0000
0000
0000
0000
,  // measure 6
1001
0000
0000
0000
0110
0000
0000
0000
0100
0001
0010
1000
0100
0000
0101
0000
,  // measure 7
0011
1000
0110
0100
0011
0110
0101
1001
,  // measure 8
0000
0000
0100
1000
0010
0000
0001
0000
1010
0000
0110
0000
1100
0000
0011
0000
,  // measure 9
1001
1000
0100
0001
1100
0101
1001
0110
,  // measure 10
0000
0000
0001
1000
0100
0000
0010
0000
1000
0001
0100
0000
0011
0000
0000
0000
,  // measure 11
1001
0000
0110
0000
1001
1100
0101
0110
,  // measure 12
0000
0100
0001
0010
1000
0100
0001
1000
,  // measure 13
0002
0000
0100
0000
0023
0000
2000
0000
0030
0000
0100
3001
0010
0000
0102
0000
,  // measure 14
0000
0000
0103
0000
0010
0000
1000
0000
0200
0000
1000
0301
0010
0000
0011
0000
,  // measure 15
2001
0010
0001
0010
,  // measure 16
0001
0000
0001
0001
0000
0001
3001
1001
,  // measure 17
0102
1000
0100
1000
,  // measure 18
1000
0000
1000
1000
0000
1000
1003
1000
,  // measure 19
0012
0000
0000
0000
0203
1000
0000
0000
0320
0001
0000
0000
0230
0001
0000
0000
,  // measure 20
0302
1000
0000
0000
2003
0001
0000
0000
3020
0100
0000
0000
0230
0001
0000
0000
,  // measure 21
0320
1000
0000
0000
2030
0100
0000
0000
3200
0001
0000
0000
0320
1000
0000
0000
,  // measure 22
0032
0100
0000
0000
2003
0010
0000
0000
3010
0000
0001
1000
0001
0000
1000
0000
,  // measure 23
2010
0000
0000
0000
3200
0001
0000
0000
0320
1000
0000
0000
0032
0100
0000
0000
,  // measure 24
2003
0001
0000
0000
0100
0000
3200
0010
0000
0000
0010
0000
0310
0000
0110
0000
,  // measure 25
0020
0100
0000
0000
0230
0001
0000
0000
0320
1000
0000
0000
2030
0001
0000
0000
,  // measure 26
3200
0010
0000
0000
0001
0000
0301
0000
1000
0000
0100
0000
0011
0000
1010
0000
,  // measure 27
1002
0023
0230
0320
,  // measure 28
1030
0000
0110
0011
0000
1001
0101
0110
,  // measure 29
0000
0001
1000
0000
0020
0000
0230
0000
,  // measure 30
0302
0000
0000
0000
1000
0000
1000
0000
1003
0000
0000
0001
1000
0000
0000
0000
,  // measure 31
1001
0000
0010
0000
0100
0000
1000
0000
0010
0000
1000
0000
0001
0000
0100
0001
0100
0000
0010
0000
1000
0000
0010
0000
0100
0000
1000
0000
0010
0000
0001
0100
,  // measure 32
0001
0000
0001
0000
0010
0000
0100
0000
1000
0000
0100
0000
0001
0000
0010
0100
0010
0000
0100
0000
1000
0000
0001
0000
0100
0000
1000
0001
0010
0000
1000
0000
,  // measure 33
0101
0000
1100
1001
0000
1010
0001
0001
,  // measure 34
1000
1001
0001
0110
0000
1001
1100
0000
,  // measure 35
0110
0000
1100
1000
0010
0001
0100
0011
,  // measure 36
1001
0000
0000
0000
1100
0000
0001
1000
0001
0000
1100
0000
0110
0000
0011
0000
,  // measure 37
1010
0010
0110
0100
0101
0001
0110
0100
,  // measure 38
1100
0100
0110
0001
0011
0100
0101
1100
,  // measure 39
0101
1000
0110
0100
1010
0010
0101
1000
,  // measure 40
0110
0000
0100
0000
1001
0000
0010
0000
0100
0000
0010
0100
0010
0100
0010
0000
,  // measure 41
0110
0000
1000
0100
0101
0000
0010
1000
,  // measure 42
0110
0000
1000
0100
0011
0000
0100
0001
,  // measure 43
0101
0000
0000
0000
0100
0000
1100
0000
0000
0000
0010
0001
0100
0000
0110
0000
,  // measure 44
0000
0100
0001
0100
0011
0000
0100
0010
,  // measure 45
1100
0100
0110
0001
0101
1000
0110
0001
,  // measure 46
1100
0100
0101
1000
0011
0100
1010
1100
,  // measure 47
1001
0001
0110
0100
1010
0010
0110
0010
,  // measure 48
0101
0000
1000
0000
0110
0000
0001
0000
1100
0000
0010
0001
0100
0000
1000
0000
,  // measure 49
0110
0010
0100
0101
0000
1100
0110
0110
,  // measure 50
0000
0000
1001
0000
0011
0000
0101
0000
1000
0001
1000
0000
0110
0000
0100
0000
,  // measure 51
0101
0000
0000
0000
1000
0000
1100
0000
0010
0000
0100
0010
0001
0000
1010
0000
,  // measure 52
0000
0000
0100
0000
0110
0000
0001
0010
0100
0001
0100
1000
0010
0100
0010
0000
,  // measure 53
1001
1000
1010
0010
0101
0001
1001
1000
,  // measure 54
0110
0100
0101
0001
1001
0000
0110
0011
,  // measure 55
0101
1000
0011
0010
0110
0100
0101
0001
,  // measure 56
0110
0010
0011
0010
0110
0100
0101
1100
,  // measure 57
1100
0000
0001
1000
0100
0000
0010
0000
0110
0000
1000
0100
0001
0000
1000
0000
,  // measure 58
0001
0000
1000
0010
0001
0000
0100
0000
1010
0000
0001
0100
1000
0000
0100
0000
,  // measure 59
0011
0000
0001
0101
0000
1010
1000
1100
,  // measure 60
0000
0000
0010
0001
0100
0000
1001
0000
1000
0000
0000
0000
0100
0000
0001
0000
,  // measure 61
1100
0100
0101
0001
1001
0010
0110
0100
,  // measure 62
0101
0100
0110
0001
1001
0001
1001
0110
,  // measure 63
0101
0000
1000
0000
1010
0000
0001
0000
0100
0010
0100
0010
0100
1000
0010
0001
,  // measure 64
0100
1000
0001
0100
0010
1000
0110
0000
0000
0011
0000
0000
,  // measure 65
0011
0000
0101
0110
0000
1001
0011
0101
,  // measure 66
0000
1001
0110
1100
0110
0110
0101
0011
,  // measure 67
0101
0000
1100
0110
0000
0101
0011
1100
,  // measure 68
0000
0011
1100
0110
1001
0000
0000
0000
;
