#TITLE:Raise;
#SUBTITLE:カンピオーネ! ED;
#ARTIST:小倉 唯;
#TITLETRANSLIT:;
#SUBTITLETRANSLIT:Campione! ED;
#ARTISTTRANSLIT:Yui Ogura;
#GENRE:ANIMATION BEAT#0;
#CREDIT:;
#BANNER:Raise.png;
#BACKGROUND:Raise-bg.png;
#LYRICSPATH:;
#CDTITLE:cdtitle.png;
#MUSIC:Raise.mp3;
#MENUCOLOR:0,0,1,1;
#METERTYPE:DDR X;
#OFFSET:-0.221;
#SAMPLESTART:50.434;
#SAMPLELENGTH:12.000;
#SELECTABLE:YES;
#DISPLAYBPM:169.000;
#BPMS:0.000=160.000
,131.500=320.000
,134.000=160.000
;
#STOPS:134.000=0.469
;
#BGCHANGES:;
#KEYSOUNDS:;
#ATTACKS:;

//---------------dance-single - ----------------
#NOTES:
     dance-single:
     :
     Hard:
     15:
     0.729,0.820,0.404,0.348,0.387,388.000,36.000,31.000,0.000,0.000,0.000,0.729,0.820,0.404,0.348,0.387,388.000,36.000,31.000,0.000,0.000,0.000:
0000
0000
0000
0000
,
0000
0000
0000
0000
,
0000
0000
0000
0000
,
0000
0000
0000
0000
,
1001
0000
0010
0000
0100
0000
1000
0000
0010
0000
1000
0001
0000
0000
0100
0000
,
0101
0000
0101
0000
1000
0000
0100
0000
0010
0000
1000
0001
0000
0000
0100
0000
,
0011
0000
0010
0100
0000
0000
0100
0000
1000
0000
0010
0100
0000
0000
0100
0000
,
0010
0000
0100
0000
1000
0000
0100
0010
0001
0000
0010
0000
0100
0000
0001
0000
,
2001
0000
0000
0001
0000
0010
3010
0100
,
0102
0000
0000
0100
0000
0010
0013
1000
,
1200
0000
0000
0000
0000
0000
0010
1300
0002
0000
0000
1000
0000
0000
1003
0000
,
0021
0000
0000
0000
0000
0000
0001
0000
0000
0000
0000
0000
1000
0000
0031
1000
,
0200
0000
0000
0010
0000
0000
0000
0000
0000
0000
0000
0000
0010
0000
0310
0000
,
2001
0000
0000
0100
0000
0000
0100
0000
0000
0000
0000
0000
0100
0000
3100
0010
,
0002
0000
0000
0010
0000
1003
0100
0010
,
0210
0000
0000
0010
0000
0000
0010
0000
0000
0000
0301
0000
1000
0000
0100
0000
,
1002
0000
0100
0000
0013
1000
0010
1000
,
0020
0000
0100
0000
1030
0001
0100
0001
,
0200
0000
0000
0000
0310
0000
1000
0000
0010
0000
0000
0100
0000
0000
0010
0000
,
2000
0000
0000
0000
0100
0000
0000
0000
0001
0000
0000
0000
3001
0000
0100
1000
,
0001
0000
0200
0000
0320
0000
0130
1000
,
0010
0000
0010
0100
0000
1000
0001
0000
0100
0000
0000
0000
0100
0000
1000
0000
,
0010
0000
0000
0100
0000
0000
1000
0000
0100
0000
0000
0001
0000
0000
0100
0000
,
0002
1000
0010
1000
,
1003
0000
0100
0010
0100
0000
0010
0010
,
0100
0000
0100
0000
1000
0000
1000
0001
0200
0000
0000
0000
0010
0000
0000
0000
,
1300
0000
0001
0100
0001
0000
1000
0100
,
0010
0000
1000
0000
0001
0000
0100
1000
0020
0000
0000
0000
0100
0000
0000
0000
,
0031
0000
0010
0100
0000
1000
0100
0000
0100
0000
0100
0001
0000
0001
1000
0000
,
0010
0000
0000
0010
0001
0000
0001
0010
0001
0000
0000
1100
0000
0000
1010
0000
,
0101
0000
0000
0000
0100
0000
0000
0000
0010
0000
0000
0001
0100
0000
1000
0000
,
0200
0010
1000
0301
,
1100
0101
0000
1001
0000
0110
0000
0012
,
0000
0000
0000
0000
0000
1000
1003
0000
,
1001
0000
0000
0000
0100
0000
0010
0100
1000
0000
0010
0001
0000
1000
0010
0000
,
0200
0010
0310
0001
1000
0100
0002
0000
,
0203
0000
0000
0000
0310
0000
1000
0100
0001
0000
0100
0010
0000
0001
0100
0000
,
0020
0001
0031
0000
0100
0000
0010
1000
,
0201
0000
0000
0000
0310
0000
0001
0000
1000
0000
0100
0001
0000
0000
1000
0100
,
0002
0000
0103
0010
0002
0100
0103
0010
,
1000
0000
0100
0001
0010
0000
1000
0000
1100
0000
0010
0000
0011
0000
0100
0000
,
0110
0000
1000
0100
1000
0000
0010
0100
0010
0000
1000
0100
0001
0010
0100
1000
,
0010
0000
0000
0000
0100
0000
0010
0001
1000
0000
0001
0100
0000
0100
0010
0000
,
0200
1000
1300
0000
1000
0100
0020
0000
,
0130
0000
0000
0000
1000
0000
0100
1000
0010
0000
0001
1000
0000
1000
0001
0000
,
0200
0001
0301
0000
0100
0000
0010
1000
,
0011
0000
0000
1100
0000
0000
0011
0000
0000
0000
0000
0000
0100
0000
0010
0000
,
1010
0000
0000
0101
0000
0000
1010
0000
0000
0000
0100
0000
0010
0000
0010
0001
,
1000
0000
0100
0000
0010
0000
1000
0100
0001
0000
0100
0000
0010
0000
0100
0000
,
1000
0000
0100
0001
0100
0000
0100
0000
0001
1000
0000
1000
0010
0000
1000
0000
,
1100
0000
0000
0110
0000
0000
0011
0000
0000
0000
1000
0000
0100
0000
0010
0000
,
0011
0000
0000
0110
0000
0000
1100
0000
0000
0000
1000
0100
1000
0000
0010
0100
,
0010
0000
0100
0000
0010
0000
1000
0001
0100
0000
0010
0000
0001
0000
0100
0000
,
0010
0000
0100
0001
2000
0000
0000
0000
3100
0000
0010
0000
0100
0000
0001
0000
,
1000
0000
0100
0000
0010
0000
0001
0000
0100
0000
1000
0000
0100
0010
0100
0010
,
0100
0000
0010
0000
1000
0000
0100
0000
0010
0000
0100
0010
0001
0000
1000
0000
,
0001
0000
0100
0000
1000
0000
0100
0000
0010
0000
0001
0010
0100
0000
0001
0000
,
0100
0000
1000
0001
0100
0000
0010
0000
0001
0000
0100
0001
1000
0000
0100
0000
,
0010
0000
0001
1000
0001
0000
1000
0001
1000
0000
0000
0000
0000
0000
0000
0000
;

//---------------dance-single - ----------------
#NOTES:
     dance-single:
     :
     Challenge:
     13:
     0.377,0.394,0.258,0.000,0.028,212.000,23.000,0.000,296.000,0.000,0.000,0.377,0.394,0.258,0.000,0.028,212.000,23.000,0.000,296.000,0.000,0.000:
0000
0000
0000
0000
,
0000
0000
0000
0000
,
0000
0000
0000
0000
,
0000
0000
0000
0000
,
MMMM
1000
0010
0100
,
MMMM
0100
0001
1000
,
0110
MMMM
0100
MMMM
,
0010
MMMM
1000
0001
,
1000
0001
MMMM
0010
MMMM
0100
0010
0000
,
1000
0001
MMMM
0010
MMMM
1000
0001
0000
,
1001
MMMM
1000
0001
,
1100
MMMM
0010
0100
,
1000
0001
MMMM
0100
MMMM
0001
1000
0000
,
0001
1000
MMMM
0010
MMMM
0100
0010
0000
,
0101
MMMM
0010
1000
,
0001
1000
MMMM
0000
0000
0100
0010
1000
,
0001
0000
MMMM
0001
MMMM
0010
0001
0100
,
1000
0000
MMMM
1000
MMMM
0010
1000
0010
,
0100
0000
0010
0100
1000
0000
0100
0001
,
0010
MMMM
1000
MMMM
0100
MMMM
0100
0010
,
0100
0010
1000
MMMM
,
0100
0010
1000
MMMM
,
1100
0001
0010
0100
,
MMMM
0101
0100
0010
,
MMMM
1000
0100
0010
,
0100
MMMM
0010
MMMM
0100
0000
0100
0000
,
0010
0000
1000
0000
0100
0000
0010
MMMM
,
1000
MMMM
0001
0000
0100
0000
0010
0000
,
MMMM
1000
0100
0000
MMMM
1000
0001
0000
,
MMMM
0000
0001
0000
0100
0000
0000
0000
0010
0000
0000
0100
0000
0000
0010
0000
,
0100
MMMM
0010
MMMM
,
1000
0000
0001
0000
1000
0000
0000
MMMM
,
0100
0010
MMMM
0010
MMMM
1000
MMMM
0110
,
0000
0000
0000
0000
0000
1000
0001
0000
,
MMMM
0000
1000
0000
1000
MMMM
0100
MMMM
,
0010
MMMM
0001
0000
0010
0000
1000
0000
,
MMMM
0000
0000
0000
0001
MMMM
0010
MMMM
,
0100
MMMM
1000
0000
0100
0000
1000
0001
,
0010
0000
0001
1000
0100
0000
MMMM
1000
,
MMMM
0000
0100
0000
0010
0000
0001
MMMM
,
1000
MMMM
0001
MMMM
1000
MMMM
0010
MMMM
,
1000
MMMM
0100
0000
0001
0000
1000
0000
,
MMMM
0000
1000
MMMM
0100
MMMM
0010
MMMM
,
0001
0010
1000
0010
,
MMMM
0000
1000
MMMM
0010
MMMM
0100
MMMM
,
0001
0110
0100
0010
,
MMMM
0000
0000
1001
0000
0000
0101
0000
0000
0000
0100
0000
0010
0000
1000
0000
,
MMMM
0000
0000
0110
0000
0000
1100
0000
0000
0000
0000
0000
0100
0000
0000
0000
,
1001
0000
0100
0001
0010
0000
1000
0001
,
1000
0000
0100
0000
0001
0000
0100
0010
,
MMMM
0000
0000
0101
0000
0000
1100
0000
0000
0000
0000
0000
0100
0000
1000
0000
,
MMMM
0000
0000
0101
0000
0000
0101
0000
0000
0000
0000
0000
0100
0000
1000
0000
,
0001
0000
0100
0010
1000
0000
1000
0001
,
1000
0010
0100
0000
0010
0000
0100
0000
,
0001
0000
0100
0000
0010
0000
1000
0001
,
MMMM
1100
0010
0100
,
MMMM
0011
0100
0001
,
MMMM
1100
MMMM
0110
,
MMMM
0011
1001
0000
;

//---------------dance-single - ----------------
#NOTES:
     dance-single:
     :
     Medium:
     10:
     0.394,0.492,0.168,0.426,0.000,193.000,15.000,38.000,0.000,0.000,0.000,0.394,0.492,0.168,0.426,0.000,193.000,15.000,38.000,0.000,0.000,0.000:
0000
0000
0000
0000
,
0000
0000
0000
0000
,
0000
0000
0000
0000
,
0000
0000
0000
0000
,
1001
0100
0001
0100
,
1010
0100
0001
0100
,
0110
1000
1100
0010
,
0101
1000
0010
0000
,
0210
0000
0000
0000
,
2300
0000
0000
0000
,
3002
0000
0000
0000
,
0023
0000
0000
0000
,
0230
0000
0000
0000
,
2300
0000
0000
0000
,
3002
0000
0000
0000
,
0023
0000
0000
0000
,
0130
0000
1000
0000
0000
0001
1000
0001
,
1000
0000
0010
0000
0000
1000
0001
1000
,
0001
0000
0010
0100
0010
0000
0001
1000
,
0001
0100
0010
1000
,
0100
0010
0001
1000
,
0100
0000
0010
0100
0010
0000
1000
0000
,
0100
0000
0001
0000
0100
0000
1000
0100
,
0010
0100
0010
1000
,
0002
0000
0010
0000
,
2003
0000
0100
0000
,
3020
0000
1000
0000
,
0230
0000
0001
0000
,
0320
1000
0032
0100
,
2003
0001
3200
0010
,
0301
1000
0100
0010
,
2000
0000
0000
0000
,
3001
1000
0000
0010
0000
0100
0000
2002
,
0000
0000
3000
0003
,
1000
0000
0100
0000
0010
1000
0010
0000
,
0020
0000
0130
0000
0100
0001
0100
0000
,
0002
0000
0103
0000
0010
0100
0010
0000
,
0200
0000
1300
0000
0010
0000
0010
0001
,
0020
0000
0031
0100
2000
0000
3100
0001
,
0020
0000
0031
1000
0002
0000
0103
0000
,
1000
0000
0100
0000
0010
1000
0001
0000
,
2000
3001
0002
1003
,
1001
0000
1000
0000
0100
0010
0100
0000
,
0200
0310
0002
0103
,
2000
0000
3100
0000
0010
1000
0010
0000
,
0002
0103
0010
1000
,
1010
0000
0000
0110
0000
0000
0001
0000
,
0100
0000
0000
0110
0000
0000
0000
0000
,
1000
0000
0100
0000
0010
0001
0010
0000
,
2000
3010
0100
0001
,
0101
0000
0000
1010
0000
0000
0100
0000
,
0010
0000
0000
0110
0000
0000
0100
0000
,
1000
0000
0100
0000
0001
0000
0100
0010
,
0100
2000
3100
0010
,
0001
0100
0020
0031
,
0100
0010
0200
1300
,
0010
0100
0020
0130
,
1000
0100
0002
0013
,
1000
0010
1001
0000
;

//---------------dance-single - ----------------
#NOTES:
     dance-single:
     :
     Easy:
     6:
     0.266,0.263,0.168,0.280,0.000,126.000,15.000,25.000,0.000,0.000,0.000,0.266,0.263,0.168,0.280,0.000,126.000,15.000,25.000,0.000,0.000,0.000:
0000
0000
0000
0000
,
0000
0000
0000
0000
,
0000
0000
0000
0000
,
0000
0000
0000
0000
,
1001
0000
0100
0010
,
0110
0000
0001
1000
,
1001
0000
0010
0001
,
0011
0000
0100
1000
,
1100
0000
0000
0000
,
0110
0000
0000
0000
,
0011
0000
0000
0000
,
0110
0000
0000
0000
,
1100
0000
0000
0000
,
0110
0000
0000
0000
,
0011
0000
0000
0000
,
1100
0000
0000
0000
,
1000
0100
0010
0000
,
0001
0010
0100
0000
,
1000
0001
1000
0010
,
2000
0000
0000
0000
,
3001
0100
0010
0000
,
1000
0100
0001
0000
,
0010
1000
0100
0010
,
0002
0000
0000
0000
,
1003
0100
0010
0000
,
0010
0100
1000
0100
,
0010
0000
0010
0000
,
0100
0010
0001
0010
,
0100
0100
1000
1000
,
0001
0001
1000
0100
,
0020
0000
1030
0000
,
0202
0000
0000
0000
,
0303
1000
0000
0010
,
0000
0000
0000
0000
,
0210
0000
1000
0000
,
0302
0000
1000
0000
,
0010
0000
1000
0000
,
0203
0000
0001
0000
,
1000
0000
0010
0000
,
2300
0000
0100
0000
,
0010
0000
0001
0000
,
3020
1000
0100
0001
,
0032
0000
1000
0000
,
0203
0000
1000
0000
,
0010
0000
0001
0000
,
0320
0000
1000
0000
,
0230
0000
0001
0000
,
2300
0000
0010
0000
,
3020
0000
0230
0000
,
0302
0000
0100
0000
,
2003
0000
0010
0000
,
3020
0000
0100
0000
,
0230
0000
2300
0000
,
3020
0000
0000
0000
,
2030
0000
3002
0000
,
1003
0100
0010
0001
,
0100
0010
1000
0100
,
0001
0001
0100
0100
,
1000
0100
1001
0000
;

//---------------dance-single - ----------------
#NOTES:
     dance-single:
     :
     Beginner:
     2:
     0.112,0.130,0.180,0.000,0.000,54.000,16.000,0.000,0.000,0.000,0.000,0.112,0.130,0.180,0.000,0.000,54.000,16.000,0.000,0.000,0.000,0.000:
0000
0000
0000
0000
,
0000
0000
0000
0000
,
0000
0000
0000
0000
,
0000
0000
0000
0000
,
1001
0000
0000
0000
,
0110
0000
0000
0000
,
1001
0000
0000
0000
,
0110
0000
0000
0000
,
1000
0000
0000
0000
,
0001
0000
0000
0000
,
1000
0000
0000
0000
,
0001
0000
0000
0000
,
0100
0000
0000
0000
,
0010
0000
0000
0000
,
0100
0000
0000
0000
,
0010
0000
0000
0000
,
1001
0000
0000
0000
,
0100
0000
0000
0000
,
0010
0000
0000
0000
,
0100
0000
0000
0000
,
0010
0000
0000
0000
,
0100
0000
0000
0000
,
0010
0000
0000
0000
,
1000
0000
0000
0000
,
0001
0000
0000
0000
,
1000
0000
0000
0000
,
0010
0000
0000
0000
,
0100
0000
0000
0000
,
0001
0000
0000
0000
,
1000
0000
0000
0000
,
1001
0000
0000
0000
,
0010
0000
0000
0000
,
0110
0000
0000
0000
,
0000
0000
0000
0000
,
1001
0000
0000
0000
,
0001
0000
0000
0000
,
1001
0000
0000
0000
,
1000
0000
0000
0000
,
0010
0000
0000
0000
,
0100
0000
0000
0000
,
1000
0000
0000
0000
,
0001
0000
0000
0000
,
1001
0000
0000
0000
,
1000
0000
0000
0000
,
0110
0000
0000
0000
,
0010
0000
0000
0000
,
1001
0000
0000
0000
,
0110
0000
0000
0000
,
0110
0000
0000
0000
,
1000
0000
0000
0000
,
0110
0000
0000
0000
,
1001
0000
0000
0000
,
0001
0000
0000
0000
,
0010
0000
0000
0000
,
0100
0000
0000
0000
,
1000
0000
0000
0000
,
0001
0000
0000
0000
,
0100
0000
0000
0000
,
0010
0000
0000
0000
;
