#TITLE:パラダイム;
#SUBTITLE:ココロコネクト OP;
#ARTIST:eufonius;
#TITLETRANSLIT:Paradigm;
#SUBTITLETRANSLIT:Kokoro Connect OP;
#ARTISTTRANSLIT:;
#GENRE:ANIMATION BEAT#0;
#CREDIT:;
#BANNER:Paradigm.png;
#BACKGROUND:Paradigm-bg.png;
#LYRICSPATH:;
#CDTITLE:cdtitle.png;
#MUSIC:Paradigm.mp3;
#MENUCOLOR:0,0,1,1;
#METERTYPE:DDR X;
#OFFSET:-0.050;
#SAMPLESTART:53.396;
#SAMPLELENGTH:12.000;
#SELECTABLE:YES;
#BPMS:0.000=160.000
;
#STOPS:
;
#BGCHANGES:;
#KEYSOUNDS:;
#ATTACKS:;

//---------------dance-single - ----------------
#NOTES:
     dance-single:
     :
     Hard:
     12:
     0.508,0.557,0.328,0.045,0.023,281.000,29.000,4.000,0.000,0.000,0.000,0.508,0.557,0.328,0.045,0.023,281.000,29.000,4.000,0.000,0.000,0.000:
0000
0000
0000
0000
,
0000
0000
0000
0000
,
0000
0000
0000
0000
,
0000
0000
0000
0000
,
1001
0000
0100
0000
0010
0000
0001
1000
,
0000
0000
1000
0000
0000
0000
0001
0000
0000
0000
0000
0000
0100
0010
0100
0010
,
0100
0000
0010
0000
0010
0000
1000
0001
,
0000
1000
0000
0001
0000
0100
0010
0100
,
0101
0010
1000
1010
0010
0100
0001
0110
,
0000
1000
0100
0010
0000
0001
0100
0000
,
1010
0100
0010
0001
,
0100
1000
0100
0010
,
0002
1000
0000
0000
0100
0000
0000
0000
0010
0000
0000
0000
1000
0000
0000
0000
,
0010
1000
0103
0000
,
1000
0000
0100
0010
0000
0001
0000
1000
,
0000
0100
0010
0001
,
2001
0100
0010
0001
,
0010
0100
3001
0100
,
0101
0000
1000
0100
0000
0010
0000
0001
,
0000
1000
0100
0010
,
0200
0001
0000
0000
1000
0000
0000
0000
0010
0000
0000
0000
0001
0000
0000
0000
,
0010
1000
0310
0100
,
0101
0000
1000
0100
0000
0010
0000
0001
,
0000
1000
0100
0110
,
0001
0000
0100
0010
0000
0100
0000
1100
,
0000
0110
0000
0011
0000
0100
0001
0000
,
1010
0000
0100
0010
0000
0001
0100
0010
,
0000
1000
0100
0010
,
0001
0000
0100
0010
0000
0001
0000
0100
,
0000
1000
0100
0000
0010
0001
0100
0000
,
1010
0000
0100
0010
0000
0001
0000
0100
,
0000
0000
0010
0000
1000
0000
0100
0011
,
0000
0001
0100
0010
0000
1000
0100
0000
,
0001
0000
0100
0000
0010
1000
0001
1001
,
0000
0100
0010
0000
0001
1000
0100
0000
,
1000
0100
0010
0000
0001
0000
1001
0000
,
1000
0100
0010
0001
0000
0001
0010
0100
,
0001
0100
0010
1000
0000
0000
0000
1000
,
0100
0001
0100
1000
0010
0001
0100
0001
,
1000
0100
0010
0001
0000
1000
0100
0010
,
0001
0100
1000
0001
0000
1000
0100
0010
,
0001
0100
1000
0001
0000
0000
0000
1000
,
0100
1000
0010
0000
0100
0001
1000
0100
,
0020
0000
0000
1030
0000
0100
0010
0001
,
0100
0001
0100
0101
0000
1000
0100
0010
,
0001
1000
0100
1100
0000
0000
0000
1000
,
0100
0010
0001
0100
1000
0100
0010
0001
,
0100
1000
0100
0001
0000
0001
0100
1000
,
0010
1000
0001
0101
0000
0001
0100
0010
,
1000
0001
0100
1100
0000
0000
0000
1000
,
0010
0000
1000
0001
0000
0100
0000
0010
,
0000
0000
1000
0001
,
1001
0000
0100
0000
0010
0000
0001
0110
,
0000
1000
0100
0000
0010
0001
0100
1001
,
0000
0001
0100
0000
0010
0100
0001
1001
,
0000
0100
0010
0000
1000
0001
1000
0000
,
0110
1000
0001
1100
0000
1000
0100
0101
,
0000
0100
0100
0000
1000
0100
0010
1001
;

//---------------dance-single - ----------------
#NOTES:
     dance-single:
     :
     Medium:
     8:
     0.344,0.328,0.204,0.057,0.000,190.000,18.000,5.000,0.000,0.000,0.000,0.344,0.328,0.204,0.057,0.000,190.000,18.000,5.000,0.000,0.000,0.000:
0000
0000
0000
0000
,
0000
0000
0000
0000
,
0000
0000
0000
0000
,
0000
0000
0000
0000
,
1001
0000
0100
0000
0010
0000
0001
1000
,
0000
1000
0000
0001
0000
0000
0100
0010
,
0100
0000
1000
0000
1000
0000
0001
1000
,
0000
0001
0000
0100
0000
0000
0000
0000
,
1001
0000
0000
0110
0000
0000
0000
1001
,
0000
0000
0000
0100
0000
0010
1000
0000
,
0101
1000
0100
0010
,
0001
0000
1000
0100
,
0002
0000
1000
1000
,
1000
0000
1000
1000
,
1003
0100
0010
0001
,
1000
0000
0100
0010
,
1000
0100
0010
0001
,
2000
3001
0002
1003
,
0100
0010
1000
0100
,
0010
0000
0001
1000
,
2000
0100
0100
0000
,
0100
0100
0100
0000
,
3001
0100
0010
1000
,
0100
0000
0000
0000
,
1000
0000
0100
0000
0000
0000
0000
0101
,
0000
1010
0000
0110
0000
0000
0001
0000
,
1010
0100
0010
0001
,
1000
0100
0010
0001
,
0100
0010
1000
0100
,
0001
1000
0000
0000
,
0010
0100
1000
0001
,
1000
0000
0010
0000
0100
0000
0000
1001
,
0000
0100
0010
1000
,
0100
0000
0010
0000
0100
0000
0000
0110
,
0000
0100
0010
0001
,
1000
0001
1001
0110
,
0001
0100
0001
0100
0000
0000
0100
0000
,
0010
1000
0010
1000
0000
0000
0000
0000
,
0100
1000
0100
0000
,
0010
0001
0010
0000
,
1000
0001
1000
0001
0000
0000
0100
0000
,
0010
0100
0010
0100
0000
0000
0000
0000
,
1001
0100
0010
0000
,
1001
0010
0100
0000
,
1000
0001
1000
0001
0000
0000
0010
0000
,
0100
0010
0100
0010
0000
0000
0000
0000
,
1000
0100
0010
0000
,
0001
0010
0100
0000
,
1000
0100
1000
0100
0000
0000
0000
0000
,
0001
0010
0001
0010
0000
0000
0000
0000
,
1000
0100
0010
0001
,
0101
0000
1000
0100
,
0002
0000
1000
1000
,
1000
0000
1000
1000
,
1003
0100
0010
0001
,
1000
0000
0100
0010
,
1000
0100
0010
1000
,
1001
0000
0000
0000
0001
0000
0000
1001
;

//---------------dance-single - ----------------
#NOTES:
     dance-single:
     :
     Easy:
     6:
     0.260,0.294,0.091,0.011,0.000,152.000,8.000,1.000,0.000,0.000,0.000,0.260,0.294,0.091,0.011,0.000,152.000,8.000,1.000,0.000,0.000,0.000:
0000
0000
0000
0000
,
0000
0000
0000
0000
,
0000
0000
0000
0000
,
0000
0000
0000
0000
,
1001
0100
0010
0000
,
0010
0100
1000
0000
,
0001
0100
0010
0000
,
1000
0001
0100
0000
,
1000
0000
0100
0000
,
0001
0000
0010
0000
,
1000
0100
0000
0000
,
0001
1000
0000
0000
,
0010
0100
0000
0000
,
1000
0001
0000
0000
,
0010
0100
0000
0000
,
1000
0001
0000
0000
,
0001
1000
0001
0000
,
1000
0001
1000
0000
,
0010
0100
1000
0001
,
1000
0000
0100
1000
,
0100
0010
0001
1000
,
0010
0100
0000
0000
,
0010
1000
0100
0001
,
1000
0000
0000
0000
,
0010
1000
0100
0001
,
1000
0100
0001
1000
,
0001
0100
0010
1000
,
0100
0000
0100
0010
,
1000
0100
0010
0001
,
0100
0010
0000
0000
,
0001
0100
1000
0010
,
1000
0000
0100
0000
,
1001
0000
0100
0010
,
0100
1000
0100
0000
,
1001
0100
0010
1000
,
0100
0010
0001
0100
,
0001
1000
0001
1000
,
0100
0010
0001
0000
,
0001
0100
0001
0100
,
0010
1000
0010
1000
,
0100
0010
0001
0010
,
0100
1000
0001
0000
,
1000
0100
0001
0000
,
0001
0100
1000
0000
,
1000
0010
0001
0010
,
1000
0010
0001
0000
,
1000
0100
0001
0100
,
1000
0100
0001
0000
,
1001
0000
0000
0000
,
0110
0000
0000
0000
,
1001
0000
0100
0000
,
0010
0000
2000
0000
,
0001
0000
0000
0000
,
0001
0000
0000
0000
,
0001
0000
0000
0000
,
0001
0000
0000
0000
,
3001
0100
0010
1000
,
0001
0000
1001
0110
;

//---------------dance-single - ----------------
#NOTES:
     dance-single:
     :
     Beginner:
     3:
     0.136,0.195,0.158,0.000,0.000,70.000,14.000,0.000,0.000,0.000,0.000,0.136,0.195,0.158,0.000,0.000,70.000,14.000,0.000,0.000,0.000,0.000:
0000
0000
0000
0000
,
0000
0000
0000
0000
,
0000
0000
0000
0000
,
0000
0000
0000
0000
,
1001
0000
0000
0000
,
0100
0100
0100
0000
,
0010
0010
0010
0000
,
1000
1000
1000
0000
,
1001
0000
0000
0000
,
1001
0000
0000
0000
,
0110
0000
0000
0000
,
0001
0000
0000
0000
,
1000
0000
0000
0000
,
0100
0000
0000
0000
,
0010
0000
0000
0000
,
0001
0000
0000
0000
,
1000
0000
0000
0000
,
0100
0000
0000
0000
,
0010
0000
0000
0000
,
0001
0000
0000
0000
,
1000
0000
0000
0000
,
0001
0000
0000
0000
,
0100
0000
0000
0000
,
0010
0000
0000
0000
,
1000
0000
0000
0000
,
1001
0000
0000
0000
,
0110
0000
0000
0000
,
1000
0000
0000
0000
,
0001
0000
0000
0000
,
0010
0000
0000
0000
,
0100
0000
0000
0000
,
1000
0000
0000
0000
,
1001
0000
0000
0000
,
0010
0000
0000
0000
,
0110
0000
0000
0000
,
0100
0000
0001
0000
,
1000
0000
0000
0000
,
0100
0000
0010
0000
,
1000
0000
0000
0000
,
0100
0000
0000
0000
,
1000
0000
0001
0000
,
0100
0000
0000
0000
,
0010
0000
0100
0000
,
0001
0000
0000
0000
,
1000
0000
0010
0000
,
0001
0000
1000
0000
,
0100
0000
0010
0000
,
1000
0000
0000
0000
,
1001
0000
0000
0000
,
0110
0000
0000
0000
,
1000
0000
0010
0000
,
0100
0000
0000
0000
,
1001
0000
0000
0000
,
1001
0000
0000
0000
,
0110
0000
0000
0000
,
0110
0000
0000
0000
,
1000
0000
0001
0000
,
1000
0000
0001
0000
;

//---------------dance-single - ----------------
#NOTES:
     dance-single:
     :
     Challenge:
     13:
     0.627,0.721,0.577,0.340,0.108: // measure 1
0000
0000
0000
0000
,  // measure 2
0000
0000
0000
0000
,  // measure 3
0000
0000
0000
0000
,  // measure 4
0000
0000
0000
0000
,  // measure 5
0210
0000
0001
0000
1000
0000
0310
0100
,  // measure 6
0000
0000
0100
0000
0000
0000
0020
0000
0000
0000
0000
0000
0031
0010
0100
1000
,  // measure 7
0100
0000
1000
0000
2000
0000
3100
0010
,  // measure 8
0000
0100
0000
0010
0000
0001
1000
0001
,  // measure 9
0011
1000
0100
1100
1000
0001
0010
1001
,  // measure 10
0000
0100
0001
1000
0000
0010
0001
0000
,  // measure 11
1200
0000
0010
0010
0000
1000
0000
0002
,  // measure 12
0000
0003
0020
0030
0301
0000
1001
0000
,  // measure 13
0020
0100
0000
0000
0000
0000
0001
0000
0000
0000
0001
0000
0001
0000
0001
0000
,  // measure 14
0000
0100
0100
0100
0000
1000
1030
0001
,  // measure 15
0200
0000
1000
1000
0000
0010
0000
0001
,  // measure 16
0000
0001
1300
0011
,  // measure 17
0210
0000
0001
0001
0000
0010
0000
0010
,  // measure 18
0000
0010
0010
0000
1300
0000
0001
1000
,  // measure 19
0011
0000
0200
0001
0000
1000
0000
0010
,  // measure 20
0000
0301
0011
1100
,  // measure 21
0002
0010
0000
0000
0100
0000
0100
0000
0000
0000
0010
0000
0000
0000
0100
0000
,  // measure 22
0000
1000
1000
0000
1003
0000
0001
1000
,  // measure 23
1100
0000
0200
0001
0000
1000
0000
0020
,  // measure 24
0000
0330
0011
1001
,  // measure 25
0010
0000
0001
1000
0000
0001
0000
0101
,  // measure 26
0000
1001
0000
1010
0000
0011
0110
0000
,  // measure 27
1100
0000
0001
1000
0000
0010
0001
1000
,  // measure 28
0000
0200
0302
2003
,  // measure 29
3020
0000
0031
1000
0000
0010
0000
0001
,  // measure 30
1000
0100
0002
0000
1003
0010
0001
0000
,  // measure 31
1100
0000
0001
2000
0000
0010
0000
0002
,  // measure 32
3000
0000
1003
0000
0100
0000
0001
1010
,  // measure 33
0000
0010
0001
2000
0000
3100
0002
0000
,  // measure 34
0013
0000
0001
0000
1000
0100
0010
0110
,  // measure 35
0000
0001
1000
0000
0010
0100
0001
0000
,  // measure 36
1000
0001
1000
0001
1000
0001
1000
0001
1000
0000
0001
0000
0110
0000
0100
0000
,  // measure 37
0101
0000
0001
0000
1000
0100
0010
0000
0000
0000
0110
0000
1000
0000
0001
0000
,  // measure 38
0010
0000
0001
0000
1000
0001
0100
0000
0000
0000
0000
0000
0000
0000
0100
0001
,  // measure 39
0100
0010
0002
0000
1003
0010
0001
0010
,  // measure 40
0100
0001
1000
0010
0000
1100
0001
1000
,  // measure 41
0010
0000
0001
0000
0100
0001
0010
0000
0000
0000
0101
0000
0001
0000
1000
0000
,  // measure 42
0010
0000
0001
0000
0100
1000
0010
0000
0000
0000
0000
0000
0000
0000
0100
1000
,  // measure 43
0001
0100
2000
0000
3001
0010
0100
0001
,  // measure 44
2000
0000
0000
0000
0000
0000
3100
0000
0000
0000
1001
0000
1000
0000
0010
0100
,  // measure 45
0001
0000
0010
0000
0001
0000
0011
0000
0000
0000
1100
0000
0001
0000
1000
0001
,  // measure 46
0010
0000
0100
0000
0001
0000
0101
0000
0000
0000
0000
0000
0000
0000
0100
0010
,  // measure 47
0001
1000
0020
0000
0130
0001
1000
0010
,  // measure 48
0001
0100
0001
0010
0000
1010
0001
0100
,  // measure 49
1001
0000
0100
1000
0010
0000
0011
0000
0000
0000
0010
0000
0001
0000
1000
0000
,  // measure 50
1100
0000
0010
1000
0001
0000
0101
0000
0000
0000
0000
0000
0000
0000
0100
0000
,  // measure 51
2000
0000
3100
0020
0000
0032
0000
2003
,  // measure 52
0000
0000
3100
0010
,  // measure 53
0110
0000
1001
0000
1100
0000
0010
1001
,  // measure 54
0000
0100
1001
0000
1000
0010
0001
0110
,  // measure 55
0000
0010
0001
0000
1000
0001
0010
0110
,  // measure 56
0000
0001
1000
0000
0100
0010
0100
0000
,  // measure 57
1001
0100
0010
0101
1000
0100
0001
0011
,  // measure 58
0100
0001
0001
0000
1001
1010
0110
0101
;
