#TITLE:お後がよろしくって…よ!;
#SUBTITLE:じょしらく OP;
#ARTIST:極落女会;
#TITLETRANSLIT:Oato ga Yoroshikutte...Yo!;
#SUBTITLETRANSLIT:Joshiraku OP;
#ARTISTTRANSLIT:Goku-Rakujokai;
#GENRE:ANIMATION BEAT#1;
#CREDIT:;
#BANNER:Oato ga Yoroshikutte...Yo!.png;
#BACKGROUND:Oato ga Yoroshikutte...Yo!-bg.png;
#LYRICSPATH:;
#CDTITLE:cdtitle.png;
#MUSIC:Oato ga Yoroshikutte...Yo!.mp3;
#OFFSET:-0.048;
#SAMPLESTART:54.697;
#SAMPLELENGTH:12.000;
#SELECTABLE:YES;
#BPMS:0.000=189.000
;
#STOPS:
;
#BGCHANGES:;
#KEYSOUNDS:;
#ATTACKS:;

//---------------dance-single - ----------------
#NOTES:
     dance-single:
     :
     Hard:
     15:
     0.791,0.801,0.669,0.352,0.187,398.000,59.000,31.000,0.000,0.000,0.000,0.791,0.801,0.669,0.352,0.187,398.000,59.000,31.000,0.000,0.000,0.000:
0000
0000
0000
0000
,
0000
0000
0000
0000
,
0000
0000
0000
0000
,
0000
0000
0000
0000
,
1001
0000
0000
0000
0100
0001
0000
0000
0100
0000
0000
0000
0100
1000
0000
0000
,
0100
0000
0000
0000
0100
0001
0000
0000
0100
1000
0000
0000
0100
0001
0000
0000
,
1000
0000
0000
0000
0010
1000
0000
0000
0010
0000
0000
0000
0010
0001
0000
0000
,
0010
0000
0000
0000
0010
1000
0000
0000
0010
0001
0000
0000
0010
1000
0000
0000
,
0001
1000
0000
0000
0100
0000
0002
0000
0100
0000
0000
0000
0010
0000
0000
0000
,
1003
0000
0010
0200
0000
0000
0301
0100
,
1000
0000
0100
1000
0010
0100
0001
0000
,
2000
0000
0000
3001
,
1000
0000
0001
0000
0100
0000
0010
0000
0010
0100
0010
0000
0010
0000
1000
0001
,
1000
0000
0100
0100
0002
0000
0103
0020
,
0000
1030
0100
0010
0001
0001
0101
0000
,
1010
0000
0100
0010
0002
0000
1003
0200
,
0000
0310
0100
0001
0100
0001
0110
0000
,
1001
0000
0100
0010
0100
0000
0001
0100
,
0000
1000
0200
0010
0310
0000
0100
0000
,
0110
0000
1010
0000
0100
0000
0011
0100
,
0000
0010
1000
0000
0100
0010
1100
0000
,
0101
0000
1000
0100
0010
0000
0001
0100
,
0000
1000
0100
0001
0100
1000
1010
0000
,
0110
0000
0010
0001
0010
0000
0100
0001
,
0000
1000
0100
0010
0001
0100
0101
0000
,
1010
0000
0100
0010
0200
0000
1300
0200
,
0000
0310
0100
0000
0001
0100
0010
0000
,
1000
1100
0000
0001
0011
0000
0100
0110
,
0000
1000
0100
0000
0010
0100
0010
0100
,
0021
0230
0320
0032
,
0013
0100
1000
0000
0001
0000
0100
0010
,
2000
0000
3200
0000
0310
1000
0010
0000
,
1000
0100
1000
0000
0010
0001
0010
0000
,
1100
0002
0203
0320
,
2030
0000
0100
0000
3010
0000
1000
0001
,
1100
0000
0110
0000
0011
0000
0100
1000
,
0100
0010
0001
0100
0000
0000
0011
0000
,
0110
0000
1100
0000
0100
0010
0100
0000
,
2000
0000
0100
0000
0001
0000
3100
0001
,
2000
3010
0110
0011
,
0110
0000
1100
0000
0100
0010
0100
0000
,
0101
1010
0110
0011
,
0110
0000
0110
0000
0001
1000
0001
0000
1001
0000
1001
0000
1000
0000
0000
0000
,
0101
0001
1000
0010
0100
0020
0000
1030
,
0100
0010
0001
0100
0010
0100
1010
0000
,
0100
0010
1000
0100
0010
0001
0100
1000
,
1000
0100
0100
0010
0101
0100
0110
0010
,
1010
0001
0100
0010
0100
1000
0010
0200
,
0000
0301
0100
0000
0110
0000
0110
0000
,
1000
0100
0010
0001
0100
0010
1000
0020
,
0000
0000
0031
0000
0100
0000
0010
0000
0100
0000
0010
0100
1000
0010
0100
0001
,
0010
1000
0001
1000
0100
0010
0100
0020
,
0000
0130
0010
0001
0100
0001
0101
0000
,
0011
1000
0100
0010
0100
0001
0100
0001
,
1000
0100
1000
0000
0001
0010
0001
0000
0100
1000
0100
0000
0010
0001
0010
0000
,
0100
0010
1000
0100
0010
0001
0100
0020
,
0000
1030
0100
0010
0001
0000
0101
0000
,
1100
1100
0010
0001
0011
0011
0100
1200
,
0000
0000
1300
0000
0100
0000
0010
0000
0001
0000
0001
0010
0100
0010
1000
0000
,
0010
1000
0001
0100
0001
0000
1000
1200
,
0000
0310
0100
0001
0100
0000
1000
0210
,
0000
0000
0310
0000
0100
0000
0001
0000
0100
0000
1000
0100
0010
0100
0001
0000
,
1000
1010
0000
0001
0001
0101
0000
1000
,
1010
0000
0000
0000
0100
0010
0000
0000
0010
0001
0000
0000
0100
0001
0000
0000
,
0010
1000
0000
0000
0010
1000
0000
0000
0010
1000
0000
0000
0001
1000
0000
0000
,
0010
0000
0011
1000
0100
0010
1000
0000
,
2000
0000
0000
0000
0000
0000
0000
0000
3001
0000
1000
0000
0000
0000
0001
1000
,
0001
1001
0000
0000
;

//---------------dance-single - ----------------
#NOTES:
     dance-single:
     :
     Medium:
     13:
     0.621,0.649,0.272,0.148,0.000,346.000,24.000,13.000,0.000,0.000,0.000,0.621,0.649,0.272,0.148,0.000,346.000,24.000,13.000,0.000,0.000,0.000:
0000
0000
0000
0000
,
0000
0000
0000
0000
,
0000
0000
0000
0000
,
0000
0000
0000
0000
,
1001
0011
0010
1010
,
0010
0011
1010
0011
,
1000
0101
0100
1100
,
0100
0101
1100
0101
,
1000
0020
0130
0001
,
1000
0000
0001
2000
0000
0000
3000
0010
,
0100
0000
1000
0100
0010
0001
0010
0000
,
0200
0000
0000
0000
0310
0000
0010
0100
,
0010
0000
0001
0000
0100
0001
0100
0000
,
1000
0000
0100
0010
0100
0000
0001
1000
,
0000
0001
0100
0001
0100
0001
1000
0000
,
1001
0000
0010
1000
0010
0000
0100
0010
,
0000
1000
0100
0010
0001
1000
0010
0000
,
0110
0000
1000
0100
0010
0000
0001
0100
,
0000
0010
1000
0000
0100
0000
0010
0000
,
1000
0000
0100
0000
0010
0000
0001
0100
,
0000
0010
1000
0000
0100
0000
0110
0000
,
1001
0000
1000
0100
0010
0000
0001
0100
,
0000
1000
0100
0010
0100
0001
2000
0000
,
3001
0000
1000
0100
0010
0000
0001
0100
,
0000
1000
0100
0001
0100
1000
0020
0000
,
0130
0000
0100
0010
0001
0000
1000
0100
,
0000
0010
0001
0000
1000
0000
0010
0000
,
0001
0001
0000
1000
1000
0000
0010
0010
,
0000
1000
1000
0000
1000
0100
0010
0000
,
1001
0010
0100
0010
,
1000
0100
0010
1000
,
0001
0000
0100
0000
0010
1000
0001
0000
,
1000
1000
0001
0000
0001
0001
1000
0000
,
0110
0000
0000
0010
0001
0000
0100
0000
,
0010
1000
0100
0010
,
0001
1000
0001
0000
1000
0000
0010
0100
,
0010
0100
0010
0100
0000
1000
0100
0000
,
0010
0000
1000
0000
0100
0010
0100
0000
,
0002
0000
1003
0000
0010
0000
0100
0001
,
2000
0001
0001
0001
,
3002
0000
1000
0000
1000
0000
1003
0001
,
1000
0100
0010
0100
,
0010
1000
0000
0000
0001
0100
0000
0000
,
0001
0010
0100
1000
0100
0010
0000
1000
,
0100
0010
0001
0100
0010
0100
0010
0000
,
1000
0100
0001
0100
1000
0010
1000
0010
,
1000
0001
0100
0010
1000
1000
0001
0001
,
0100
0010
1000
0100
0001
0100
0010
2000
,
0000
3100
0010
0001
0100
0000
0001
0000
,
1000
0100
0010
0001
0100
0010
0100
0002
,
0000
1003
0100
0010
0001
0100
0010
1000
,
0001
0100
0001
0100
0001
0100
0000
1000
,
0100
0010
0001
0100
0010
0100
0001
0000
,
1000
0100
0010
0001
0100
0010
0100
0010
,
1000
1000
0001
0001
0100
0100
0010
0010
,
1000
0100
0001
0100
1000
0010
0000
0020
,
0000
1030
0100
0010
0001
0000
0100
0000
,
0010
0010
0000
0000
1000
1000
0000
0002
,
0000
1003
0100
0000
0010
0001
0100
0010
,
0000
0100
0010
0000
0100
0010
1000
0100
,
0000
0001
0100
0001
0100
0000
1000
0100
,
0000
0010
0100
0000
0001
0100
0000
1000
,
0000
0100
0010
0000
0100
0001
0000
0000
,
1000
0101
0100
1100
,
0100
1100
0101
1100
,
0100
0000
0001
0100
0001
0100
0001
0000
,
2000
0000
3001
0000
0100
0001
1000
0000
,
1001
1001
0000
0000
;

//---------------dance-single - ----------------
#NOTES:
     dance-single:
     :
     Easy:
     7:
     0.410,0.458,0.272,0.261,0.000,206.000,24.000,23.000,0.000,0.000,0.000,0.410,0.458,0.272,0.261,0.000,206.000,24.000,23.000,0.000,0.000,0.000:
0000
0000
0000
0000
,
0000
0000
0000
0000
,
0000
0000
0000
0000
,
0000
0000
0000
0000
,
1001
0101
0000
1100
,
0000
0101
1100
0101
,
0000
1010
0000
0011
,
0000
1010
0011
1010
,
0000
0000
2000
0000
0000
3000
0001
0000
,
0200
0000
0000
0302
0000
0000
0000
0000
,
1003
0001
1000
0001
,
0200
0000
0000
0310
,
1000
0001
0100
0010
,
1000
0100
0010
0001
,
0100
0010
1000
0002
,
1003
0100
0010
0001
,
1000
0100
0010
2000
,
3001
0100
0010
1000
,
0200
0310
1000
0100
,
0002
1003
0200
0310
,
2000
3001
1000
1001
,
1000
0100
0010
0001
,
1000
0100
0010
0002
,
0103
0010
1000
0100
,
0010
0001
1000
0020
,
0130
0001
1000
0100
,
0010
1000
0100
0010
,
2000
0000
0000
3002
0000
0000
0203
0000
,
0000
0310
1000
0100
,
0010
0100
1000
0100
,
0001
0000
1000
0001
,
1000
0100
0010
0000
,
0001
0001
1000
1000
,
0100
0010
0001
0100
,
0020
0000
2030
0000
,
3002
0000
0000
1003
,
0001
1000
0000
0100
,
0010
1000
0100
0010
,
2000
0000
3002
0000
,
0203
0000
0000
0000
,
0010
0000
0001
0000
,
0302
0000
0000
0000
,
1003
0000
1001
0000
,
1001
0100
0010
1000
,
0100
0010
0001
0100
,
1000
1000
0100
0010
,
1000
0001
1000
1000
,
0001
0100
0010
1000
,
0010
0100
0001
0000
,
1000
0100
0010
0001
,
0100
1000
0001
0000
,
0110
1000
0010
0001
,
1000
0010
0100
0001
,
0001
0100
0001
0100
,
0010
0010
1000
1000
,
0001
0100
1000
0100
,
0010
1000
0100
0001
,
1000
0000
0001
0000
,
1000
0010
0001
0000
,
0001
0010
1000
0000
,
1000
0001
0010
0000
,
0001
1000
0100
0000
,
1100
0000
0011
0000
,
1100
1010
0000
0011
,
0000
0011
1010
0011
,
0000
1000
0100
0001
,
2000
0000
0000
0000
,
3001
1001
0000
0000
;

//---------------dance-single - ----------------
#NOTES:
     dance-single:
     :
     Beginner:
     4:
     0.233,0.229,0.034,0.000,0.000,141.000,3.000,0.000,0.000,0.000,0.000,0.233,0.229,0.034,0.000,0.000,141.000,3.000,0.000,0.000,0.000,0.000:
0000
0000
0000
0000
,
0000
0000
0000
0000
,
0000
0000
0000
0000
,
0000
0000
0000
0000
,
0000
0001
0000
1000
,
0000
0001
0001
0001
,
0000
1000
0000
0001
,
0000
1000
1000
1000
,
0000
0010
0000
0100
,
0000
0010
0000
0100
,
0000
1000
0000
0001
,
0000
1000
0000
0001
,
0000
1000
0000
0000
,
1001
0000
0100
0000
,
0010
0000
1000
1000
,
1000
0000
0010
0000
,
0100
0000
0001
0001
,
0001
0000
0100
0000
,
0010
0000
1000
0000
,
0001
0000
0100
0000
,
0010
0000
0010
0010
,
0010
0000
1000
0000
,
0001
0000
0100
0100
,
0100
0000
1000
0000
,
0001
0000
0010
0010
,
0010
0000
1000
0000
,
0001
0000
1000
0000
,
0001
0000
1000
0000
,
0001
0000
0100
0000
,
0110
0000
0100
0000
,
0100
0000
0100
0000
,
0010
0000
0010
0000
,
0010
0000
0010
0000
,
1000
0000
0001
0000
,
1000
0000
0001
0000
,
1000
0000
0000
0000
,
1000
1000
1000
0000
,
0100
0100
0100
0000
,
0010
0010
0010
0000
,
1000
0000
0000
0000
,
0000
0000
0001
0001
,
0001
0000
0000
0000
,
1000
0000
1000
0000
,
0010
0000
0100
0000
,
0001
0000
1000
1000
,
1000
0000
0100
0000
,
0000
0001
0001
0001
,
0001
0000
0001
0000
,
0000
1000
1000
1000
,
0000
0000
0100
0000
,
0010
0010
0010
0010
,
0000
0000
0010
0000
,
0000
1000
1000
1000
,
0000
0001
0000
0100
,
0000
0010
0010
0010
,
0000
1000
0000
0100
,
0000
0010
0010
0010
,
0010
0000
0001
0000
,
1000
0000
1000
0000
,
0001
0000
0100
0000
,
0010
0000
1000
0000
,
0001
0000
0100
0000
,
0010
0000
1000
0000
,
1000
0000
0001
0000
,
1000
1000
1000
1000
,
0000
0001
0000
0100
,
0000
0010
0000
1000
,
0000
1001
0000
0000
;
