#TITLE:夏の約束;
#SUBTITLE:DOG DAYS' ED;
#ARTIST:堀江由衣;
#TITLETRANSLIT:Natsu no Yakusoku;
#SUBTITLETRANSLIT:;
#ARTISTTRANSLIT:Yui Horie;
#GENRE:ANIMATION BEAT#0;
#CREDIT:;
#BANNER:Natsu no Yakusoku.png;
#BACKGROUND:Natsu no Yakusoku-bg.png;
#LYRICSPATH:;
#CDTITLE:cdtitle.png;
#MUSIC:Natsu no Yakusoku.mp3;
#METERTYPE:DDR X;
#MENUCOLOR:0,0,1,1;
#OFFSET:-0.179;
#SAMPLESTART:52.634;
#SAMPLELENGTH:12.000;
#SELECTABLE:YES;
#BPMS:0.000=185.000;
#STOPS:;
#BGCHANGES:;

//---------------dance-single - ----------------
#NOTES:
     dance-single:
     :
     Hard:
     11:
     0.537,0.640,0.551,0.180,0.000: // measure 1
0000
0000
0000
0000
,  // measure 2
0000
0000
0000
0000
,  // measure 3
0000
0000
0000
0000
,  // measure 4
0000
0000
0000
0000
,  // measure 5
1001
0000
0000
0110
0000
0000
0000
0011
,  // measure 6
0000
0110
0000
1100
0000
0000
0000
0110
,  // measure 7
0000
0000
0000
0110
0000
0000
0000
1100
,  // measure 8
0000
0110
0000
0011
0000
0101
0000
0000
,  // measure 9
0110
0000
1000
0100
0001
0100
0001
0100
,  // measure 10
0000
0010
1000
0000
0100
0010
0100
0010
,  // measure 11
0100
0000
1000
0000
0100
0001
0100
0001
,  // measure 12
0100
1000
0100
0010
0001
0100
0010
0200
,  // measure 13
0000
1000
0001
0000
,  // measure 14
0010
0000
0001
0000
0000
0001
0000
0000
,  // measure 15
0320
0000
1000
0000
0000
0100
0000
0100
,  // measure 16
0000
0000
0000
0001
,  // measure 17
0032
0000
0100
0000
,  // measure 18
2003
0000
0010
0001
,  // measure 19
0002
0000
0000
0000
,  // measure 20
3003
0000
0100
0010
,  // measure 21
0100
0000
0010
0000
1000
0010
1000
0010
,  // measure 22
0100
0010
0000
1000
0000
0100
0000
0000
,  // measure 23
0001
0000
0100
0001
0000
1000
0000
0100
,  // measure 24
0000
0000
0000
0000
0000
0000
0010
0100
,  // measure 25
0020
0000
1000
0000
,  // measure 26
0230
0000
0000
0000
1000
0000
0000
0310
,  // measure 27
0002
0000
0000
0000
0000
0000
0000
1003
,  // measure 28
0010
0100
0010
0100
0000
0010
0000
0000
,  // measure 29
1100
0000
0110
0000
0011
0000
0100
0001
,  // measure 30
0100
0000
0010
0100
0000
0010
0000
0000
,  // measure 31
0011
0000
0110
0000
1100
0000
1000
0100
,  // measure 32
0010
0000
0100
0001
0100
0000
0010
0000
,  // measure 33
1100
0000
0110
0000
0011
0000
0100
0001
,  // measure 34
0100
0001
1000
0100
0010
0001
0100
0010
,  // measure 35
0200
1000
0010
0301
,  // measure 36
0020
1000
0100
0031
,  // measure 37
0002
1000
0100
0013
,  // measure 38
2000
0001
0100
3010
,  // measure 39
0110
0000
0100
0000
0010
0000
1000
0020
,  // measure 40
0000
0000
0100
0000
1000
0000
0130
0010
,  // measure 41
0000
1000
0100
0010
0001
0000
0000
0000
,  // measure 42
1001
0000
0110
0000
0011
0000
0100
0010
,  // measure 43
0100
0010
0100
0000
1100
0000
0011
0000
,  // measure 44
0110
0000
1000
0000
0100
0010
0100
0010
,  // measure 45
0100
0011
0110
1100
,  // measure 46
0110
0000
1000
0001
0100
0001
0100
0010
,  // measure 47
0000
1000
0100
0000
0001
0000
0100
0000
,  // measure 48
0101
0000
1000
0010
0100
0010
0100
0110
,  // measure 49
0000
0001
0100
0011
0000
0100
0110
0000
,  // measure 50
1100
0000
0100
0000
0010
0000
0100
0010
,  // measure 51
0100
0000
1000
0000
0100
0000
0010
0100
,  // measure 52
0020
0000
0100
0000
1000
0000
0130
0010
,  // measure 53
0100
0010
0100
0000
1100
0000
0110
0000
,  // measure 54
0011
0000
0100
0000
0001
0100
0001
0000
,  // measure 55
1000
0100
0010
0000
0001
0000
0110
0000
,  // measure 56
0011
0000
0110
0000
1000
0010
0100
0010
,  // measure 57
0100
0000
1000
0000
0100
0010
0100
0010
,  // measure 58
0110
0000
1000
0000
0100
0010
0100
0000
,  // measure 59
1100
0100
0010
0001
,  // measure 60
0002
0000
0000
0000
,  // measure 61
0000
0000
0000
0000
0000
0000
0000
0000
0000
0000
0000
0000
0000
0003
0000
0000
,  // measure 62
1001
0000
0100
0000
0010
0100
0010
0100
,  // measure 63
0010
0000
1000
0000
0100
0010
0100
0010
,  // measure 64
0100
0000
1000
0000
0100
0000
0001
0100
,  // measure 65
0001
0000
1000
0000
0100
0000
0010
0100
,  // measure 66
0110
0000
1000
0100
0001
0000
0100
0001
,  // measure 67
0100
0000
1000
0000
0100
0000
0010
1100
,  // measure 68
0000
0010
0100
0011
0000
0100
0001
0110
,  // measure 69
0000
1000
0010
1100
0000
0100
0010
2002
,  // measure 70
0000
0000
0000
0000
,  // measure 71
0000
0000
0000
0000
,  // measure 72
3003
0000
0000
0000
;

//---------------dance-single - ----------------
#NOTES:
     dance-single:
     :
     Medium:
     9:
     0.407,0.489,0.297,0.339,0.000:
0000
0000
0000
0000
,
0000
0000
0000
0000
,
0000
0000
0000
0000
,
0000
0000
0000
0000
,
1001
0000
0000
1001
0000
0000
0000
1100
,
0000
1100
0000
1100
0000
0000
0000
1001
,
0000
0000
1001
0000
0000
0000
0000
0011
,
0000
0011
0000
0011
0000
0011
0000
0000
,
1001
0100
0010
0100
,
1000
0100
0001
0100
,
1000
0010
0100
0001
,
1000
0000
0010
0000
1000
0001
1000
0001
,
0000
0100
0100
0000
,
0010
0100
0000
0000
,
0001
1000
0100
0010
,
2000
0000
0000
0010
,
3002
0000
0100
0000
,
2003
0000
0100
0000
,
0002
0000
0000
0000
,
0000
0000
3003
0000
,
0100
0010
1000
0100
,
0001
0100
0010
0100
,
1000
0000
0100
0010
0000
0100
0000
0001
,
0000
0000
0000
0000
0100
0000
0001
1000
,
0001
0000
0000
0100
0010
0000
0100
0000
,
1000
0100
0010
0100
,
0001
0000
0000
0000
0000
0000
0000
1000
,
0000
0001
0100
0000
,
1100
0110
0011
0100
,
0001
1000
0100
0010
,
0011
0110
1100
1000
,
0100
0001
0100
1000
,
1100
0110
0011
0001
,
0100
0010
1000
0010
,
2000
0001
0000
0001
,
3020
0100
0000
0100
,
0032
0100
0000
0100
,
2003
0100
0000
0001
,
3002
0000
0000
0000
0000
0003
1000
0002
,
0000
0000
0000
0000
,
2000
0000
3003
0000
,
0021
1000
0001
0100
,
0200
0300
1000
0100
,
0230
1000
0010
0001
,
0002
0003
0010
0010
,
0302
1000
0100
0010
,
0200
0300
1000
0100
,
2003
0000
0000
0000
0100
0000
0001
0001
,
0000
0000
0000
0001
0000
0000
0001
0000
,
3020
0100
0100
0100
,
0002
0003
0000
0100
,
0230
1000
1000
0010
,
0020
0030
0010
0010
,
0302
0000
0000
0000
2000
0003
0000
0000
,
3020
0230
0302
2003
,
0100
0000
0100
0000
,
0010
0000
0001
0001
,
3002
0000
1000
0100
,
1003
0100
0010
0001
,
2000
0000
0000
0000
,
0000
0000
0000
3000
,
1001
0000
0100
0000
0010
0100
0010
0100
,
0010
0000
1000
0000
0100
0010
0100
0010
,
0100
0000
0001
0000
0010
0100
0010
0100
,
0010
0000
1000
0000
0100
0010
0100
0010
,
0100
0000
0001
0000
0010
0100
0010
0100
,
0010
0000
1000
0000
0100
0000
0000
0011
,
0000
0000
0000
0110
0000
0000
0000
1100
,
0000
0000
0000
0110
0000
0000
0000
0022
,
0000
0000
0000
0000
,
0000
0000
0000
0000
,
0033
0000
0000
0000
;

//---------------dance-single - ----------------
#NOTES:
     dance-single:
     :
     Easy:
     6:
     0.309,0.339,0.085,0.360,0.000:
0000
0000
0000
0000
,
0000
0000
0000
0000
,
0000
0000
0000
0000
,
0000
0000
0000
0000
,
1001
0000
0000
1000
0000
0000
0000
0001
,
0000
0001
0000
0001
0000
0000
0000
0110
,
0000
0000
0100
0000
0000
0000
0000
0010
,
0000
0010
0000
0010
0000
0010
0000
0000
,
2000
0000
0100
0000
,
3020
0000
0100
0000
,
0032
0000
0010
0000
,
2003
0000
0001
0000
,
3001
0100
0010
0100
,
1000
0000
0000
0001
0000
0000
0000
0000
,
0100
0010
1000
0001
,
1000
0000
0000
0010
,
0200
0000
0320
0000
,
2030
0000
3002
0000
,
2000
0000
0000
0000
,
0000
0000
0000
0000
0000
3003
0000
0000
,
0000
0100
0010
0100
,
1000
0001
0100
0000
,
0010
1000
0100
0010
,
2000
0000
0000
3001
,
0200
0000
0320
0000
,
0032
0000
2003
0000
,
3002
0000
0000
0000
,
1003
0100
0010
0000
,
0101
0000
1000
0100
,
0010
0001
0100
0000
,
0110
0000
0010
0001
,
0100
0010
1000
0000
,
1100
0000
0001
0100
,
0010
0001
0010
0100
,
2000
0000
0001
0000
,
3020
0000
0100
0000
,
0032
0000
1000
0000
,
0203
0000
1000
0000
,
0320
0000
1000
0000
,
0032
0000
1000
0000
,
2000
0000
3003
0000
,
0110
0000
0100
0010
,
0100
0000
0001
0000
,
1000
0000
0100
0001
,
0100
0000
0010
0000
,
1000
0100
0010
0001
,
0010
0100
1000
0100
,
0001
0000
0001
0100
,
1000
0000
1000
0100
,
0002
0000
1000
0000
,
2000
0000
3003
0000
,
0010
0000
0100
0000
,
2000
0000
3010
0100
,
0020
0000
2030
0000
,
3001
0100
0010
0002
,
0000
0000
0000
0000
,
1003
0000
0010
0100
,
0020
0000
1030
0001
,
1000
0100
0010
0001
,
2000
0000
0000
0000
,
0000
0000
0000
0000
,
3001
0100
0010
1000
,
0100
0010
0001
0100
,
0001
0010
0100
0001
,
0010
0100
1000
0010
,
2000
0000
0001
0000
,
0001
0000
0000
0000
3020
0000
0000
0130
,
0000
0000
0000
0010
0000
0000
0000
1001
,
0000
0000
0000
0100
0000
0000
0000
2002
,
0000
0000
0000
0000
,
0000
0000
0000
0000
,
3003
0000
0000
0000
;

//---------------dance-single - ----------------
#NOTES:
     dance-single:
     :
     Beginner:
     3:
     0.148,0.183,0.127,0.000,0.000:
0000
0000
0000
0000
,
0000
0000
0000
0000
,
0000
0000
0000
0000
,
0000
0000
0000
0000
,
1001
0000
0000
0000
,
0100
0000
0000
0000
,
0110
0000
0000
0000
,
0010
0000
0000
0000
,
1000
0000
0010
0000
,
0001
0000
0000
0000
,
0001
0000
0100
0000
,
1000
0000
0000
0000
,
0001
0000
0000
0000
,
0001
0000
0000
0000
,
1000
0000
0000
0000
,
1000
0000
0000
0000
,
0010
0000
0000
0000
,
0010
0000
0000
0000
,
0100
0000
0000
0000
,
0100
0000
0000
0000
,
0001
0000
0000
0000
,
1000
0000
0000
0000
,
0100
0000
0000
0000
,
0010
0000
0000
0000
,
0001
0000
0000
0000
,
1000
0000
0000
0000
,
0001
0000
0000
0000
,
0001
0001
0001
0000
,
0100
0100
0100
0000
,
0000
0000
0000
0000
,
0010
0010
0010
0000
,
0000
0000
0000
0000
,
1000
1000
1000
0000
,
0000
0000
0000
0000
,
1001
0000
0000
0000
,
0010
0000
0000
0000
,
0010
0000
0000
0000
,
1000
0000
0001
0000
,
1000
0000
0000
0000
,
0001
0000
0001
0000
,
0001
0000
0000
0000
,
0110
0000
0100
0000
,
0100
0000
0000
0000
,
1001
0000
0001
0000
,
0001
0000
0000
0000
,
1001
0000
1000
0000
,
1000
0000
0000
0000
,
0110
0000
0100
0000
,
0100
0000
0000
0000
,
1001
0000
0100
0000
,
0010
0000
1000
0000
,
0010
0000
0001
0000
,
1000
0000
0000
0000
,
0001
0000
1000
0000
,
0010
0000
0001
0000
,
1000
0000
0000
0000
,
0001
0000
0100
0000
,
0010
0000
1000
0000
,
0100
0000
0010
0000
,
0001
0000
0000
0000
,
0000
0000
0000
0000
,
1001
0000
0000
0000
,
0100
0000
0000
0000
,
0100
0000
0000
0000
,
0010
0000
0000
0000
,
0010
0000
0000
0000
,
0001
0000
0000
0000
,
1001
0000
0000
0000
,
1001
0000
0000
0000
,
1001
0000
0000
0000
;

//---------------dance-single - ----------------
#NOTES:
     dance-single:
     :
     Challenge:
     13:
     0.625,0.828,0.488,0.445,0.048: // measure 1
0000
0000
0000
0000
,  // measure 2
0000
0000
0000
0000
,  // measure 3
0000
0000
0000
0000
,  // measure 4
0000
0000
0000
0000
,  // measure 5
1001
0000
0000
0110
0000
0001
0010
0011
,  // measure 6
0000
0110
0000
1100
0000
0000
0000
0110
,  // measure 7
0000
0000
0000
0101
0000
0010
0100
0110
,  // measure 8
0000
1100
0000
0110
0000
0012
0000
0000
,  // measure 9
1003
0000
0010
0100
0000
0010
0100
0010
,  // measure 10
0100
1000
0100
0000
0010
0100
0001
0100
,  // measure 11
0000
1000
0100
0010
0000
0100
1000
0100
,  // measure 12
1000
0100
1000
0100
1010
0000
0001
0000
0100
0000
0100
0010
0001
0010
0200
0000
,  // measure 13
0000
0000
0310
0000
1000
0010
0100
0010
,  // measure 14
1000
0100
0000
0002
0000
2003
0000
0000
,  // measure 15
3010
0000
0100
0010
0000
0100
0000
0002
,  // measure 16
0000
0000
0000
0000
0000
0003
1000
0010
,  // measure 17
2000
0001
3020
1000
,  // measure 18
0230
0000
0001
0300
0002
0000
1000
1003
,  // measure 19
0020
0000
0100
0000
,  // measure 20
0001
0001
1000
0100
,  // measure 21
2030
0000
0100
3000
0001
0100
0001
0100
,  // measure 22
0010
2000
0000
3200
0000
0320
0000
0000
,  // measure 23
0130
0000
0001
1000
0000
0010
0000
0200
,  // measure 24
0000
0000
0000
0000
0000
0000
0301
1000
,  // measure 25
0002
0010
0203
1000
,  // measure 26
0320
0000
0001
0000
2030
0000
0001
3001
,  // measure 27
0200
0000
0010
0000
0010
0000
0000
0310
,  // measure 28
1000
0010
0100
0020
0000
0230
0000
0000
,  // measure 29
0310
0000
1000
0000
0110
0000
0001
0100
,  // measure 30
0001
0000
0100
1000
0100
0010
0000
0000
,  // measure 31
0101
0000
1010
0000
0011
1000
0100
0010
,  // measure 32
0100
0010
1000
0100
0010
0000
0100
0000
,  // measure 33
0011
0000
1100
0000
0011
0000
0100
1000
,  // measure 34
0010
0100
0010
0100
0010
0000
1000
0000
0100
0001
0100
0001
0100
0000
0001
0000
,  // measure 35
0101
0000
1010
0000
0100
0010
0100
0010
,  // measure 36
0000
1000
0100
0000
0010
0001
0100
0000
,  // measure 37
0110
0000
1000
0000
0100
0000
0001
0101
,  // measure 38
0000
1000
0001
0100
1000
0100
0010
0011
,  // measure 39
0000
0100
0010
0000
0100
0001
0100
0101
,  // measure 40
0000
1000
0010
0100
0010
1000
0100
0110
,  // measure 41
0000
1000
0100
1001
0100
0000
0010
0000
,  // measure 42
1002
0000
0100
0000
0010
0000
1000
1000
,  // measure 43
1000
1000
0100
0010
,  // measure 44
2003
0000
0100
0000
0010
0000
0001
0001
,  // measure 45
0001
0001
0010
0010
,  // measure 46
3002
0000
0103
0000
0020
0000
1030
0100
,  // measure 47
0000
0010
0001
0000
0100
0000
0010
0000
,  // measure 48
0011
0000
1000
0100
0010
0001
0100
0101
,  // measure 49
0000
0000
1000
0000
0010
0000
0110
0000
0000
0000
1000
0000
0100
0000
0010
0001
,  // measure 50
2000
0100
0100
0010
,  // measure 51
3002
0100
0100
0010
,  // measure 52
2003
0100
0010
0001
,  // measure 53
3020
0100
0001
0001
,  // measure 54
0230
0010
0001
0001
,  // measure 55
0320
1000
0100
0001
,  // measure 56
0230
0001
0010
0001
,  // measure 57
0302
1000
0100
0010
,  // measure 58
2003
0010
0010
0010
,  // measure 59
3002
0203
0320
0130
,  // measure 60
2002
0000
0000
0000
,  // measure 61
0000
0000
0000
3003
,  // measure 62
0110
0000
1001
0000
0100
0010
0100
0001
,  // measure 63
0011
0000
0100
0010
0100
0010
1000
0100
,  // measure 64
1100
0000
0100
0010
0100
0010
0100
0010
,  // measure 65
1100
0000
0110
0000
0011
0000
0100
0010
,  // measure 66
0101
0000
0010
0100
0001
0100
0010
0100
,  // measure 67
0101
0000
1000
0100
0010
0100
0100
1100
,  // measure 68
0000
0100
0010
0110
0000
0010
0001
0011
,  // measure 69
0000
0100
0001
0101
0000
1000
0010
2002
,  // measure 70
0000
0000
0000
0000
,  // measure 71
0000
0000
0000
0000
,  // measure 72
3003
0000
0000
0000
;
