#TITLE:ココロノカラ;
#SUBTITLE:ココロコネクト ED;
#ARTIST:Team.ねこかん[猫] featuring.天乙准花;
#TITLETRANSLIT:Kokoro no Kara;
#SUBTITLETRANSLIT:Kokoro Connect ED;
#ARTISTTRANSLIT:Team.Nekokan[Neko] featuring.Junca Amaoto;
#CREDIT:;
#GENRE:ANIMATION BEAT#0;
#BANNER:Kokoro no Kara.png;
#BACKGROUND:Kokoro no Kara-bg.png;
#LYRICSPATH:;
#CDTITLE:cdtitle.png;
#MUSIC:Kokoro no Kara.mp3;
#MENUCOLOR:0,0,1,1;
#METERTYPE:DDR X;
#OFFSET:-0.049;
#SAMPLESTART:54.500;
#SAMPLELENGTH:12.000;
#SELECTABLE:YES;
#BPMS:0.000=174.000;
#STOPS:;
#BGCHANGES:;

//---------------dance-single - ----------------
#NOTES:
     dance-single:
     :
     Hard:
     12:
     0.473,0.611,0.225,0.124,0.006:
0000
0000
0000
0000
,
0000
0000
0000
0000
,
0000
0000
0000
0000
,
0000
0000
0000
0000
,
0000
0000
0000
0000
,
0000
0000
0000
0000
,
0000
0000
0000
0000
,
0000
0000
0000
0000
,
1001
0000
0100
0000
0010
0000
1000
0010
,
0000
0010
1000
0000
0001
0100
0001
0000
,
1000
0000
0100
0000
0010
0000
0001
0100
,
0000
0100
0001
0000
1000
0010
1000
0000
,
0101
0000
1000
0000
0100
0000
0010
0100
,
0000
0110
0010
0000
0100
0010
0100
0000
,
1001
0000
0000
0100
0000
0000
0020
0000
,
0000
0000
0000
0000
1030
0001
1000
0000
,
0110
0000
1000
0001
0100
0010
0000
2000
,
0000
3001
0100
0010
,
1000
0000
0001
0100
0000
0010
2000
0000
,
0000
0000
3001
1000
0000
0100
0001
0000
,
0001
0000
0100
0010
1000
0001
0000
0200
,
0000
0000
0310
0000
0001
0010
0001
0000
,
0010
0000
1000
0001
0000
0100
0020
0000
,
0000
0000
0130
0000
0010
1000
0010
0000
,
0101
0000
1000
0000
0010
0100
0000
0020
,
0000
0000
0000
0000
,
1030
0000
0100
0000
0010
0100
0020
0000
,
0000
0000
1030
0000
0001
0100
0001
0000
,
0000
1000
0110
0000
,
0001
0000
0110
0000
0000
0010
1000
0001
,
0100
0000
0010
0100
0000
0010
2000
0000
,
0000
0000
3001
0100
,
0101
1000
0100
0010
,
0001
0001
1000
1000
,
0010
0000
0000
0100
0000
0000
0001
0000
,
1000
0010
0100
0001
,
1000
0100
0010
0010
,
0001
0000
0001
0000
0100
0010
1000
0001
,
1001
0000
0100
0101
0000
0100
1010
0000
,
1000
0100
0010
0000
1000
0100
0001
0100
,
1001
0000
0100
0000
0110
0000
1000
0100
,
0010
0100
0010
0000
0100
1000
0010
0100
,
0010
1000
0100
0010
0000
0000
0100
0001
,
0000
0100
0001
0000
1000
0100
0010
0001
,
0101
0000
1000
0000
0010
0000
0001
0010
,
0000
0100
1000
0000
1000
0100
0010
0001
,
0100
0000
0010
0100
0000
0001
1000
0010
,
0000
0100
0010
0000
1000
0100
0010
0001
,
1100
0000
0100
0000
0020
0000
1030
0010
,
0000
0010
0100
0000
1000
0000
0010
0001
,
0100
0000
0010
0100
0000
0000
0001
0020
,
0000
0000
0000
0000
0130
0000
0000
0000
0010
0000
0000
1000
0000
0000
0100
0000
,
0010
0000
1000
0100
0010
0000
0001
0100
,
0010
0000
0100
0010
0000
1000
0100
0001
,
0100
0000
0010
0100
1000
0001
0100
0011
,
0000
0000
1000
0000
1000
0010
0001
0010
,
1100
0000
0001
0000
0100
0000
0001
0100
,
0000
0100
1000
0000
0100
0010
0100
0000
,
1000
0100
0010
0000
0100
0000
0001
0100
,
0000
0100
0001
0000
1000
0100
0010
0100
,
0001
0000
0100
0000
0010
0000
0001
0010
,
0000
1010
0001
0000
1000
0001
1000
0001
,
1001
0000
0000
0100
0000
0000
0020
0000
,
0000
0000
0000
0000
,
0030
0000
0000
0000
;

//---------------dance-single - ----------------
#NOTES:
     dance-single:
     :
     Medium:
     8:
     0.339,0.395,0.124,0.112,0.000:
0000
0000
0000
0000
,
0000
0000
0000
0000
,
0000
0000
0000
0000
,
0000
0000
0000
0000
,
0000
0000
0000
0000
,
0000
0000
0000
0000
,
0000
0000
0000
0000
,
0000
0000
0000
0000
,
1001
0000
1000
0000
1000
0000
0000
0001
,
0000
0001
0001
0000
,
0001
0000
0001
0000
0001
0000
0000
1000
,
0000
1000
1000
0000
,
0110
0000
0010
0000
0010
0000
0000
0100
,
0000
0110
0000
0000
0010
0000
0100
0000
,
1001
0000
0000
0100
0000
0000
0020
0000
,
0000
0000
0000
0000
,
1030
0000
0100
0000
0001
0000
0000
1000
,
0000
0010
0100
0010
,
1000
0100
0010
0002
,
0000
0000
0000
0000
,
1003
0100
0010
1000
,
0001
0100
0010
1000
,
0100
0010
1000
0002
,
0000
0000
1000
0000
,
1003
0100
0010
0100
,
0020
0000
0000
0000
,
1030
0100
0010
2000
,
0000
3001
0100
0001
,
0000
1000
0001
0000
,
0001
1000
0000
0100
,
0010
1000
0100
0020
,
0000
0000
1030
0001
,
0100
0010
1000
0100
,
0010
0001
0001
0100
,
0010
0000
0000
1000
0000
0000
0010
0000
,
0000
0100
0001
1000
,
0010
0010
1000
0100
,
0010
0001
0100
0010
,
1001
0000
0000
0100
0000
0000
0002
0000
,
0000
0000
0000
0000
1003
0001
1000
0000
,
0101
0100
0010
1000
,
0100
0000
0010
0000
1000
0000
1000
0001
,
1000
0100
0010
1000
,
0100
0000
0010
0000
1000
0100
0001
0000
,
1001
0100
0010
0001
,
0100
0000
1000
0000
0100
0000
0010
1000
,
0010
0100
0010
0001
,
0100
0000
0010
0000
0001
0100
1000
0000
,
1001
1000
0010
0100
,
0010
0000
0100
0000
0001
0000
1000
0001
,
1000
0000
0100
0020
0000
0000
0000
0000
,
1030
0001
0200
0000
,
0310
1000
0100
0010
,
0001
1000
0001
0100
,
0010
1000
0100
0001
,
0100
1000
0100
0010
,
1001
0100
0010
0001
,
0100
0010
1000
0100
,
0010
1000
0100
0010
,
1000
1000
0001
0001
,
1000
0100
0010
0001
,
0000
1010
0000
0000
0100
0000
0010
0000
,
1001
0000
0000
1000
0000
0000
0020
0000
,
0000
0000
0000
0000
,
0030
0000
0000
0000
;

//---------------dance-single - ----------------
#NOTES:
     dance-single:
     :
     Easy:
     6:
     0.276,0.359,0.056,0.202,0.000:
0000
0000
0000
0000
,
0000
0000
0000
0000
,
0000
0000
0000
0000
,
0000
0000
0000
0000
,
0000
0000
0000
0000
,
0000
0000
0000
0000
,
0000
0000
0000
0000
,
0000
0000
0000
0000
,
1001
0000
0001
0000
,
2000
0000
0000
0000
,
3000
0000
0010
0000
,
0002
0000
0000
0000
,
0013
0000
0100
0000
,
0002
0000
0000
0000
,
1003
0000
0000
0001
0000
0000
2000
0000
,
0000
0000
0000
0000
,
3001
0000
0100
0000
,
0010
0000
1000
0001
,
1000
0000
0010
0000
,
0200
0000
0000
0000
,
0301
0000
1000
0001
,
0100
0000
0010
1000
,
0001
0000
0000
0000
0000
0001
1000
0000
,
0001
0000
0100
0010
,
1000
0100
0010
0002
,
0000
0000
0000
0000
,
1003
0100
0010
2000
,
0000
0000
3001
0000
,
0100
0010
1000
0000
,
0010
0100
0001
1000
,
0001
0100
0010
2000
,
0000
0000
3001
0100
,
0001
1000
0100
0010
,
0001
0001
0100
0100
,
0010
0010
1000
1000
,
0000
0001
1000
0000
,
0001
1000
0001
0000
,
1000
0001
1000
0000
,
1000
0000
0000
0001
0000
0000
0100
0000
,
0000
0000
0020
0000
,
1030
0100
0010
0001
,
2000
0000
3001
0100
,
0010
1000
0100
0010
,
0002
0000
0103
0010
,
1001
0100
0010
0001
,
2000
0000
3010
0100
,
0001
1000
0100
0010
,
2000
0000
3001
0100
,
0110
0001
1000
0010
,
0002
0000
0103
0010
,
2000
0000
3002
0000
,
0203
0000
0310
1000
,
0001
0100
0010
0000
,
0100
0001
0100
0000
,
1000
0100
0010
0001
,
1000
0001
1000
0000
,
1001
0000
0100
0000
,
0010
0100
0010
0000
,
1001
0000
0010
0000
,
0100
0010
0100
0000
,
1000
0000
0100
0000
,
0010
0001
0010
0100
,
1000
0000
0001
2000
,
0000
0000
0000
0000
,
3000
0000
0000
0000
;

//---------------dance-single - ----------------
#NOTES:
     dance-single:
     :
     Beginner:
     2:
     0.116,0.176,0.056,0.000,0.000: // measure 1
0000
0000
0000
0000
,  // measure 2
0000
0000
0000
0000
,  // measure 3
0000
0000
0000
0000
,  // measure 4
0000
0000
0000
0000
,  // measure 5
0000
0000
0000
0000
,  // measure 6
0000
0000
0000
0000
,  // measure 7
0000
0000
0000
0000
,  // measure 8
0000
0000
0000
0000
,  // measure 9
1001
0000
0000
0000
,  // measure 10
0010
0000
0010
0000
,  // measure 11
0010
0000
0000
0000
,  // measure 12
0100
0000
0100
0000
,  // measure 13
1001
0000
0000
0000
,  // measure 14
1000
0000
0001
0000
,  // measure 15
1000
0000
0000
0000
,  // measure 16
0000
0000
0000
0000
,  // measure 17
0001
0000
0000
0000
,  // measure 18
1000
0000
0000
0000
,  // measure 19
0100
0000
0000
0000
,  // measure 20
0010
0000
0000
0000
,  // measure 21
0001
0000
0000
0000
,  // measure 22
0100
0000
0000
0000
,  // measure 23
1000
0000
0000
0000
,  // measure 24
0001
0000
0000
0000
,  // measure 25
1000
0000
0000
0000
,  // measure 26
0010
0000
0000
0000
,  // measure 27
1000
0000
0000
0000
,  // measure 28
0001
0000
0000
0000
,  // measure 29
1000
0000
0000
0000
,  // measure 30
0100
0000
0000
0000
,  // measure 31
0001
0000
0000
0000
,  // measure 32
0100
0000
0000
0000
,  // measure 33
0010
0000
0000
0000
,  // measure 34
0001
0000
0000
0000
,  // measure 35
1000
0000
0000
0000
,  // measure 36
0100
0000
0000
0000
,  // measure 37
0010
0000
0000
0000
,  // measure 38
0001
0000
0000
0000
,  // measure 39
1001
0000
0000
0000
,  // measure 40
0000
0000
0000
0000
,  // measure 41
1001
0000
0000
0000
,  // measure 42
0100
0000
0100
0000
,  // measure 43
0100
0000
0000
0000
,  // measure 44
0001
0000
0001
0000
,  // measure 45
0001
0000
0000
0000
,  // measure 46
0010
0000
0010
0000
,  // measure 47
0010
0000
0000
0000
,  // measure 48
1000
0000
1000
0000
,  // measure 49
1000
0000
0000
0000
,  // measure 50
0100
0000
0010
0000
,  // measure 51
0100
0000
0000
0000
,  // measure 52
0001
0000
1000
0000
,  // measure 53
0001
0000
0000
0000
,  // measure 54
0100
0000
0010
0000
,  // measure 55
0100
0000
0000
0000
,  // measure 56
1000
0000
0010
0000
,  // measure 57
0100
0000
0000
0000
,  // measure 58
1000
0000
0001
0000
,  // measure 59
1000
0000
0000
0000
,  // measure 60
0010
0000
0100
0000
,  // measure 61
0010
0000
0000
0000
,  // measure 62
1000
0000
0000
0000
,  // measure 63
1001
0000
0000
0001
;
