#TITLE:風のなかのプリムローズ;
#SUBTITLE:恋と選挙とチョコレート ED;
#ARTIST:Ceui;
#TITLETRANSLIT:Kaze no Naka no Primrose;
#SUBTITLETRANSLIT:Koi to Senkyo to Chocolate ED;
#ARTISTTRANSLIT:;
#GENRE:ANIMATION BEAT#0;
#CREDIT:;
#BANNER:Kaze no Naka no Primrose.png;
#BACKGROUND:Kaze no Naka no Primrose-bg.png;
#LYRICSPATH:;
#CDTITLE:cdtitle.png;
#MUSIC:Kaze no Naka no Primrose.mp3;
#MENUCOLOR:0,0,1,1;
#METERTYPE:DDR X;
#OFFSET:-0.270;
#SAMPLESTART:46.654;
#SAMPLELENGTH:12.000;
#SELECTABLE:YES;
#BPMS:0.000=113.000;
#STOPS:;
#BGCHANGES:;

//---------------dance-single - ----------------
#NOTES:
     dance-single:
     :
     Hard:
     8:
     0.366,0.374,0.000,0.179,0.000:
0000
0000
0000
0000
,
0000
0000
0000
0000
,
0000
0000
0000
0000
,
0000
0000
0000
0000
,
1000
0001
0100
0010
1000
0000
0100
0010
,
1000
0000
0010
0001
0000
0001
0000
0000
,
0000
1000
0100
0010
0000
0100
0100
0010
,
1000
0100
0001
0200
0000
0310
0000
0000
,
0000
1000
0100
0010
0100
0001
0010
0100
,
0100
0001
0100
0001
0100
0000
0000
1000
,
0100
0010
0100
0001
1000
0000
0001
0000
,
0100
0000
0100
0010
0000
0000
0000
0000
,
1000
0001
0100
0010
1000
0100
0010
0100
,
0000
0001
0100
0001
0000
0000
0000
0000
,
1000
0010
0100
0010
1000
0100
0000
0010
,
0100
1000
0100
0001
0000
0000
0000
0000
,
0100
0001
1000
0100
0010
0100
0001
2000
,
0000
3001
0100
0001
0000
0100
0010
0100
,
0020
0000
0000
1030
0000
0100
0010
0000
,
0002
0000
0103
2000
0000
3010
0100
0000
,
0002
0000
1000
1003
,
1000
1000
0010
0010
0100
0100
0001
0001
,
1000
0001
0100
0001
0000
1000
0010
0100
,
0010
1000
0100
0001
0000
0000
0000
0001
,
0010
0100
1000
0100
0000
0010
1000
0100
,
0001
0100
1000
0010
0000
0000
0000
1000
,
0100
0001
0100
0020
0000
1030
0000
0100
,
0010
1000
0100
0001
0000
1000
0010
0100
,
0002
0000
0000
1003
0000
0100
0010
0100
,
0010
1000
0100
0020
0000
1000
1030
0000
,
1000
0100
0010
0001
0000
0001
0010
0100
,
0010
1000
0001
0100
0000
0000
0000
1000
,
0100
0010
0100
1000
0100
0001
0100
0010
,
1000
0000
0100
0100
0000
1000
0100
0010
,
2000
0000
0000
3001
0100
0000
0000
0010
,
0200
0000
0000
0301
1000
0010
0000
0100
,
0002
0000
0000
0103
0020
0000
0000
1030
,
0200
0000
0000
0310
2000
0000
0010
0000
,
3001
0100
0001
0100
0000
0010
1000
0010
,
0100
0010
1000
0100
0000
0001
0100
1000
,
0100
0010
1000
0010
0000
1000
0100
0001
,
0200
0000
0000
0300
;

//---------------dance-single - ----------------
#NOTES:
     dance-single:
     :
     Challenge:
     12:
     0.454,0.444,0.022,0.269,0.235:
0000
0000
0000
0000
,
0000
0000
0000
0000
,
0000
0000
0000
0000
,
0000
0000
0000
0000
,
1000
0000
0010
0000
0100
0000
0001
1000
0000
0000
0100
0000
0010
0000
0100
0001
,
0000
0000
1000
0000
0100
0000
0010
1000
0000
0000
0001
0000
0000
0000
0000
0000
,
0000
0000
0100
0000
0010
0000
1000
0100
0000
0000
0010
0000
0001
0000
0200
0000
,
0000
0310
1000
0002
0000
0103
0000
0000
,
0000
0000
0100
0000
1000
0000
0010
1000
0000
0000
0001
0000
0100
0000
0010
0001
,
0000
0000
1000
0000
0010
0000
0100
0010
0001
0000
0000
0000
0000
0000
0001
0000
,
0010
0000
0000
0100
0000
0000
1000
0000
0100
0000
0000
0010
0000
0000
1000
0000
,
0001
0100
0010
0100
0010
0000
0000
0000
,
1000
0000
0001
0000
0100
0000
0001
1000
0000
0000
0100
0000
0001
0000
0100
0000
,
1000
0000
0010
0000
0100
0000
0010
1000
0000
0000
0000
0000
0000
0000
0001
0000
,
0100
1000
0100
0002
0000
1003
0000
0100
,
0020
0000
1030
0102
0000
0000
0000
0000
,
1003
0000
0010
0000
0100
0000
0001
1000
0000
1000
0010
0000
0100
0000
0002
0000
,
0000
0103
0001
0100
0000
0010
1000
0010
,
2000
0000
0000
3001
0000
0100
0010
1000
,
0002
0000
0013
0200
0000
0310
2000
0000
,
3200
0000
0000
0010
0000
0000
0010
0000
0310
0000
0001
0000
0010
0000
0000
0000
,
1000
0000
1000
0000
0100
0000
0100
0000
0010
0001
0010
0000
0001
1000
0001
1000
,
0001
0000
0100
0000
0010
1000
0200
0000
0000
0000
0310
0000
0001
0000
0010
0000
,
0100
0000
1000
0001
0000
0001
0100
0000
0000
0000
0000
0000
0000
0000
0001
1000
,
0010
0000
0100
0000
0010
1000
0001
0000
1000
0000
0010
0000
0100
0000
0001
0000
,
1000
0000
0100
0001
0000
0001
0200
0000
0000
0000
0000
0000
0000
0000
0310
0001
,
1000
0000
0100
0000
0010
1000
0002
0000
0000
0000
1003
0000
0000
0000
0100
0000
,
0001
0000
1000
0000
0100
0001
0010
0000
0000
0000
1000
0000
0100
0000
0001
0000
,
0200
0000
0000
1300
0000
0100
0010
1000
,
0100
0000
0100
0000
0001
0000
0001
0000
1000
0001
1000
0000
1000
0001
1000
0001
,
1000
0000
0100
0000
0010
0000
0200
0000
0000
0000
0301
0000
0100
0000
0001
0100
,
1000
0000
0100
0010
0000
1000
0002
0000
0000
0000
0000
0000
0000
0000
1003
0010
,
0100
0010
0100
2000
0000
3001
0100
0001
,
1000
0000
0001
1001
0000
1000
0100
0010
,
0200
0000
0000
0000
0000
0000
1300
0010
2000
0000
0000
0000
3100
0000
0010
0000
,
0200
0000
0000
0001
0000
0000
1300
0000
0200
0000
0000
0010
0000
0000
0310
0000
,
0001
0000
0000
0000
0100
0000
0001
0010
0100
0000
0000
0000
0010
0000
1000
0100
,
0010
0000
0000
0000
0100
0000
0001
1000
0200
0000
0000
0010
0000
0000
1300
0010
,
0100
0010
0001
0100
0001
0010
0100
1000
,
0010
0010
0100
0100
0001
0001
1000
1000
,
0100
0010
0001
1000
1000
0001
0100
0010
,
2000
0000
0000
3000
;

//---------------dance-single - ----------------
#NOTES:
     dance-single:
     :
     Medium:
     6:
     0.246,0.327,0.000,0.123,0.000:
0000
0000
0000
0000
,
0000
0000
0000
0000
,
0000
0000
0000
0000
,
0000
0000
0000
0000
,
1000
0010
0100
0001
,
1000
0000
0001
0000
1000
0001
0000
0000
,
0000
0100
0010
1000
,
0100
0000
0001
1000
0000
0001
0000
0000
,
0000
0100
0010
0100
,
0001
0000
1000
0001
1000
0000
0000
0000
,
0100
0010
1000
0100
,
0001
0000
0100
0001
0100
0000
0000
0000
,
1000
0100
0010
0001
,
1000
0001
1000
0000
,
0100
0010
1000
0100
,
0001
0100
0010
0000
,
1000
0100
0001
0100
,
1000
0010
0100
0001
,
2000
0000
3001
0100
,
0010
0100
0010
1000
,
0002
0000
0000
0000
,
2000
0000
0000
0000
,
3003
0000
0100
0010
0000
1000
0100
0001
,
0100
0000
0010
1000
0000
0000
0000
0000
,
0100
0010
0000
0100
0000
0000
1000
0100
,
0010
0000
0100
0001
0000
0000
0000
0000
,
0001
1000
0001
1000
0000
0001
0000
0000
,
0100
0010
0100
0010
0000
0000
1000
0000
,
0002
0000
0000
1003
0000
0000
0100
0010
,
0100
0010
0100
0010
0000
0000
0000
0000
,
1000
0001
1000
0020
0000
0130
0001
0100
,
0010
0000
1000
0001
0000
0000
0000
0000
,
0100
0010
0100
0010
0000
0001
0100
0001
,
0100
0000
1000
1000
0000
0100
0010
0100
,
0020
0000
2030
0000
,
3002
0000
0203
0000
,
0310
0000
0000
1000
0001
0000
0000
0001
,
1000
0000
0200
0000
,
0310
0000
0100
0010
0000
0010
0100
0000
,
1000
0000
0001
1000
0000
1000
0001
0000
,
0100
0010
1000
0001
,
0002
0000
0000
0003
;

//---------------dance-single - ----------------
#NOTES:
     dance-single:
     :
     Easy:
     5:
     0.200,0.234,0.000,0.112,0.000:
0000
0000
0000
0000
,
0000
0000
0000
0000
,
0000
0000
0000
0000
,
0000
0000
0000
0000
,
1000
0001
0100
0010
,
1000
0100
0001
1000
,
0000
0001
0100
0010
,
1000
0100
0010
0001
,
0000
1000
0100
0001
,
0100
0010
1000
0000
,
0100
0010
1000
0001
,
0100
0000
0010
0000
,
1000
0100
0010
0100
,
0010
0001
0010
0001
,
1000
0100
0010
1000
,
0100
0010
0001
0000
,
1000
0100
0010
0100
,
0001
1000
0001
0010
,
0100
0010
0100
1000
,
1000
0001
1000
0001
,
2000
0000
0000
0000
,
0002
0000
0000
0000
,
3003
0100
0010
1000
,
0100
0001
0100
0000
,
0010
0001
0100
0010
,
1000
0100
0001
0000
,
0100
0010
2000
3001
,
0100
0010
1000
0001
,
0200
0000
0310
0100
,
0001
1000
0001
0000
,
0100
0010
2000
3001
,
0100
0010
1000
0000
,
0100
0010
0001
0100
,
0010
1000
0001
0100
,
0020
0000
0032
0000
,
0003
0100
0001
1000
,
0010
0000
0100
0000
,
0001
0000
1000
0001
,
2000
0000
0000
0000
,
0000
0000
0000
0000
,
3002
0000
0000
0000
,
2003
0000
0000
3000
;

//---------------dance-single - ----------------
#NOTES:
     dance-single:
     :
     Beginner:
     1:
     0.062,0.092,0.000,0.000,0.000: // measure 1
0000
0000
0000
0000
,  // measure 2
0000
0000
0000
0000
,  // measure 3
0000
0000
0000
0000
,  // measure 4
0000
0000
0000
0000
,  // measure 5
1000
0000
0000
0000
,  // measure 6
0010
0000
0000
0000
,  // measure 7
0100
0000
0000
0000
,  // measure 8
0001
0000
0000
0000
,  // measure 9
0010
0000
0000
0000
,  // measure 10
1000
0000
0000
0000
,  // measure 11
0001
0000
0000
0000
,  // measure 12
0100
0000
0000
0000
,  // measure 13
0010
0000
0000
0000
,  // measure 14
1000
0000
0000
0000
,  // measure 15
0001
0000
0000
0000
,  // measure 16
0100
0000
0000
0000
,  // measure 17
0010
0000
0000
0000
,  // measure 18
0001
0000
0000
0000
,  // measure 19
1000
0000
0000
0000
,  // measure 20
0010
0000
0000
0000
,  // measure 21
0001
0000
0000
0000
,  // measure 22
0100
0000
0000
0000
,  // measure 23
1000
0000
0000
0000
,  // measure 24
0010
0000
0000
0000
,  // measure 25
0010
0000
0000
0000
,  // measure 26
1000
0000
0000
0000
,  // measure 27
0001
0000
0000
0000
,  // measure 28
0010
0000
0000
0000
,  // measure 29
0100
0000
0000
0000
,  // measure 30
0010
0000
0000
0000
,  // measure 31
0001
0000
0000
0000
,  // measure 32
1000
0000
0000
0000
,  // measure 33
0010
0000
0000
0000
,  // measure 34
0010
0000
0000
0000
,  // measure 35
0001
0000
0001
0000
,  // measure 36
0001
0000
0000
0000
,  // measure 37
1000
0000
0000
0000
,  // measure 38
0100
0000
0000
0000
,  // measure 39
0010
0000
0000
0000
,  // measure 40
0001
0000
0000
0000
,  // measure 41
1000
0000
0000
0000
,  // measure 42
0100
0000
0000
0000
;
