#TITLE:ヒカリ;
#SUBTITLE:織田信奈の野望 ED;
#ARTIST:みずたまきの;
#TITLETRANSLIT:Hikari;
#SUBTITLETRANSLIT:Oda Nobuna no Yabou ED;
#ARTISTTRANSLIT:Makino Mizuta;
#CREDIT:;
#GENRE:ANIMATION BEAT#0;
#BANNER:Hikari.png;
#BACKGROUND:Hikari-bg.png;
#LYRICSPATH:;
#CDTITLE:cdtitle.png;
#MUSIC:Hikari.mp3;
#MENUCOLOR:0,0,1,1;
#METERTYPE:DDR X;
#OFFSET:0.000;
#SAMPLESTART:53.000;
#SAMPLELENGTH:12.000;
#SELECTABLE:YES;
#BPMS:0.000=90.000;
#STOPS:;
#BGCHANGES:;

//---------------dance-single - ----------------
#NOTES:
     dance-single:
     :
     Hard:
     8:
     0.296,0.314,0.146,0.056,0.062:
0000
0000
0000
0000
,
0000
0000
0000
0000
,
0000
0000
0000
0000
,
0000
0000
0000
0000
,
1000
0000
0010
0100
0000
0000
0000
1000
,
0001
0000
1000
0100
0000
0001
0010
0000
1000
0000
0000
0000
0000
0000
0100
0000
,
0020
0000
0000
1000
1030
0000
0000
1000
,
0001
0000
1000
0100
0000
0001
0010
0000
0100
0000
0000
0000
0000
0000
0000
0000
,
0001
0000
1000
0001
0000
0000
0000
0100
,
0010
0000
0001
0100
0000
0010
0000
0000
1000
0000
0100
0000
0000
0000
0100
0000
,
2000
0000
0000
0000
0000
0000
0001
0000
3001
0000
0000
0100
0000
0000
0010
0000
,
0001
0000
0001
1000
0000
1000
0010
0000
1000
0000
0000
0000
0000
0000
0100
0000
,
0010
1000
0100
0001
1000
0010
0100
0001
,
1000
0100
0000
0000
1001
0000
0000
1000
,
0010
0100
0001
0100
0010
0001
0010
0100
,
0001
0000
0100
0000
0000
0000
0000
0000
0100
0000
0010
0001
0000
1000
0100
0000
,
0100
0010
0001
0000
0010
0100
1000
0100
,
0010
0001
0000
0000
0100
0001
1000
0020
,
0000
0000
0000
0130
0000
0000
0000
0100
,
0010
1000
0000
0100
0001
0000
1000
0001
,
1001
0100
0010
0001
0000
0000
0001
0100
,
1000
0000
1000
0100
0001
0000
1000
0100
,
0010
0001
0000
1001
0000
0110
0000
1000
,
0100
0100
0010
0100
0000
0000
0001
0100
,
1010
0100
0010
0001
0000
0000
1000
0100
,
0001
0100
1000
0100
0000
0000
0010
1000
,
0100
0010
0000
0101
0000
1000
0000
0100
,
0010
0001
0100
0010
0000
0000
1000
0100
,
1100
0000
0010
0001
0011
0000
0001
0010
,
0011
0000
0100
1000
1100
1000
0100
0020
,
0000
0000
1030
1001
0000
0100
0010
1001
,
0000
0100
0100
0000
0020
0000
0000
0000
,
1030
0100
0010
0001
0100
0010
1000
0000
,
1001
0000
0000
0000
;

//---------------dance-single - ----------------
#NOTES:
     dance-single:
     :
     Medium:
     6:
     0.210,0.240,0.011,0.123,0.067:
0000
0000
0000
0000
,
0000
0000
0000
0000
,
0000
0000
0000
0000
,
0000
0000
0000
0000
,
0000
0000
0100
0010
0000
0000
0000
0001
,
1000
0000
0000
0010
0000
0000
0010
0000
0100
0000
0000
0000
0000
0000
1000
0000
,
0002
0000
0000
0000
1003
0000
0000
0010
,
0100
0000
0000
0010
0000
0000
0100
0000
0001
0000
0000
0000
0000
0000
0000
0000
,
0000
0000
1000
0001
0000
0000
0000
0100
,
0010
0000
0000
1000
0000
0001
0000
0100
0000
0000
0001
0000
0000
0000
0001
0000
,
2000
0000
3001
0100
,
0020
0000
0000
0000
0030
0000
0000
0100
,
0010
1000
0100
0001
1000
0000
0100
0010
,
1000
0100
0000
0000
0000
0000
0000
1000
,
0001
0100
0010
0001
0010
0000
0001
1000
,
0001
0000
1000
0000
0000
0000
0000
0000
1000
0000
0000
0001
0000
0100
0000
0002
,
0000
0000
0000
0000
1003
0000
0000
0000
0100
0000
0010
0000
0000
1000
0000
0001
,
0000
0100
0000
0000
1000
0100
0001
2000
,
0000
0000
0000
3001
0000
0000
0000
0000
,
0100
0010
0000
0000
0000
0000
0000
0000
,
1001
0000
0100
0010
0000
0000
1000
0001
,
0100
0010
1000
0001
0000
0000
0001
0100
,
1000
0001
0000
1000
0000
0001
0000
0010
,
0100
0010
0000
1000
0000
0000
0200
0000
,
0310
0000
0000
1000
0000
0000
0001
0000
0000
0000
0000
0000
0001
0000
0000
0000
,
1000
0000
0000
0010
0000
0000
0100
0000
0000
0000
0000
0000
1000
0000
0000
0000
,
0001
0100
0000
0010
0000
1000
0000
0000
,
1000
0000
0001
0100
0000
0000
1000
0002
,
0000
0000
1003
0002
0000
0000
0103
0020
,
0000
0000
0000
0000
1030
0001
1000
0002
,
0000
0000
0103
0010
0000
1000
0001
1000
,
0000
0000
1000
0001
,
0200
0000
0000
0000
,
0310
0000
0000
0000
;

//---------------dance-single - ----------------
#NOTES:
     dance-single:
     :
     Easy:
     2:
     0.144,0.166,0.011,0.101,0.000:
0000
0000
0000
0000
,
0000
0000
0000
0000
,
0000
0000
0000
0000
,
0000
0000
0000
0000
,
0000
0001
0000
0000
,
0100
0010
0001
0000
,
2000
0000
3001
0000
,
0010
0100
1000
0000
,
0000
1000
0001
0000
,
0010
0100
0001
1000
,
0020
0000
0130
1000
,
0001
0000
1000
0000
,
0010
0100
0010
0000
,
1000
0001
1000
0000
,
0100
0001
1000
0000
,
0100
1000
0001
0000
,
2000
3001
0100
0000
,
0010
0100
0001
1000
,
0002
0000
1003
0000
,
0100
0010
0100
0000
,
1001
0100
0001
0000
,
0001
0100
1000
0000
,
1000
0010
0001
0000
,
0001
0010
1000
0000
,
1000
0001
1000
0000
,
0001
1000
0001
0000
,
0100
0010
0100
0000
,
0100
0010
0100
0000
,
2000
0000
3200
0000
,
0320
0000
0031
0010
,
0200
0000
1300
0100
,
0010
0000
0001
0000
,
2000
0000
0000
0000
,
3001
0000
0000
0000
;

//---------------dance-single - ----------------
#NOTES:
     dance-single:
     :
     Beginner:
     1:
     0.058,0.111,0.022,0.000,0.000:
0000
0000
0000
0000
,
0000
0000
0000
0000
,
0000
0000
0000
0000
,
0000
0000
0000
0000
,
1000
0000
0000
0000
,
0010
0000
0000
0000
,
0100
0000
0000
0000
,
0001
0000
0000
0000
,
1000
0000
0000
0000
,
0100
0000
0000
0000
,
0010
0000
0000
0000
,
0001
0000
0000
0000
,
1000
0000
0000
0000
,
1000
0000
0000
0000
,
0001
0000
0000
0000
,
0001
0000
0000
0000
,
0100
0000
0000
0000
,
1000
0000
0000
0000
,
0010
0000
0000
0000
,
0001
0000
0000
0000
,
1001
0000
0000
0000
,
0100
0000
0000
0000
,
0010
0000
0000
0000
,
0001
0000
0000
0000
,
1000
0000
0000
0000
,
0100
0000
0000
0000
,
0010
0000
0000
0000
,
0001
0000
0000
0000
,
1000
0000
1000
0000
,
1000
0000
0001
0000
,
0001
0000
0001
0000
,
1001
0000
0100
0000
,
0010
0000
0000
0000
,
0100
0000
0000
0000
;

//---------------dance-single - ----------------
#NOTES:
     dance-single:
     :
     Challenge:
     13:
     0.454,0.591,0.246,0.437,0.409: // measure 1
0000
0000
0000
0000
,  // measure 2
0000
0000
0000
0000
,  // measure 3
0000
0000
0000
0000
,  // measure 4
0000
0000
0000
0000
,  // measure 5
1000
0000
0100
0000
0010
0000
2000
0000
0000
0000
0000
0000
0000
0000
3001
1000
,  // measure 6
0001
0000
0100
0010
0000
0001
2000
0000
0000
0000
0010
0000
0010
0000
3001
0100
,  // measure 7
0020
0000
0000
0000
0000
0000
1030
0002
0000
0000
0000
0000
0000
0000
1003
0010
,  // measure 8
0100
0000
0001
1000
0000
0010
0200
0000
0001
0000
0001
0000
0001
0000
0000
0000
,  // measure 9
1300
0000
0000
0000
0100
0000
0020
0000
0000
0000
0000
0000
0000
0000
1030
0001
,  // measure 10
0100
0000
0010
1000
0000
0100
0000
0010
0000
0001
2000
0000
0000
0000
3001
0100
,  // measure 11
0002
0000
0000
0000
0000
0000
0013
0200
0000
0000
0000
0310
1000
0000
0010
0200
,  // measure 12
0000
0000
0000
0301
0000
1000
0001
0000
0200
0000
0000
0000
0000
0000
0310
1000
,  // measure 13
0001
0000
0100
0010
0000
0001
0000
2000
0000
0000
3001
0100
0000
0010
0000
1000
,  // measure 14
0000
0100
0002
0000
0000
0000
0000
0000
0000
0000
0010
0000
0010
0000
1003
0010
,  // measure 15
0100
0000
0010
0100
0000
0010
0000
2000
0000
0000
3010
0100
0000
0001
0000
1000
,  // measure 16
0000
0010
0200
0000
0000
0000
0000
0301
1000
0000
0001
0100
0000
0010
0000
0002
,  // measure 17
0000
0000
1003
0010
0002
0000
0000
0000
1003
0000
0010
0100
0000
0001
0000
1000
,  // measure 18
0000
0010
0200
0000
0000
0000
0000
0000
0301
0000
1000
0000
0100
0000
0020
0000
,  // measure 19
0000
0000
0000
0000
1000
0000
1030
0000
0000
0000
0000
0000
0000
0000
0100
0010
,  // measure 20
0100
1000
0100
0000
0010
0000
0100
0000
0001
0000
1000
0000
1001
0000
1000
0000
,  // measure 21
1001
0000
0100
0010
0001
0100
0020
0000
0000
0000
0000
0000
1030
0000
0001
2000
,  // measure 22
0000
0000
3010
0200
0000
0301
2000
0000
0000
0000
0000
3100
0010
0000
1000
0001
,  // measure 23
0000
0100
0010
0000
1000
0000
1001
0000
0010
0000
0101
0000
0000
0000
0011
0000
,  // measure 24
1100
0000
1000
0100
0010
0001
0200
0000
0000
0000
0000
0000
0320
0000
0031
0100
,  // measure 25
1000
0000
0100
0010
0000
0001
2000
0000
0000
0000
0000
0000
3010
0000
0100
0002
,  // measure 26
0000
0000
1003
0020
0000
0130
0002
0000
0000
0000
0000
1003
0010
0000
0100
0001
,  // measure 27
0000
1000
0100
0000
0010
0000
0110
0000
1000
0000
0101
0000
0000
0000
0100
0001
,  // measure 28
1000
0000
1000
0010
0100
0010
2000
0000
0000
0000
0000
0000
0001
0000
3001
0000
,  // measure 29
0102
0103
0120
1030
2100
3100
0210
0310
,  // measure 30
0021
0031
0102
1003
0120
1030
1001
2001
,  // measure 31
0000
0000
3001
1001
0100
0010
0011
0101
,  // measure 32
1010
0000
0110
0000
0010
0001
0100
0010
1000
0100
0010
0001
1000
0100
0020
0000
,  // measure 33
1030
0001
0100
0010
1000
0100
0010
1000
,  // measure 34
0001
0000
0000
0000
;
