#TITLE:BURST THE GRAVITY;
#SUBTITLE:アクセル ワールド OP2;
#ARTIST:ALTIMA;
#TITLETRANSLIT:;
#SUBTITLETRANSLIT:Accel World OP2;
#ARTISTTRANSLIT:;
#GENRE:ANIMATION BEAT#0;
#CREDIT:;
#BANNER:BURST THE GRAVITY.png;
#BACKGROUND:BURST THE GRAVITY-bg.png;
#LYRICSPATH:;
#CDTITLE:cdtitle.png;
#MUSIC:BURST THE GRAVITY.mp3;
#MENUCOLOR:0,0,1,1;
#METERTYPE:DDR X;
#OFFSET:-0.135;
#SAMPLESTART:61.7111;
#SAMPLELENGTH:12.000;
#SELECTABLE:YES;
#BPMS:0.000=148.000
;
#STOPS:
;
#BGCHANGES:;
#KEYSOUNDS:;
#ATTACKS:;

//---------------dance-single - ----------------
#NOTES:
     dance-single:
     :
     Hard:
     14:
     0.665,0.705,0.780,0.234,0.245,327.000,70.000,21.000,0.000,0.000,0.000,0.665,0.705,0.780,0.234,0.245,327.000,70.000,21.000,0.000,0.000,0.000:
0000
0000
0000
0000
,
0000
0000
0000
0000
,
0000
0000
0000
0000
,
0000
0000
0000
0000
,
2000
3001
0110
0000
,
1000
0001
1000
0000
,
0010
0010
0100
0001
,
2002
0000
0000
3003
,
0100
0000
0000
0100
0010
0000
0000
0001
1000
0000
0000
1000
0010
0000
0000
0000
,
1001
0000
0000
0101
0000
0000
0011
0000
0000
0000
0000
0000
1100
0000
0000
0000
,
1010
0101
0110
0011
,
1100
0000
0000
1010
0000
0000
0101
0000
0000
1000
0001
1000
0001
0000
0000
0000
,
1001
0000
0000
1001
0000
0000
1001
0000
0001
1000
0001
1000
0001
0000
0001
1000
,
0200
0000
0310
0000
1000
0100
0010
0002
,
0000
1003
0010
0000
0100
0000
0010
0000
,
2000
0000
3010
0000
0100
1000
0100
0020
,
0000
0000
0130
0000
0001
0000
0000
0000
0100
0000
0000
0001
0010
0000
0100
0000
,
0110
0000
0000
0001
1000
0000
0100
0000
0110
0000
0000
0000
0001
0000
1000
0000
,
0100
0010
0001
0100
1010
0000
1000
0100
,
0011
0000
0000
0010
0100
0000
0010
0000
,
1000
0000
0100
0000
0010
0000
0001
0000
0100
0010
0100
0010
0100
0000
0010
1000
,
0001
0000
0100
0000
0010
0100
0010
2000
,
0000
3100
0010
0000
0100
0000
0101
1000
,
0010
0000
0110
0000
0001
1000
0100
0020
,
0000
0000
1030
0000
0001
0000
0100
0000
0010
0000
0100
0010
0100
0000
0100
0000
,
1001
0000
0000
0100
0010
0000
0100
0000
0020
0000
0000
0000
1030
0000
0100
0000
,
0001
0100
0010
1000
0101
1000
0010
0100
,
0020
0000
1030
0100
0010
0100
0001
0100
,
0010
0000
1000
0000
0100
0000
0010
0000
0001
1000
0001
1000
0001
0000
1000
0001
,
2000
0000
0100
0000
0010
0000
0001
0001
,
3002
0000
0100
0000
0010
0000
1000
1003
,
1001
0000
0000
0001
0100
0000
0010
0000
0110
0000
0000
0010
1000
0000
0010
0000
,
0011
0000
0000
1010
0000
0000
0011
0000
0100
0000
0010
0000
1000
0001
1000
0001
,
0010
0000
0100
0000
0001
1000
0100
0010
,
1000
0001
0100
0010
1000
0100
0010
0001
,
1100
0000
0000
0100
0010
0000
0001
0000
0110
0000
0000
1000
0010
0000
0001
0000
,
0100
0000
0011
0000
1000
0000
0100
0000
0010
0001
0100
0010
1000
0000
0010
0000
,
2002
0000
0000
3003
,
0110
1000
0110
1000
0101
0000
0110
0001
,
0110
0001
1100
0000
0110
1000
0010
0100
,
0201
0010
1000
0310
,
1001
0000
0000
0000
0110
0000
0000
0000
0110
0000
0000
1000
0100
0000
0010
0000
,
0201
0000
1000
0000
0301
0000
1001
0100
,
0010
0001
0100
1000
0110
0000
0001
0100
,
0110
0000
1000
0001
0000
1000
0001
0000
0100
0000
0010
1000
0000
0010
0100
0000
,
0010
0000
0010
0000
1000
0000
1000
0000
0100
0001
0100
0010
0100
0000
0001
1000
,
0010
0100
0110
0100
0101
0000
0011
0010
,
0110
0100
0101
0000
0110
1000
1010
0100
,
0201
0000
0010
0010
0310
1000
0010
0100
,
1001
0000
0000
0000
0110
0000
0000
0000
0011
0000
0100
0010
0100
0000
1000
0000
,
0110
0000
0010
0000
0101
0000
0110
1000
,
0110
0001
0011
0100
0110
0000
1001
0100
,
0210
0000
0000
0010
0000
0000
1300
0000
0110
0000
0000
0101
0000
0000
0100
0000
,
0110
0000
1000
0000
0100
0000
0010
0000
0001
1000
0001
1000
0010
0000
0100
2000
,
0002
0000
0000
0000
,
3003
0000
0000
0000
;

//---------------dance-single - ----------------
#NOTES:
     dance-single:
     :
     Medium:
     11:
     0.454,0.490,0.513,0.167,0.022,224.000,46.000,15.000,0.000,0.000,0.000,0.454,0.490,0.513,0.167,0.022,224.000,46.000,15.000,0.000,0.000,0.000:
0000
0000
0000
0000
,
0000
0000
0000
0000
,
0000
0000
0000
0000
,
0000
0000
0000
0000
,
1000
0001
1000
0000
,
0010
1000
0001
0000
,
1000
1000
0001
0001
,
2000
0000
0000
0000
,
3001
0100
0010
0000
,
1001
0110
1100
0101
,
0011
0110
1100
0101
,
1010
0011
0101
1010
,
0101
0110
2002
0000
,
3003
0100
0010
1000
,
0010
1000
0010
0000
0100
0000
0101
0000
,
0010
0010
1000
0001
,
1000
0001
1000
0000
0010
0000
0010
0000
,
1001
0100
0010
1000
,
0100
0010
0001
1000
,
0020
0030
1000
0010
,
1000
0100
0001
1000
,
1001
0100
0010
1000
,
0001
1000
0001
0000
1000
0001
1000
0000
,
0010
0010
0100
0100
,
0010
0100
0010
0000
0100
0010
0100
0000
,
1000
1000
1001
0000
,
0001
0001
1000
0100
,
1001
0010
0010
0100
,
1000
0100
0010
0001
,
2001
0010
0001
0001
,
0010
0010
0001
3001
,
0101
0101
1010
1010
,
0110
0011
0110
0001
,
0102
1000
0010
0010
,
0100
1000
0100
1003
,
0110
0000
0000
0001
0000
0000
0001
0000
1000
0000
0000
1000
0000
0000
1000
0000
,
0001
0110
0011
0110
,
2002
0000
0000
3003
,
1000
0001
0100
0010
1010
0000
0100
0001
,
0100
0010
0011
0000
0100
0010
0100
0001
,
2000
3010
0002
0103
,
1001
0000
0110
0000
0011
0000
0100
0010
,
0100
1000
0110
0000
,
1000
0010
1000
0010
1000
0000
0100
0010
,
1000
0000
0000
0001
0000
0000
0100
0000
0001
0000
0000
1000
0000
0000
0100
0000
,
0010
0001
1000
0100
0002
0000
1003
0000
,
0100
0010
0100
0001
1001
0000
0100
0010
,
0100
0001
0101
0000
1000
0100
0010
0100
,
0002
0000
1003
0100
0010
0001
0100
0010
,
1010
0000
0110
0000
0001
0000
0100
0010
,
2000
3001
0101
0000
,
1000
0000
0001
0000
0100
0000
0010
1000
,
0001
0000
0100
0010
0100
0000
1000
0001
,
0100
0010
1000
0100
0010
0001
1000
0000
,
2002
0000
0000
0000
,
0000
3003
0000
0000
0000
0000
0000
0000
0000
0000
0000
0000
0000
0000
0000
0000
0000
0000
0000
0000
0000
0000
0000
0000
0000
0000
0000
0000
0000
0000
0000
0000
0000
0000
0000
0000
0000
0000
0000
0000
0000
0000
0000
0000
0000
0000
0000
0000
0000
0000
0000
0000
0000
0000
0000
0000
0000
0000
0000
0000
0000
0000
0000
0000
0000
0000
0000
0000
0000
0000
0000
0000
0000
0000
0000
0000
0000
0000
0000
0000
0000
0000
0000
0000
0000
0000
0000
0000
0000
0000
0000
0000
0000
0000
0000
0000
0000
0000
0000
0000
0000
0000
0000
0000
0000
0000
0000
0000
0000
0000
0000
0000
0000
0000
0000
0000
0000
0000
0000
0000
0000
0000
0000
0000
0000
0000
0000
0000
0000
0000
0000
0000
0000
0000
0000
0000
0000
0000
0000
0000
0000
0000
0000
0000
0000
0000
0000
0000
0000
0000
0000
0000
0000
0000
0000
0000
0000
0000
0000
0000
0000
0000
0000
0000
0000
0000
0000
0000
0000
0000
0000
0000
0000
0000
0000
0000
0000
0000
0000
0000
0000
0000
0000
0000
0000
0000
0000
0000
0000
0000
0000
0000
;

//---------------dance-single - ----------------
#NOTES:
     dance-single:
     :
     Easy:
     6:
     0.282,0.276,0.045,0.123,0.000,162.000,4.000,11.000,0.000,0.000,0.000,0.282,0.276,0.045,0.123,0.000,162.000,4.000,11.000,0.000,0.000,0.000:
0000
0000
0000
0000
,
0000
0000
0000
0000
,
0000
0000
0000
0000
,
0000
0000
0000
0000
,
1000
0001
1000
0000
,
0010
0100
0010
0000
,
0100
0010
0100
0000
,
0001
1000
0001
0000
,
2000
0000
0000
0000
,
3001
0100
0010
1000
,
0100
0010
0001
1000
,
0010
0100
0001
1000
,
0010
0100
2002
0000
,
3003
0100
0010
1000
,
0100
0010
0001
0000
,
0001
0100
0010
1000
,
0100
0010
0001
0000
,
0001
1000
0001
0000
,
0100
0010
0100
0000
,
1000
0000
0001
0000
,
0100
0010
1000
0001
,
1000
1000
0100
0100
,
0010
0010
0001
0000
,
0001
0001
0010
0010
,
0100
0100
1000
0000
,
1000
0010
0100
0000
,
0001
0100
0010
0000
,
1000
0001
1000
0010
,
0100
0100
0000
0000
,
2001
0000
0010
0000
,
0001
0000
0010
0000
,
3001
0100
0010
1000
,
0100
0010
1000
0010
,
1002
0000
0100
0000
,
1000
0000
0100
0000
,
1003
0100
0010
0001
,
1000
0100
0010
0000
,
2000
0000
0000
0000
,
3001
0100
0010
0001
,
1000
0010
0100
0010
,
0001
1000
0100
0010
,
0002
1000
1003
0000
,
1000
0100
0010
0000
,
1000
0001
1000
0100
,
0010
0010
0100
0100
,
0001
1000
0002
0000
,
1003
0100
0010
0001
,
0010
0100
1000
1000
,
0001
1000
0010
1000
,
0002
1000
1003
0000
,
0100
0010
0100
0000
,
0001
1000
0001
0000
,
0100
0100
0010
0010
,
1000
0100
0010
1000
,
2002
0000
0000
0000
,
3003
0000
0000
0000
;

//---------------dance-single - ----------------
#NOTES:
     dance-single:
     :
     Beginner:
     3:
     0.154,0.181,0.045,0.000,0.000,93.000,4.000,0.000,0.000,0.000,0.000,0.154,0.181,0.045,0.000,0.000,93.000,4.000,0.000,0.000,0.000,0.000:
0000
0000
0000
0000
,
0000
0000
0000
0000
,
0000
0000
0000
0000
,
0000
0000
0000
0000
,
1000
0000
0001
0000
,
1000
0000
0001
0000
,
1000
0000
0001
0000
,
1000
0000
0000
0000
,
1001
0000
0000
0000
,
1001
0000
0000
0000
,
0010
0000
0000
0000
,
1001
0000
0000
0000
,
0100
0000
0000
0000
,
1000
0000
0100
0000
,
0001
0000
0000
0000
,
0001
0000
0100
0000
,
1000
0000
0000
0000
,
1000
0000
0010
0000
,
0001
0000
0010
0000
,
1000
0000
0000
0000
,
0001
1000
0001
0000
,
1000
1000
1000
0000
,
0001
0001
0001
0000
,
0100
0100
0100
0000
,
0010
0010
0010
0000
,
1000
1000
1000
0000
,
0001
0001
0001
0000
,
0100
0100
0100
0000
,
0001
1000
0001
0000
,
1000
0000
0000
0000
,
0100
0000
0000
0000
,
0010
0000
0000
0000
,
0001
0000
0000
0000
,
1000
0000
0000
0000
,
0001
0000
0000
0000
,
1000
1000
1000
0000
,
0001
0001
0001
0000
,
1000
0000
0000
0000
,
0001
0000
0001
0000
,
0100
0000
0100
0000
,
0010
0000
1000
0000
,
0001
0000
1000
0000
,
0100
0000
0010
0000
,
1000
0000
1000
0000
,
0001
0000
1000
0000
,
0001
0000
0000
0000
,
1000
0000
0001
0000
,
0100
0000
0010
0000
,
1000
0000
0001
0000
,
0100
0000
0010
0000
,
1000
0000
0001
0000
,
1000
0000
0010
0000
,
1000
0000
0000
0000
,
1000
0000
0000
0000
,
1001
0000
0000
0000
;

//---------------dance-single - ----------------
#NOTES:
     dance-single:
     :
     Challenge:
     15:
     0.847,0.919,1.000,0.290,0.412: // measure 1
0000
0000
0000
0000
,  // measure 2
0000
0000
0000
0000
,  // measure 3
0000
0000
0000
0000
,  // measure 4
0000
0000
0000
0000
,  // measure 5
1000
0100
0010
0010
0001
0000
1000
0010
,  // measure 6
0100
1000
0010
0001
0100
0000
1000
0010
,  // measure 7
0001
1000
0001
0010
1000
0001
0010
1000
,  // measure 8
0220
0000
0000
0330
,  // measure 9
1000
0000
0001
1000
0001
0000
1000
0010
0100
0000
0001
0100
0001
0000
1000
0000
,  // measure 10
0110
0000
0000
1010
0000
0000
0011
0000
1000
0100
0000
0100
1000
0000
1100
0000
,  // measure 11
0101
0000
0100
1000
0000
0100
0010
0000
0001
0010
0000
0100
1000
0000
0100
0000
,  // measure 12
1100
0000
0000
0101
0000
0000
1010
0000
0000
0100
0010
0100
0010
0000
0011
0000
,  // measure 13
1100
0000
1000
0010
0000
0100
1000
0000
0010
0100
0010
0100
0010
0001
0010
0100
,  // measure 14
2000
0000
3002
0000
0103
1000
0001
0020
,  // measure 15
0000
0130
0002
1000
2003
0100
3200
0010
,  // measure 16
0320
0000
0000
0000
0032
0000
0000
0000
1003
0100
1000
0000
0010
0000
0002
0000
,  // measure 17
0000
0000
1003
0000
0020
0000
0000
0000
1030
0000
0001
0010
0001
0000
1100
0000
,  // measure 18
0011
0000
1000
0010
0100
0000
1000
0000
1001
0000
0000
0000
1010
0000
0110
0000
,  // measure 19
1001
0011
0110
1100
0101
0000
1100
1010
,  // measure 20
0021
0000
0000
1000
1000
0000
0001
0000
,  // measure 21
0130
0000
1000
0000
0001
0000
0010
0000
1000
0001
1000
0001
1000
0010
0001
0100
,  // measure 22
0020
0000
1000
0000
0001
0031
0011
0200
,  // measure 23
0000
0000
1300
0000
0001
0000
0000
0000
1000
0000
0010
0001
0010
0000
0100
0000
,  // measure 24
0011
0000
1001
0000
0010
0100
1000
0002
,  // measure 25
0000
0000
0103
0000
0010
0000
1000
0000
0001
0000
1000
0001
1000
0000
1000
0000
,  // measure 26
0110
0000
0001
1000
0001
0000
1100
0000
0011
0000
0000
0000
0110
0000
1100
0000
,  // measure 27
0011
1100
0101
1010
0011
0110
1001
1010
,  // measure 28
0012
0000
0103
0000
0011
1100
0101
1001
,  // measure 29
0011
0000
0101
0000
1010
0000
0001
0000
0010
0100
0010
0100
0010
1000
0100
0010
,  // measure 30
0200
0000
1000
0000
0001
0000
0010
0010
,  // measure 31
0320
0000
1000
0000
0001
0000
0100
0130
,  // measure 32
0110
0000
0001
0010
1000
0000
1010
0000
0101
0000
1000
0100
0001
0000
0011
0000
,  // measure 33
1100
0000
0000
0101
0000
0000
0011
0000
1100
0000
0001
0010
0100
0010
0100
0010
,  // measure 34
0001
0000
1100
0000
0010
0100
1000
0001
,  // measure 35
0110
0010
1000
0001
0100
1000
0001
0010
,  // measure 36
1100
0000
0100
1000
0001
0000
0010
0000
1001
0000
0010
0100
0001
0000
0010
0000
,  // measure 37
1100
0000
0011
0000
1100
0000
1000
0000
0001
0010
1000
0001
0100
0010
0001
0200
,  // measure 38
0020
0000
0000
0330
,  // measure 39
1001
0000
0101
0000
1000
0001
0100
0010
1000
0000
0001
0000
1001
0000
0011
0000
,  // measure 40
1000
0001
0010
0100
1000
0000
0000
0000
1001
0000
0110
0000
0011
0000
1100
0000
,  // measure 41
2010
0000
0001
0001
0001
0000
3100
0010
,  // measure 42
0110
0000
0001
0000
1001
0000
0100
0000
1001
0000
0001
0100
1000
0000
0011
0000
,  // measure 43
2010
0000
0100
0000
3010
0000
0110
1000
,  // measure 44
0011
0010
1100
0100
1001
0000
0010
1000
,  // measure 45
1000
0001
0100
0010
0000
0100
0010
0000
1000
0010
0001
0100
0000
0001
1000
0000
,  // measure 46
0011
0000
0011
0000
1100
0000
1100
0000
1000
0010
1000
0001
1000
0000
0010
0100
,  // measure 47
0001
0000
1100
0000
1000
0001
1000
0010
1000
0000
0000
0000
0011
0000
0101
0000
,  // measure 48
1000
0010
1000
0100
1000
0000
0000
0000
1001
0000
1100
0000
0101
0000
1001
0000
,  // measure 49
2010
0000
0001
0001
3001
0100
0001
1000
,  // measure 50
0110
0000
0000
0000
1001
0000
0000
0000
0011
0000
1000
0010
0001
0000
1100
0000
,  // measure 51
1001
0000
0011
0000
1010
0000
1001
0100
,  // measure 52
1001
0010
0011
1000
1001
0000
0110
1000
,  // measure 53
1001
0000
1000
0001
0000
0010
0100
0001
1000
0000
1000
0010
0000
0001
1000
0001
,  // measure 54
1000
0000
0110
0000
1001
0000
0011
0000
0010
0100
0010
0100
0001
0100
1000
0200
,  // measure 55
0020
0000
0000
0000
,  // measure 56
0330
0000
0000
0000
;
