#TITLE:BRAVE BLADE!;
#SUBTITLE:;
#ARTIST:桜川 めぐ;
#TITLETRANSLIT:;
#SUBTITLETRANSLIT:Campione! OP;
#ARTISTTRANSLIT:Megu Sakuragawa;
#GENRE:ANIMATION BEAT#0;
#CREDIT:;
#BANNER:BRAVE BLADE!.png;
#BACKGROUND:BRAVE BLADE!-bg.png;
#LYRICSPATH:;
#CDTITLE:cdtitle.png;
#MUSIC:BRAVE BLADE!.mp3;
#MENUCOLOR:0,0,1,1;
#METERTYPE:DDR X;
#OFFSET:-0.0573;
#SAMPLESTART:60.000;
#SAMPLELENGTH:12.000;
#SELECTABLE:YES;
#BPMS:0.000=180.051;
#STOPS:;
#BGCHANGES:;

//---------------dance-single - ----------------
#NOTES:
     dance-single:
     :
     Beginner:
     2:
     0.131,0.179,0.045,0.000,0.000:
0000
0000
0000
0000
,
0000
0000
0000
0000
,
0000
0000
0000
0000
,
0000
0000
0000
0000
,
1000
0000
0000
0000
,
0010
0000
0000
0000
,
0010
0000
0000
0000
,
1000
0000
0000
0000
,
0000
0001
0000
0000
,
1000
0000
0000
0000
,
1000
0000
0000
0000
,
0010
0000
0000
0000
,
0100
0000
0000
0000
,
1001
0000
0000
0000
,
0100
0000
0000
0000
,
0010
0000
0000
0000
,
0100
0000
0000
0000
,
1000
0000
0000
0000
,
1000
0000
0000
0000
,
0001
0000
0000
0000
,
0001
0000
0001
0000
,
0100
0000
0000
0000
,
1000
0000
0000
0000
,
0010
0000
0000
0000
,
1000
0000
1000
0000
,
0010
0000
0000
0000
,
0100
0000
0000
0000
,
0001
0000
0000
0000
,
1000
0000
0100
0100
,
0100
0000
0000
0000
,
0010
0000
0001
0001
,
0001
0000
0000
0000
,
1000
0000
0000
0000
,
1001
0000
0000
0000
,
0000
0000
0100
0000
,
0100
0100
0000
0000
,
0010
0000
0000
0010
,
0000
0000
0001
0000
,
0000
1000
0000
0000
,
1001
0000
0000
0000
,
0000
0000
1000
1000
,
0000
0000
0000
0000
,
1000
1000
1000
0000
,
0000
0000
0001
0000
,
0000
0000
0110
0000
,
0000
0000
1000
0000
,
1000
0000
1000
0000
,
0000
0000
0001
0000
,
0001
0000
0001
0000
,
0000
0000
0100
0000
,
0100
0000
0000
0010
,
0000
0000
0010
0000
,
0000
0000
1000
0000
,
1000
0000
0001
0000
,
0000
0000
0010
0000
,
0100
0000
0001
0000
,
0000
0000
1000
0000
,
0010
0000
0100
0000
,
0000
0000
0001
0000
,
1000
0000
0010
0000
,
0000
0000
0000
0000
,
1000
0000
0001
0000
,
0000
0000
0000
0000
,
1000
0000
1000
0000
,
0000
0000
0000
0000
,
0000
0000
0000
0000
,
0000
0000
0000
0000
;

//---------------dance-single - ----------------
#NOTES:
     dance-single:
     :
     Easy:
     6:
     0.268,0.332,0.147,0.158,0.000:
0000
0000
0000
0000
,
0000
0000
0000
0000
,
0000
0000
0000
0000
,
0000
0000
0000
0000
,
1000
0000
0000
0000
0000
0000
0000
0002
,
0000
0000
0100
0000
,
0100
0000
0100
0000
,
0100
0000
0000
0000
,
0003
0000
1000
0000
0000
0000
0000
0002
,
0000
0000
0000
0000
0000
0000
0000
0010
,
0000
0000
0000
0000
0000
0000
0000
0010
,
0000
0000
0000
0000
0000
0000
0000
1000
,
0000
0000
0000
0000
,
1003
0100
0010
0000
,
0001
0001
0001
0000
,
0100
0010
0001
0000
,
1000
1000
1000
0000
,
0020
0000
0130
0000
,
0001
0000
1000
0000
,
0110
0000
0000
0000
,
1000
1000
1000
1000
,
0002
0000
0000
0000
,
0103
0000
0010
1000
,
0010
0000
0000
1000
,
1000
0001
1000
0001
,
0100
0100
0010
0010
,
1000
0000
0100
0001
,
1000
0000
0000
0000
,
1000
0001
0100
0001
,
1000
0000
0000
0100
,
0010
0000
1000
0001
,
2000
0000
0000
0000
,
3001
0100
0010
0000
,
1001
0000
0000
0110
,
0000
0000
1100
0000
,
0000
0110
0000
0000
,
0011
0000
0000
0110
,
0000
0000
1100
0000
,
0000
0011
0000
0000
,
1001
0000
0000
0000
,
0000
0000
0000
0000
1000
0000
0000
0001
,
0000
0000
0100
0000
0000
0010
0000
0000
,
1000
0000
2002
0000
,
3003
0000
0220
0000
,
0000
0330
1000
0001
,
1000
0000
0000
0100
,
0010
0100
1000
0100
,
0001
0000
0001
0010
,
0100
1000
0010
0100
,
0001
0000
0000
1000
,
0100
0001
0000
0001
,
0010
1000
0002
0000
,
1003
0000
2000
0000
,
3001
0000
0000
1000
,
0001
0100
0010
1000
,
0001
0000
1000
0001
,
1000
0001
2000
0000
,
0000
0000
3001
0100
,
0010
0000
0100
0001
,
1000
0000
1000
0100
,
0010
0001
1000
0000
,
0001
1000
0002
0000
,
1003
0000
1000
0000
,
0010
0000
2000
0000
,
3001
0000
0100
0010
,
1000
0000
0000
1001
0000
0000
0000
0000
,
0000
0000
0000
0000
;

//---------------dance-single - ----------------
#NOTES:
     dance-single:
     :
     Medium:
     9:
     0.311,0.369,0.056,0.113,0.000:
0000
0000
0000
0000
,
0000
0000
0000
0000
,
0000
0000
0000
0000
,
0000
0000
0000
0000
,
1000
0000
0001
1000
0001
1000
0000
0002
,
0000
0000
0000
0000
,
1000
0000
0000
0000
,
1000
0000
0000
0000
,
1003
0000
0100
0010
0100
0010
0000
0200
,
0000
0000
0000
0000
0000
0000
0000
0010
,
0000
0000
0000
0000
,
0010
0000
0000
0000
,
0010
0000
0000
0000
,
0310
1000
0001
0100
,
0010
0010
0010
0010
,
1000
0001
0100
0010
,
0100
0100
0100
0100
,
0001
1000
0100
0010
,
0001
0100
0001
1000
,
0001
0000
0000
0100
,
0010
0000
1000
0000
1000
0001
1000
0000
,
0010
0100
0010
1000
,
0100
0010
0001
0100
,
0010
0000
0000
1000
,
0001
1000
0000
0100
0000
0000
0010
0000
,
1000
0100
0010
0001
,
1000
0001
0100
0010
,
1001
0000
0000
0100
,
0100
0010
1000
0100
,
0001
0000
0000
1000
,
0001
1000
0100
0010
,
0002
0000
0000
0000
,
1003
0000
0000
1000
,
0001
0001
1000
1000
,
0010
0010
0100
0100
,
0001
1001
0000
0000
,
0001
0001
0010
0100
,
0100
1000
1001
0000
,
0100
0010
1000
0100
,
1001
0000
0001
0100
,
0010
0000
1000
0000
0001
0000
0000
0001
,
0000
0000
0001
0000
0000
0001
0000
0000
,
1000
0001
2000
0000
,
0000
0000
0002
0000
,
0000
0000
3003
0000
,
0100
0000
0000
1000
,
0001
1000
0010
0100
,
0010
0000
1000
0001
,
1000
0100
0010
0001
,
1000
0000
0000
0000
0000
0000
0001
1000
,
0001
1000
0000
0000
0000
0000
0100
0010
,
0100
0010
0000
2000
0000
0000
0000
0000
,
3001
0000
1000
0000
0001
0000
1000
0001
,
0000
0100
0000
0000
0000
0000
0010
0000
,
0010
0000
1000
0000
1000
0000
0100
0010
,
0000
0000
0000
0000
1000
0001
1000
0001
,
1000
0001
0000
2000
0000
0000
0000
0000
,
0000
0000
3001
0100
,
0001
0000
1000
0001
0000
0000
0100
0000
,
0010
0000
0100
0020
0000
0000
0000
0000
,
0000
0000
0000
0000
,
1030
0000
0001
2000
0000
0000
0000
0000
,
0000
0000
0000
0000
,
3001
0000
0100
0020
0000
0000
0000
0000
,
0000
0000
0000
0000
,
1030
0000
0000
1001
0000
0000
0000
0000
,
0000
0000
0000
0000
;

//---------------dance-single - ----------------
#NOTES:
     dance-single:
     :
     Hard:
     13:
     0.618,0.590,0.395,0.102,0.000:
0000
0000
0000
0000
,
0000
0000
0000
0000
,
0000
0000
0000
0000
,
0000
0000
0000
0000
,
1000
0000
0001
1000
0001
1000
0000
0002
,
0000
0000
1003
0010
0100
0010
0100
0001
,
0000
1000
0100
0000
0010
0100
0001
0100
,
0000
1000
0100
0000
0001
0100
0001
1000
,
0000
0000
0100
0010
0100
0010
1000
0002
,
0000
0000
1003
0100
0010
0100
0001
0100
,
0000
1000
0100
0000
0001
0100
0001
1000
,
0000
1000
0100
0000
0010
0100
0001
0100
,
0000
1000
0100
0000
0010
0100
0001
0100
,
0001
1000
0001
0100
0010
1000
0100
0002
,
0000
1000
0000
1000
0000
1003
0001
0000
,
1000
0001
1000
0001
0100
0010
0001
2000
,
0000
0001
0000
0001
0000
3001
1000
0001
,
0100
0010
0100
0001
,
1001
0100
0010
0100
,
1001
0100
0010
0001
,
0100
0000
0010
0000
1000
0001
1000
0000
,
1100
0100
0001
0100
,
1001
0100
0010
0100
,
0011
1000
0100
0001
,
1000
0001
0000
0001
1000
0001
1000
0000
,
0110
0000
1000
0010
0100
0010
0100
0000
,
0001
0000
1000
0001
0100
0001
0100
0000
,
0010
0000
1000
0100
0001
0100
0001
0000
,
1000
0000
0100
0010
1000
0001
0100
0000
,
0001
0000
0100
0010
0100
0001
1000
0001
,
0010
0000
0000
0001
1000
0100
0010
0000
,
1001
0000
0100
0001
0100
0001
0100
0000
,
0010
1000
0010
0000
1000
0000
0001
1000
,
1001
0100
0010
0110
,
1000
0000
0100
0000
0101
1000
0001
0000
,
0100
0001
0102
0000
1000
0000
0013
0000
,
0110
1000
0000
0100
0010
0000
0101
0100
,
0001
0000
1000
0000
1010
0100
0010
0000
,
0100
0000
0101
0000
1000
0010
1000
0000
,
1001
0000
0100
0001
0100
0000
0010
1000
,
0010
0000
1000
0000
1000
1001
0000
0001
,
1001
0000
1000
1001
0000
0001
1001
0000
,
0100
0010
2002
0000
,
0000
0000
0000
3003
0220
0000
0000
0000
,
0000
0000
0330
0000
1000
0001
1000
0100
,
0010
0001
0100
0001
0100
0000
0101
0000
,
1010
0000
0110
0000
0011
0000
0100
0001
,
0000
1000
0100
0000
0010
0100
0001
1000
,
0100
0010
0001
0000
0100
0010
1000
0001
,
0100
0010
1000
0100
0010
0000
0001
0100
,
0001
1000
0100
0000
0010
0000
0100
0001
,
0100
0001
1000
0000
0010
0000
0100
0000
,
0001
0000
1000
0000
0010
0000
1000
0001
,
1000
0001
0000
0000
0101
0000
1001
0000
,
0110
0000
1001
0000
0100
0001
0100
0001
,
0000
1000
0100
0000
1000
0100
0010
0001
,
0100
0010
0100
0000
1001
0000
0100
0000
,
0010
0100
0010
0100
1001
0000
0100
0010
,
0100
0000
0001
0100
0010
0000
1000
0000
,
0100
0000
0001
0100
0001
0000
1000
0100
,
0010
0001
0100
0000
0001
0100
0001
0010
,
0100
1000
0100
0010
0101
0000
0100
0010
,
0100
0000
0001
0010
0100
0000
1000
0100
,
0010
0100
1000
0100
1100
0100
0010
0000
,
0001
0100
0010
0011
0000
0100
0001
0000
,
0100
0010
0100
0001
0000
0000
0000
0000
,
0000
0000
0000
0000
;

//---------------dance-single - ----------------
#NOTES:
     dance-single:
     :
     Challenge:
     14:
     0.813,0.812,0.971,0.203,0.158: // measure 1
0000
0000
0000
0000
,  // measure 2
0000
0000
0000
0000
,  // measure 3
0000
0000
0000
0000
,  // measure 4
0000
0000
0000
0000
,  // measure 5
1001
0000
0100
0001
0100
0001
0000
0110
,  // measure 6
0000
0000
1000
0000
0001
0000
0010
0000
1000
0010
1000
0000
0001
0100
0001
0000
,  // measure 7
1000
0000
0001
0000
0100
0000
1000
0000
0010
0001
0010
0000
1000
0100
1000
0000
,  // measure 8
0100
0000
0001
0000
1000
0000
0010
0000
1000
0100
1000
0000
0001
0010
0001
0000
,  // measure 9
0100
0001
1000
0010
1000
0010
0000
0110
,  // measure 10
0000
0000
1000
0000
0001
0000
0100
0000
1000
0001
1000
0000
0010
0100
0010
0000
,  // measure 11
1000
0000
0001
0000
1000
0000
0010
0000
0100
0001
1000
0000
0100
1000
0001
0000
,  // measure 12
1000
0000
0001
0000
1000
0000
0100
0000
0010
0100
1000
0000
1000
0100
0010
0000
,  // measure 13
0100
0001
1000
0100
0010
1000
0010
0001
,  // measure 14
0100
0000
1000
0000
0010
0000
1000
0000
0010
0000
0001
0000
1000
0001
0200
0000
,  // measure 15
0001
0000
0001
0000
0001
0301
0001
0000
,  // measure 16
0001
0000
0100
0000
0001
0000
0100
0000
1000
0000
0010
0000
0100
0010
0002
0000
,  // measure 17
0100
0000
0100
0000
0100
0103
1000
0100
,  // measure 18
1100
0010
1001
0100
,  // measure 19
0101
1000
0110
1000
,  // measure 20
0101
1000
0011
0100
,  // measure 21
1100
0000
0010
0000
0001
0100
1001
0000
,  // measure 22
1001
1000
0101
1000
,  // measure 23
0101
1000
0110
1000
,  // measure 24
0110
0001
1001
0100
,  // measure 25
0011
0000
0100
0000
0001
0000
0100
0001
0100
0001
0100
0000
1001
0000
0000
0000
,  // measure 26
2010
0000
3001
0010
1000
0010
1100
0000
,  // measure 27
0120
0000
0031
0100
1000
0100
0011
0000
,  // measure 28
2010
0000
3001
1000
0100
1000
0110
0000
,  // measure 29
0021
0000
1030
0010
0001
0100
1001
0000
,  // measure 30
0110
0000
1100
0010
1000
0100
0011
0010
,  // measure 31
0011
0000
0010
0100
0001
1000
0010
0100
,  // measure 32
0101
0000
1000
0100
1000
0100
1000
0000
,  // measure 33
0010
0001
0010
0000
0001
0000
0100
0001
,  // measure 34
0101
0000
1100
0000
0110
0000
1010
1010
,  // measure 35
0011
0000
1001
0000
1100
0101
0101
0000
,  // measure 36
1100
0100
1200
0000
0001
0000
0310
0000
,  // measure 37
1010
0001
0100
1000
0010
0001
1100
1000
,  // measure 38
0100
0010
0001
0001
0011
1000
0010
0001
,  // measure 39
1000
0010
1100
1000
0001
0010
0001
1000
,  // measure 40
0101
0100
1000
0100
1000
0010
0010
0001
,  // measure 41
0010
0000
0001
0000
1001
0101
0000
1100
,  // measure 42
0101
0000
0011
0101
0000
1100
0101
0000
,  // measure 43
1001
0000
1000
0100
0010
0000
0000
0000
0202
0000
0000
0000
0000
0000
0000
0000
,  // measure 44
0000
0000
0000
0303
2020
0000
0000
0000
,  // measure 45
0000
0000
3030
0000
0011
1100
0011
1001
,  // measure 46
0010
0100
0010
0100
0010
0100
0010
0100
0010
0000
0000
0000
1100
0000
0000
0000
,  // measure 47
0011
0000
1010
0000
0110
0000
1000
0210
,  // measure 48
0000
0000
0301
0000
1000
0000
0000
0000
0010
0000
1000
0001
0100
0000
0001
0100
,  // measure 49
1000
0010
0100
0000
1000
0010
0001
0100
,  // measure 50
1000
0000
0010
0000
0001
0000
1000
0000
0010
0000
0000
0000
0100
0010
0100
0010
,  // measure 51
0100
0010
0100
0000
1000
0000
0000
0000
0010
0000
0000
0000
1000
0100
1000
0100
,  // measure 52
1000
0100
0002
0100
0000
0000
1000
0000
,  // measure 53
0103
0000
0001
0000
0010
0000
0001
0100
,  // measure 54
0001
0100
0010
0100
1100
0000
0101
0000
,  // measure 55
1010
0000
0101
0000
1000
0100
1000
0200
,  // measure 56
0000
0301
2001
0000
3001
1000
0010
0100
,  // measure 57
1000
0010
1000
0000
0101
0000
1000
0000
,  // measure 58
0010
1000
0010
1000
0101
0000
1000
0010
,  // measure 59
1000
0001
0100
1000
0010
0000
0101
0000
,  // measure 60
1002
0000
0103
1000
0200
0000
0301
1000
,  // measure 61
0010
0100
2000
0000
3100
1000
0100
0010
,  // measure 62
1000
0001
1000
0010
1100
0000
1000
0010
,  // measure 63
1000
0000
0100
0110
1000
0000
0001
1000
,  // measure 64
0010
1000
0001
1000
1001
1000
0010
0000
,  // measure 65
0100
1000
0010
0110
0000
1000
0100
0000
,  // measure 66
1100
0110
1001
0110
0000
0000
0000
0000
;
