#TITLE:あなたに出会わなければ ~夏雪冬花~;
#SUBTITLE:夏雪 ランデブー ED;
#ARTIST:Aimer;
#TITLETRANSLIT:Anata ni Deawanakereba ~Natsuyuki Fuyuhana~;
#SUBTITLETRANSLIT:Natsuyuki Rendezvous ED;
#ARTISTTRANSLIT:;
#GENRE:ANIMATION BEAT#0;
#CREDIT:;
#BANNER:Anata ni Deawanakereba ~Natsuyuki Fuyuhana~.png;
#BACKGROUND:Anata ni Deawanakereba ~Natsuyuki Fuyuhana~-bg.png;
#LYRICSPATH:;
#CDTITLE:cdtitle.png;
#MUSIC:Anata ni Deawanakereba ~Natsuyuki Fuyuhana~.mp3;
#OFFSET:3.245;
#SAMPLESTART:46.000;
#SAMPLELENGTH:12.000;
#LASTBEATHINT:5.464;
#SELECTABLE:YES;
#BPMS:0.000=146.000
;
#STOPS:
;
#BGCHANGES:;
#KEYSOUNDS:;
#ATTACKS:;

//---------------dance-single - ----------------
#NOTES:
     dance-single:
     :
     Challenge:
     11:
     0.405,0.470,0.078,0.515,0.078,200.000,7.000,46.000,0.000,0.000,0.000,0.405,0.470,0.078,0.515,0.078,200.000,7.000,46.000,0.000,0.000,0.000:
0000
0000
0000
0000
,
0000
0000
0000
0000
,
2000
0000
3020
0000
,
0230
0000
0302
0000
,
2003
0000
0000
0000
,
3001
0000
0100
0000
,
0020
0000
0130
0002
0000
0000
1003
0020
,
0000
0000
0230
0000
0000
0000
0301
2000
,
0000
0000
0000
0010
,
3002
0000
0000
0203
0000
0000
0320
0000
,
0000
0000
0000
0000
,
0030
0000
1000
0200
0000
0320
0000
1030
,
0002
1000
1000
1000
,
1003
0000
0000
0000
0100
0001
0010
1000
,
0010
1000
0001
0000
0000
0010
0100
0001
,
0100
0001
0010
0000
0000
0000
1000
0000
,
0100
0000
0010
0200
0000
0000
0301
2000
,
0000
0000
3000
0000
0010
0000
0000
0200
0000
0000
0000
0000
0302
0000
0000
0000
,
0103
0001
1000
0000
0000
1000
0100
0001
,
0100
0010
1000
0000
0000
0000
2000
0000
,
3100
0000
0020
0000
0031
0000
1000
0020
,
0000
0000
0000
0000
0030
0100
2000
0000
,
3001
0000
0200
0000
0310
0000
1000
0002
,
0000
0000
0103
0020
,
1030
0000
0200
0000
0310
0000
0001
2000
,
0000
0000
3100
0000
0010
1000
0001
0000
,
1000
0000
0010
0200
0000
0000
0301
0100
,
0000
0000
1000
0002
0000
0000
0013
1000
,
0000
1100
0101
0000
,
0011
0000
1010
0000
0100
0001
0100
0000
,
1010
0000
0100
0002
0000
0000
1003
0100
,
0010
0000
0100
0000
0010
0000
0200
0000
0000
0000
0000
0000
0310
0000
0000
2000
,
0000
0000
0000
3001
,
0200
0000
0000
0000
0310
1000
0100
0010
,
0001
0000
1000
0020
0000
0000
0130
0002
,
0000
0000
0000
0000
2003
0000
3010
0100
,
0010
0000
1000
0100
0010
0000
0001
0100
,
0020
0000
0000
0000
1030
0000
0001
0100
,
0010
0000
1000
0100
0001
0000
0001
0100
,
1000
0000
0000
0010
0000
0000
1000
0100
1000
0010
0100
0001
,
0110
0000
1000
0002
0000
0000
0013
2000
,
0000
3001
0100
0010
,
0200
0000
0000
0301
,
1000
0000
0000
0000
0100
1000
0100
0010
,
0001
0000
0001
0000
0010
0000
0100
0010
,
0000
0000
0000
0000
1000
0000
0100
0010
,
0001
0100
0002
0000
,
0000
0000
0000
0000
1003
0000
0100
0001
,
0010
0000
1000
0002
0000
0000
0000
0003
,
0100
0010
0100
0010
,
1000
0001
0100
0000
,
1000
0100
0010
1000
0001
0100
0010
1000
0001
0100
0010
1000
,
2002
0000
0000
0000
,
0000
0000
0000
0000
,
0000
0000
0000
0000
,
0000
0000
0000
0000
,
3003
0000
0000
0000
;

//---------------dance-single - ----------------
#NOTES:
     dance-single:
     :
     Hard:
     9:
     0.326,0.314,0.090,0.358,0.000,164.000,8.000,32.000,0.000,0.000,0.000,0.326,0.314,0.090,0.358,0.000,164.000,8.000,32.000,0.000,0.000,0.000:
0000
0000
0000
0000
,
0000
0000
0000
0000
,
2000
0000
3020
0000
,
0032
0000
2003
0000
,
3001
0000
0100
0000
,
0010
0000
1000
0000
,
0020
0000
2030
0000
,
3200
0000
0302
0000
,
1003
0000
0000
1000
,
0002
0000
0000
2003
0000
0000
3020
0000
,
0000
0000
0000
0000
,
0130
1000
0001
1000
,
0020
0000
0000
0000
,
0031
1000
0001
1000
,
0001
1000
0001
0000
0100
0000
0010
0000
,
0100
0010
0100
0000
0010
0000
1000
0000
,
0100
0001
1000
0010
,
0100
0001
1000
0000
,
0001
1000
0001
0000
0100
0000
0001
0000
,
0100
0010
0100
0000
1000
0000
0100
0000
,
0001
0000
0010
0000
1000
0000
0010
0001
,
0000
0100
0010
1000
,
0002
0000
2003
0000
,
3100
0100
0001
0000
,
2000
0000
3002
0000
,
0013
0010
1000
0100
,
0002
0000
2003
0000
,
3002
0000
2003
0000
,
3000
0110
0101
0000
,
0110
0000
1100
0000
0100
0010
0000
0000
,
0201
0001
1000
0000
,
0010
0010
0001
0000
,
0320
0001
0001
0000
,
0100
0000
0100
0000
1030
0100
0010
0001
,
0002
0010
0010
0000
,
0100
0100
1000
0000
,
2003
0100
0100
0000
,
0001
0000
0001
0000
0001
0000
3001
1000
,
0100
0010
0100
0010
,
1000
0100
0010
0000
0001
0010
0100
0000
,
0210
0010
0001
0000
,
0010
0010
0001
0000
,
2300
0100
0100
0000
,
0010
0000
0010
0000
0001
0001
0001
0000
,
3002
0100
0100
0000
,
0010
0010
0010
0000
,
0023
0100
0001
0000
,
0001
0100
1000
0100
,
1030
0100
0002
0000
,
2003
0000
3001
0100
,
0110
0001
0010
0100
,
1000
0100
0010
0000
0001
0000
1000
0000
,
2002
0000
0000
0000
,
0000
0000
0000
0000
,
0000
0000
0000
0000
,
0000
0000
0000
0000
,
3003
0000
0000
0000
;

//---------------dance-single - ----------------
#NOTES:
     dance-single:
     :
     Medium:
     6:
     0.238,0.251,0.067,0.123,0.000,132.000,6.000,11.000,0.000,0.000,0.000,0.238,0.251,0.067,0.123,0.000,132.000,6.000,11.000,0.000,0.000,0.000:
0000
0000
0000
0000
,
0000
0000
0000
0000
,
1000
0100
0001
0000
,
0001
0100
1000
0000
,
1000
0000
1000
0000
,
0001
0000
0001
0000
,
1000
0010
0001
0000
,
0001
0010
1000
0000
,
0001
0000
0001
0000
,
1000
0000
1000
0000
,
0200
0000
0000
0000
,
0310
0010
0001
0000
,
0020
0000
0000
0000
,
0030
0000
0100
0000
,
0001
1000
0001
0000
,
1000
0001
1000
0000
,
0010
0100
0010
0000
,
1000
0001
1000
0000
,
0001
0010
0001
0000
,
1000
0100
1000
0000
,
0001
0100
0001
0000
,
1000
0010
1000
0000
,
2000
0000
0010
0000
,
3001
0000
0010
0000
,
0002
0000
0010
0000
,
1003
0000
0100
0000
,
0010
1000
0001
0000
,
0010
0001
1000
0000
,
0000
0001
0101
0000
,
1000
1100
0010
0000
,
1001
0100
0010
0000
,
0001
0100
0010
0000
,
2000
0000
0000
0000
,
0002
0000
3003
0000
,
0101
0010
1000
0000
,
1000
0100
0010
0000
,
0001
0100
0010
0000
,
1000
0100
0001
0000
,
1000
0010
1000
0000
,
1000
0100
0001
0100
,
2000
0000
3001
0100
,
0010
0001
0010
0100
,
0002
0000
0000
0000
,
2000
0000
3003
0000
,
0110
1000
0100
0000
,
0001
0100
1000
0000
,
0010
0100
0010
0000
,
0100
0001
0100
0000
,
1000
0100
1000
0000
,
0010
0100
0001
1000
,
0010
1000
0001
0000
,
1000
0010
0100
0001
,
2002
0000
0000
0000
,
0000
0000
0000
0000
,
0000
0000
0000
0000
,
0000
0000
0000
0000
,
3003
0000
0000
0000
;

//---------------dance-single - ----------------
#NOTES:
     dance-single:
     :
     Easy:
     4:
     0.213,0.251,0.056,0.470,0.000,86.000,5.000,42.000,0.000,0.000,0.000,0.213,0.251,0.056,0.470,0.000,86.000,5.000,42.000,0.000,0.000,0.000:
0000
0000
0000
0000
,
0000
0000
0000
0000
,
1000
0000
0100
0000
,
0001
0000
0100
0000
,
2000
0000
0000
0000
,
3000
0000
0000
0000
,
0001
0000
0010
0000
,
1000
0000
0010
0000
,
0002
0000
0000
0000
,
0003
0000
0200
0000
,
0020
0000
0000
0000
,
0330
0000
0002
0000
,
2000
0000
0000
0000
,
3003
0000
0010
0000
,
1001
0000
0100
0000
,
0010
0000
0000
0000
,
2000
0000
3002
0000
,
2003
0000
3001
0000
,
0010
0000
0100
0000
,
0010
0000
0100
0000
,
0020
0000
0230
0000
,
0320
0000
0130
0000
,
1000
0100
0000
0000
,
0001
0010
0000
0000
,
1000
0001
0000
0000
,
0001
1000
0000
0000
,
2000
0000
3002
0000
,
0203
0000
0320
0000
,
1030
0000
1001
0000
,
0000
0110
0000
0000
,
2000
0000
3200
0000
,
0320
0000
0032
0000
,
2003
0000
0000
0000
,
0002
0000
3003
0000
,
0002
0003
0020
0030
,
0200
0300
2000
3000
,
0001
1000
0001
0000
,
1000
0000
0001
0000
,
1000
0000
0100
0000
,
0010
0000
0001
0000
,
0002
0000
0023
0000
,
0230
0000
2300
0000
,
3002
0000
0000
0000
,
2000
0000
3003
0000
,
0200
0300
0020
0030
,
0002
0003
2000
3000
,
0200
0000
0301
0000
,
0020
0000
1030
0000
,
2000
0000
3001
0000
,
0002
0000
1003
0000
,
1001
0000
0000
0000
,
1000
0000
0001
0000
,
2002
0000
0000
0000
,
0000
0000
0000
0000
,
0000
0000
0000
0000
,
0000
0000
0000
0000
,
3003
0000
0000
0000
;

//---------------dance-single - ----------------
#NOTES:
     dance-single:
     :
     Beginner:
     1:
     0.085,0.087,0.034,0.000,0.000,50.000,3.000,0.000,0.000,0.000,0.000,0.085,0.087,0.034,0.000,0.000,50.000,3.000,0.000,0.000,0.000,0.000:
0000
0000
0000
0000
,
0000
0000
0000
0000
,
1000
0000
0000
0000
,
0001
0000
0000
0000
,
0100
0000
0000
0000
,
0000
0000
0000
0000
,
0010
0000
0000
0000
,
0001
0000
0000
0000
,
1000
0000
0000
0000
,
0100
0000
0000
0000
,
0010
0000
0000
0000
,
0001
0000
0000
0000
,
1000
0000
0000
0000
,
0000
0000
0000
0000
,
1000
0000
0000
0000
,
0001
0000
0000
0000
,
0100
0000
0000
0000
,
0010
0000
0000
0000
,
1000
0000
0000
0000
,
0001
0000
0000
0000
,
1000
0000
0000
0000
,
0001
0000
0000
0000
,
0100
0000
0000
0000
,
0010
0000
0000
0000
,
0001
0000
0000
0000
,
1000
0000
0000
0000
,
0001
0000
0000
0000
,
0001
0000
0000
0000
,
1000
0000
0000
0000
,
1001
0000
0000
0000
,
0110
0000
0000
0000
,
1000
0000
0000
0000
,
0001
0000
0000
0000
,
0010
0000
0000
0000
,
0100
0000
0000
0000
,
1000
0000
0000
0000
,
0001
0000
0000
0000
,
1000
0000
0000
0000
,
0010
0000
0000
0000
,
0100
0000
0000
0000
,
0001
0000
0000
0000
,
0001
0000
0000
0000
,
1000
0000
0000
0000
,
1000
0000
0000
0000
,
0100
0000
0000
0000
,
0100
0000
0000
0000
,
0010
0000
0000
0000
,
0010
0000
0000
0000
,
0001
0000
0000
0000
,
0001
0000
0000
0000
,
1000
0000
0000
0000
,
0001
0000
1000
0000
,
1001
0000
0000
0000
;
