#TITLE:愛のせいで眠れない;
#SUBTITLE:はぐれ勇者の鬼畜美学 ED;
#ARTIST:美郷 あき;
#TITLETRANSLIT:Ai no Sei de Nemurenai;
#SUBTITLETRANSLIT:Hagure Yuusha no Estethica ED;
#ARTISTTRANSLIT:Aki Misato;
#GENRE:ANIMATION BEAT#0;
#CREDIT:;
#BANNER:Ai no Sei de Nemurenai.png;
#BACKGROUND:Ai no Sei de Nemurenai-bg.png;
#LYRICSPATH:;
#CDTITLE:cdtitle.png;
#MUSIC:Ai no Sei de Nemurenai.mp3;
#MENUCOLOR:0,0,1,1;
#METERTYPE:DDR X;
#OFFSET:0.005;
#SAMPLESTART:57.831;
#SAMPLELENGTH:12.000;
#SELECTABLE:YES;
#BPMS:0.000=168.000;
#STOPS:;
#BGCHANGES:;

//---------------dance-single - ----------------
#NOTES:
     dance-single:
     :
     Hard:
     12:
     0.477,0.481,0.147,0.429,0.000:
0000
0000
0000
0000
,
0000
0000
0000
0000
,
0000
0000
0000
0000
,
0000
0000
0000
0000
,
0000
0000
0000
0000
,
2000
0000
3001
0100
0000
0010
0000
2000
,
0000
0000
3010
0100
0000
0001
0000
2000
,
0000
3010
0100
0000
0010
0000
0100
0001
,
2000
0000
3002
0000
,
1003
0100
0010
0001
,
0100
0010
1000
0001
,
1001
0100
0010
0100
,
0002
1003
0010
0100
,
2000
3200
0320
0032
,
1003
0000
0100
0000
0010
0100
0000
0010
,
0100
1000
0200
0310
,
2000
3001
0100
0010
,
0002
0023
0230
2300
,
3001
0000
0100
0000
0010
1000
0001
1000
,
0001
0100
0010
0010
,
1000
0100
0010
0001
,
2000
3200
0320
2030
,
3001
0000
0100
0000
0010
0100
0000
0001
,
0200
0310
0002
1003
,
0200
0310
0001
0100
,
0002
0023
0230
0301
,
1000
0010
0100
0010
,
1001
0000
0100
0001
0000
0001
0100
0000
,
1010
0110
0011
0100
,
0001
0000
1000
0010
0000
0100
0001
0000
,
0101
0011
0110
1000
,
0200
0000
0310
1000
0000
0000
0110
0000
,
0001
0000
1000
0000
0010
0000
0100
0001
,
2000
0000
0001
0000
,
3010
0100
0010
1000
,
0001
0000
1000
0001
0000
0001
1000
0000
,
0010
0000
0100
0010
0000
0010
0100
0000
,
0002
0000
1003
0001
0000
0100
0001
0000
,
1000
0100
0010
1000
,
0001
0000
1000
0001
1000
0000
0001
1000
,
0000
0001
1000
0000
0001
0000
0100
0000
,
0210
1000
0010
0010
,
0302
1000
0010
0010
,
0103
0000
0010
1000
0000
0010
0000
2000
,
0000
0000
0000
0000
0000
3001
1000
0001
,
1000
0000
0100
0010
0000
1000
0000
0002
,
0000
0000
1003
0010
,
0100
0000
0010
0100
0020
0000
0000
0000
,
1000
0000
1030
0001
,
2001
0000
0010
0010
,
3002
0000
0100
0010
,
1003
0000
0010
0100
0000
0001
0000
0101
,
0000
1000
0010
0000
0100
0000
0001
1000
,
0001
0000
0100
0010
0000
1000
0100
0010
,
0000
0001
0100
0000
0001
0000
1000
0100
,
0010
0000
0100
0001
0000
0100
0001
1000
,
0002
0000
2003
0000
,
3001
0000
0100
0001
0100
0000
0001
1000
,
0001
1000
0001
0000
0100
0010
0100
0000
,
1000
0001
1000
0001
1000
0000
0100
0010
,
0100
0001
0100
0000
1000
0100
0010
1001
;

//---------------dance-single - ----------------
#NOTES:
     dance-single:
     :
     Easy:
     5:
     0.230,0.274,0.068,0.248,0.000:
0000
0000
0000
0000
,
0000
0000
0000
0000
,
0000
0000
0000
0000
,
0000
0000
0000
0000
,
0000
0000
0000
0000
,
1000
0000
0001
0000
,
0100
0000
0010
0000
,
1000
1000
1000
0000
,
0002
0000
2000
0000
,
0000
0000
0000
0000
,
0000
0000
0000
3003
,
2000
0000
3010
0000
,
0020
0000
0031
0000
,
1000
0000
0001
0000
,
1000
0000
0000
0000
,
0020
0000
0031
0000
,
0200
0000
1300
0000
,
0001
0000
1000
0000
,
0001
0000
0000
0000
,
2000
0000
3010
0000
,
0200
0000
0301
0000
,
0020
0000
0130
0000
,
0100
0000
0000
0000
,
2000
0000
3001
0000
,
0002
0000
1003
0000
,
0200
0000
0301
0000
,
1001
0000
0000
0000
,
0110
0000
0000
0000
,
0100
0100
0100
0000
,
1001
0000
0000
0000
,
0001
0001
0001
0000
,
0200
0000
0310
0000
,
2000
0000
3001
0000
,
2000
0000
0000
0000
,
3002
0000
0000
0000
,
0103
0010
0100
0000
,
0100
0010
0100
0000
,
0001
1000
0001
0000
,
0000
1000
0001
1000
,
0002
0000
1003
0000
,
1000
0000
0000
0000
,
1001
0000
0100
0000
,
0110
0000
0010
0000
,
1001
0000
0000
0000
0100
0000
0000
0001
,
1000
0000
0000
0100
,
0010
1000
0100
0010
,
0001
0000
1000
0001
,
2000
0000
0002
0000
,
3003
0000
1000
0001
,
1000
0000
0010
0100
,
0010
0000
0100
0001
,
1000
0000
0000
0010
0000
0100
0000
0010
,
0000
0000
0000
1000
,
0001
1000
0100
0010
,
0100
0000
0000
0001
,
1000
0001
0100
0010
,
2000
0000
3002
0000
,
2000
0000
0000
3003
,
0000
0000
1000
0001
,
1000
0000
0000
0000
,
0000
0000
0100
0001
;

//---------------dance-single - ----------------
#NOTES:
     dance-single:
     :
     Medium:
     7:
     0.316,0.378,0.158,0.304,0.000:
0000
0000
0000
0000
,
0000
0000
0000
0000
,
0000
0000
0000
0000
,
0000
0000
0000
0000
,
0000
0000
0000
0000
,
2000
0000
3001
0000
,
0002
0000
1003
0000
,
0200
0000
0310
0000
,
0020
0000
0130
0000
,
2002
0000
0000
0000
,
0000
0000
3003
0110
,
2000
0000
3001
0000
,
0002
0000
1003
0000
,
1000
0100
0010
0001
,
1000
0000
0000
0000
,
0002
0000
1003
0000
,
2000
0000
3001
0000
,
0001
0010
0100
1000
,
0001
0000
0000
0000
0000
1000
1000
1000
,
0020
0000
0130
0000
,
0200
0000
0310
0000
,
0001
0100
0010
1000
,
0001
0000
0000
0000
,
0200
0000
0310
0000
,
0020
0000
0130
0000
,
1000
0010
0100
0001
,
1000
0000
0001
1000
,
0002
0000
0100
0000
,
1003
0000
0100
0000
,
2000
0000
0100
0000
,
3001
0000
0100
0010
,
0002
0000
0100
0000
,
1003
0100
0010
0100
,
2000
0000
3001
0000
,
0002
0000
1003
0000
,
0110
0000
1001
0000
,
0110
0000
1001
0000
,
0110
0000
1001
0000
,
0000
1000
0100
0010
,
0012
0000
0000
0000
0100
0000
0000
1000
,
0000
1000
0000
0003
,
1100
0010
1000
0010
,
0011
0100
0001
0100
,
0110
0000
1000
0001
0000
1000
0000
0002
,
0000
0000
0000
0000
0000
0003
1000
0001
,
1000
0000
0100
0010
0000
0100
0000
0010
,
0000
0000
0100
0001
,
2000
0000
0000
3001
2000
0000
0000
0000
,
0000
0000
3010
0100
,
0101
0000
0010
0100
,
1010
0000
0100
0001
,
1000
0000
0001
1000
0000
0001
0000
2000
,
0000
0000
0000
0000
3000
0000
0001
1000
,
0001
0000
0100
0010
0000
0100
0000
0020
,
0000
0000
0000
0000
,
1030
0000
0001
1000
0000
0000
0001
0000
,
2000
0000
3002
0000
,
1003
0000
0000
0001
1000
0000
0001
1000
,
0000
0001
1000
0000
0010
0000
0010
0000
,
1000
0001
0000
1000
0001
0000
1000
0001
,
0000
1000
0001
0000
0100
0010
0100
0010
;

//---------------dance-single - ----------------
#NOTES:
     dance-single:
     :
     Beginner:
     2:
     0.122,0.169,0.113,0.000,0.000: // measure 1
0000
0000
0000
0000
,  // measure 2
0000
0000
0000
0000
,  // measure 3
0000
0000
0000
0000
,  // measure 4
0000
0000
0000
0000
,  // measure 5
0000
0000
0000
0000
,  // measure 6
1001
0000
0000
0000
,  // measure 7
0100
0000
0000
0000
,  // measure 8
0010
0000
0000
0000
,  // measure 9
0001
0000
0000
0000
,  // measure 10
1000
0000
0000
0000
,  // measure 11
1000
0000
0000
0000
,  // measure 12
0001
0000
0000
0000
,  // measure 13
0001
0000
0000
0000
,  // measure 14
0100
0000
0100
0000
,  // measure 15
0100
0000
0000
0000
,  // measure 16
0010
0000
0000
0000
,  // measure 17
0001
0000
0000
0000
,  // measure 18
0010
0000
0010
0000
,  // measure 19
0010
0000
0000
0000
,  // measure 20
1000
0000
1000
0000
,  // measure 21
1000
0000
0000
0000
,  // measure 22
0001
0000
0001
0000
,  // measure 23
0001
0000
0000
0000
,  // measure 24
0010
0000
0010
0000
,  // measure 25
0010
0000
0000
0000
,  // measure 26
0100
0000
0100
0000
,  // measure 27
0100
0000
0000
0000
,  // measure 28
1001
0000
0000
0000
,  // measure 29
1000
0000
1000
0000
,  // measure 30
0001
0000
0000
0000
,  // measure 31
0001
0000
0001
0000
,  // measure 32
1000
0000
0000
0000
,  // measure 33
0100
0000
0100
0000
,  // measure 34
0010
0000
0000
0000
,  // measure 35
0010
0000
0010
0000
,  // measure 36
0100
0000
0000
0000
,  // measure 37
0110
0000
0000
0000
,  // measure 38
0110
0000
0000
0000
,  // measure 39
0000
0000
0000
0000
,  // measure 40
1000
0000
1000
0000
,  // measure 41
1000
0000
0000
0000
,  // measure 42
1001
0000
0000
0000
,  // measure 43
1001
0000
0000
0000
,  // measure 44
0100
0000
0000
0000
,  // measure 45
0010
0000
0000
0000
,  // measure 46
0010
0000
0000
0000
,  // measure 47
1000
0000
0000
0000
,  // measure 48
0001
0000
0000
0000
,  // measure 49
1000
0000
0000
0000
,  // measure 50
1001
0000
0000
0000
,  // measure 51
1001
0000
0000
0000
,  // measure 52
1001
0000
0000
0000
,  // measure 53
0100
0000
0000
0000
,  // measure 54
0010
0000
0000
0000
,  // measure 55
0001
0000
0000
0000
,  // measure 56
1000
0000
0000
0000
,  // measure 57
0001
0000
0000
0000
,  // measure 58
1001
0000
0000
0000
,  // measure 59
0100
0000
0000
0000
,  // measure 60
0010
0000
0000
0000
,  // measure 61
0100
0000
0000
0000
;
