#TITLE:crossing field;
#SUBTITLE:[FULL SONG] ソードアート.オンライン OP;
#ARTIST:LiSA;
#TITLETRANSLIT:;
#SUBTITLETRANSLIT:[FULL SONG] Sword Art Online OP;
#ARTISTTRANSLIT:;
#CREDIT:;
#GENRE:ANIMATION FULL LENGTH;
#BANNER:[Full Song] crossing field.png;
#BACKGROUND:[Full Song] crossing field-bg.png;
#LYRICSPATH:;
#CDTITLE:cdtitle.png;
#MUSIC:[Full Song] crossing field.mp3;
#METERTYPE:DDR X;
#MENUCOLOR:0,0,1,1;
#OFFSET:-1.099;
#SAMPLESTART:46.000;
#SAMPLELENGTH:12.000;
#SELECTABLE:YES;
#BPMS:0.000=179.00;
#STOPS:570.000=0.670
;
#BGCHANGES:;

//---------------dance-single - ----------------
#NOTES:
     dance-single:
     :
     Challenge:
     16:
     0.726,1.000,0.458,0.219,0.257: // measure 1
0000
0000
0000
0000
,  // measure 2
0000
0000
0000
0000
,  // measure 3
0000
0000
0000
0000
,  // measure 4
0000
0000
0000
0000
,  // measure 5
0001
0200
0001
0302
1000
2003
0010
3010
,  // measure 6
0200
0000
0301
0200
0001
0302
1000
1003
,  // measure 7
0101
0010
1000
1010
0010
0100
0001
0110
,  // measure 8
0000
1000
0100
0010
0000
0001
0100
0000
,  // measure 9
1010
0100
0010
0001
,  // measure 10
0100
1000
0100
0010
,  // measure 11
0002
1000
0000
0000
0100
0000
0000
0000
0010
0000
0000
0000
1000
0000
0000
0000
,  // measure 12
0010
1000
0103
0002
,  // measure 13
1003
0100
0010
0100
0001
1000
0000
0100
,  // measure 14
0010
0100
0010
0000
1000
0100
2000
0000
,  // measure 15
3100
0100
0010
0001
0100
0010
1000
0020
,  // measure 16
0000
0000
0031
0000
0100
0000
0010
0000
0100
0000
0010
0100
1000
0010
0100
0001
,  // measure 17
0010
0001
1001
0100
0010
0011
0101
1010
,  // measure 18
0110
0000
0010
0001
0100
0010
1000
0100
0010
0001
1000
0100
0020
0000
1030
0000
,  // measure 19
0001
0100
0010
1000
0100
0010
1000
0001
,  // measure 20
0000
0000
0000
0000
1000
0000
0010
0000
0100
0000
0001
1000
0000
0000
0100
0000
,  // measure 21
0010
0000
0100
0001
0000
0000
1000
0000
0100
0000
0010
0000
0100
0001
0000
0000
,  // measure 22
1000
0000
0100
0000
0010
1000
0000
0000
0001
0000
0000
0000
0000
0000
0000
0000
,  // measure 23
0000
0000
0000
0000
0100
0001
0000
0001
,  // measure 24
1000
0010
0100
1001
,  // measure 25
0100
0010
1000
0001
,  // measure 26
0100
0010
1000
1001
,  // measure 27
0100
0000
0010
0000
0100
0000
0010
0100
,  // measure 28
0010
0000
1000
0001
1000
0000
0101
0000
,  // measure 29
0100
0010
0000
0001
1000
0000
0010
0000
,  // measure 30
0100
0010
0002
0000
1000
0000
1003
0000
,  // measure 31
1000
0001
1000
0000
1001
0000
0100
0010
,  // measure 32
0100
0000
0010
0000
1100
0000
0000
0000
0011
0000
0000
1100
0000
0000
0110
0000
,  // measure 33
1001
0000
0000
0100
0000
0010
0100
0000
,  // measure 34
2002
0000
0000
3003
,  // measure 35
0110
1000
0110
1000
0101
0000
0110
0001
,  // measure 36
0110
0001
1100
0000
0110
1000
0010
0100
,  // measure 37
0201
0010
1000
0310
,  // measure 38
1001
0000
0000
0000
0110
0000
0000
0000
0110
0000
0000
1000
0100
0000
0010
0000
,  // measure 39
1000
0000
0001
0010
0001
0000
0101
0000
0000
0000
0100
0010
0100
0000
0110
0000
,  // measure 40
0000
0000
0010
0100
0010
0000
0110
0000
0000
0000
0100
0001
0100
0000
0101
0000
,  // measure 41
0000
1000
0100
0010
1000
0010
0100
0000
,  // measure 42
0000
1000
0100
0010
,  // measure 43
0001
0100
0000
0100
1000
0000
0000
0000
,  // measure 44
1000
0100
0010
0000
0001
0200
0000
0000
,  // measure 45
2300
3200
0320
2030
,  // measure 46
3001
0000
0100
0000
0010
0100
0000
0001
,  // measure 47
0200
0310
0002
1003
,  // measure 48
0200
0310
0001
0100
,  // measure 49
0002
0023
0230
0301
,  // measure 50
1000
0000
0000
0000
0010
0000
0000
0000
0001
0000
0100
0010
1000
0100
0001
0100
,  // measure 51
1000
0000
1000
0100
0010
0000
0001
0100
,  // measure 52
0000
0000
0001
0000
0100
0000
0000
0000
1000
0000
0100
0000
0010
1000
0001
0000
,  // measure 53
0000
0110
0000
0010
1000
0010
0100
0110
,  // measure 54
0000
0110
0000
0110
0000
1000
0010
0000
,  // measure 55
0110
1000
0100
0010
,  // measure 56
0001
0000
0000
0000
0100
0000
0000
0000
0010
0000
1000
0000
0001
0000
1000
0001
,  // measure 57
1000
1100
0000
0001
0011
0000
0100
0110
,  // measure 58
0000
0000
1000
0000
0100
0000
0000
0000
0010
0000
1000
0100
0001
0010
0100
1000
,  // measure 59
0010
0000
0000
0000
0100
0000
0010
0001
1000
0000
0001
0100
0000
0100
0010
0000
,  // measure 60
0200
1000
1300
0000
1000
0100
0020
0000
,  // measure 61
0130
0000
0000
0000
1000
0000
0100
1000
0010
0000
0001
1000
0000
1000
0001
0000
,  // measure 62
0200
0001
0301
0000
0100
0000
0010
1000
,  // measure 63
0011
0000
0000
1100
0000
0000
0011
0000
0000
0000
0000
0000
0000
0000
0000
0000
,  // measure 64
1010
0100
0010
0001
0100
0010
0100
0010
,  // measure 65
0110
1000
0100
0001
0010
0100
0010
0100
,  // measure 66
0011
0100
0010
0100
0110
1000
0100
0010
,  // measure 67
1100
0000
0010
0000
0110
0000
0010
0000
0011
0000
0100
0000
0110
0000
1000
0100
,  // measure 68
2000
0000
0100
0000
0010
0000
0001
3000
,  // measure 69
0002
0010
0100
1003
,  // measure 70
2000
0100
0010
3010
,  // measure 71
0002
0010
0100
0103
,  // measure 72
0100
0000
1000
0000
0100
0000
0010
0001
0010
0000
0100
0000
0010
0000
0000
0000
,  // measure 73
1000
0000
0100
0000
0010
0000
0010
0001
0100
0000
0010
0000
0100
0000
0000
0000
,  // measure 74
0001
0000
0001
0000
0100
0000
0010
0100
1000
0000
0010
0000
0100
0000
0000
0000
,  // measure 75
1000
0000
0100
0000
0010
0000
0001
0010
0100
0000
0010
0000
0100
0000
0000
0000
,  // measure 76
1000
1000
0100
0100
0100
0010
0010
0010
,  // measure 77
1000
1000
1000
1000
0001
0001
0001
0001
,  // measure 78
1000
0000
0000
0000
0100
1000
0100
0010
,  // measure 79
0001
0000
0001
0000
0010
0000
0100
0010
,  // measure 80
0000
0000
0000
0000
1000
0000
0100
0010
,  // measure 81
0001
0100
0002
0000
,  // measure 82
0000
0000
0000
0000
1003
0000
0100
0001
,  // measure 83
0010
0000
1000
0002
0000
0000
0000
0003
,  // measure 84
1000
0100
0010
0000
0100
0001
0010
0000
0100
0010
1000
0000
0100
1000
0100
0000
,  // measure 85
0010
0001
0010
0000
0100
0010
0100
0000
0100
0010
0100
0000
0100
0010
0100
0000
,  // measure 86
0100
0010
0100
0000
0100
0010
0100
0000
0001
0010
0100
0000
0001
1000
0001
0000
,  // measure 87
1000
0010
1000
0000
0000
0000
0000
0000
0011
0000
0000
1100
0000
0000
0110
0000
,  // measure 88
1001
0000
0000
0100
0000
0010
0100
0000
,  // measure 89
1000
0100
0011
1001
,  // measure 90
0110
0000
0000
1000
0001
0000
1000
0001
0100
0000
0001
0000
0010
0000
1000
0000
,  // measure 91
0002
0000
0100
0100
0100
0100
0100
0100
,  // measure 92
1003
0100
0010
0001
0100
0000
0010
0100
,  // measure 93
0010
0000
1000
0100
0010
0001
0100
0010
,  // measure 94
0010
0100
0010
0000
1000
0000
0100
0000
0010
0000
0000
0000
1000
0000
0100
0000
,  // measure 95
0001
0100
0010
1000
,  // measure 96
0110
0010
0100
0010
0100
0010
0010
1000
,  // measure 97
0100
0010
0010
0010
0100
1000
0001
0001
,  // measure 98
0010
1000
0100
0001
1000
1000
1000
0000
,  // measure 99
0010
0001
0100
0010
0001
0001
0001
0000
,  // measure 100
1000
0100
0010
0010
1000
1000
1000
0000
,  // measure 101
0101
0000
0000
0000
0100
1000
0010
0000
0100
0000
0010
0000
1001
0000
0100
0000
,  // measure 102
0010
0100
1000
0000
1001
0000
0100
0000
0010
0001
1000
0000
1001
0000
0100
0001
,  // measure 103
0010
1000
1001
0100
0010
0100
0010
0100
,  // measure 104
1002
0000
0103
0120
0000
1030
0010
0102
,  // measure 105
0000
0000
0103
0000
0010
0000
0100
0000
0010
0100
0010
0000
0100
0000
0010
0000
,  // measure 106
0110
0000
1000
0100
0010
0001
0100
0000
,  // measure 107
1000
0100
0010
0001
0010
0100
1000
0000
,  // measure 108
0101
0000
1000
0100
0010
0001
1000
0000
,  // measure 109
1000
0100
0001
0100
1000
0010
0001
0000
,  // measure 110
1001
0000
1000
0010
0001
0010
1000
0000
,  // measure 111
0001
1000
0100
0001
1000
0100
0010
0000
,  // measure 112
1002
0000
0103
0210
0000
1300
0001
0000
,  // measure 113
0000
0000
0000
0000
0000
0000
0010
1000
0001
0100
0010
1000
,  // measure 114
1001
0000
0000
0100
0010
0000
1000
0001
,  // measure 115
0000
0100
0010
0000
0001
0000
0000
0000
,  // measure 116
0010
0100
0000
1000
0100
0000
0010
0001
,  // measure 117
0000
0100
0010
0000
1000
0100
0010
0100
,  // measure 118
0110
0000
0000
0000
0100
0001
0100
0001
,  // measure 119
0000
0010
0001
0000
0100
0010
1000
0000
,  // measure 120
0110
0000
1000
0000
0100
0000
0010
1000
,  // measure 121
0000
0100
0010
0000
0100
0001
0100
0000
,  // measure 122
0110
0000
0001
0000
0010
0100
0000
0001
,  // measure 123
0100
0010
0100
0010
,  // measure 124
1010
0100
0010
0100
,  // measure 125
0001
1000
0100
0000
0010
0100
1000
0001
,  // measure 126
1001
0000
0100
0010
0100
0001
1000
0000
,  // measure 127
0100
0010
0001
0100
1000
0100
0010
0001
,  // measure 128
0110
0000
1000
0001
0000
1000
0001
0000
0100
0000
0010
1000
0000
0010
0100
0000
,  // measure 129
0010
0000
0010
0000
1000
0000
1000
0000
0100
0001
0100
0010
0100
0000
0001
1000
,  // measure 130
0010
0100
0110
0100
0101
0000
0011
0010
,  // measure 131
0110
0100
0101
0000
0110
1000
1010
0100
,  // measure 132
0201
0000
0010
0010
0310
1000
0010
0100
,  // measure 133
1001
0000
0000
0000
0110
0000
0000
0000
0011
0000
0100
0010
0100
0000
1000
0000
,  // measure 134
0110
0000
0000
0000
,  // measure 135
0000
0000
0000
0000
,  // measure 136
1002
0000
1000
0000
,  // measure 137
1000
0000
1000
0000
1000
0000
1000
0003
,  // measure 138
2001
0000
0000
0000
0001
0000
0000
0001
,  // measure 139
0000
0000
0000
0000
0001
0000
0001
3000
,  // measure 140
1001
0000
0100
0000
0100
0000
1000
0100
,  // measure 141
0010
0000
0100
0000
1000
0100
0001
0000
,  // measure 142
0100
0010
1000
0100
,  // measure 143
0001
0000
0010
0000
0100
0000
1000
0000
0200
0300
0000
0000
0000
0000
0000
0000
,  // measure 144
1001
0000
0100
0000
0010
0100
0010
0000
,  // measure 145
0001
0010
0100
1000
0100
0010
0001
0000
,  // measure 146
0100
0000
0010
1000
0000
1000
0010
0000
,  // measure 147
0100
0001
0010
0100
1000
0100
0010
0000
,  // measure 148
1000
0000
0001
0100
0000
0100
0001
0000
1000
0000
0100
0010
0000
0010
0001
0000
,  // measure 149
0100
0000
1000
0001
0000
1000
0010
0000
0001
0000
0100
0010
0000
1000
0010
0000
,  // measure 150
0010
0100
0010
0100
0010
0100
0010
0100
0001
1000
0001
1000
0001
1000
0001
1000
,  // measure 151
0000
0000
0010
0100
0010
0000
0100
0010
0000
0100
0010
0000
1001
0000
0000
0000
,  // measure 152
1100
0010
0001
0000
1000
0100
0010
0001
,  // measure 153
0110
1000
1010
0100
0101
0000
1000
0100
,  // measure 154
0010
0100
0001
0000
1000
0100
0010
0001
,  // measure 155
1100
0000
0110
0100
0110
0000
0010
0100
,  // measure 156
0001
0020
0031
0000
0100
0000
1000
0000
0000
0000
0001
0000
0000
0000
0001
0000
,  // measure 157
1000
0200
1300
0000
0010
0000
0001
0000
0000
0000
1000
0000
0000
0000
1000
0000
,  // measure 158
0001
0200
0301
0000
0100
0000
1000
0000
0000
0000
0010
0000
0000
0000
0010
0000
,  // measure 159
1000
0020
1030
0000
0000
0000
0010
0000
0001
0000
0100
0000
0020
0000
0130
0000
,  // measure 160
1100
0000
0001
0010
0000
1000
0001
0000
1000
0000
0010
0000
0100
0000
0000
0000
,  // measure 161
0101
0000
0001
0010
0000
1000
0100
0000
1000
0100
0010
1000
0100
0000
0000
0000
,  // measure 162
0001
0000
1000
0100
0000
0001
0100
0000
0001
0000
1000
0000
0010
0000
0001
0000
,  // measure 163
1000
0100
1000
0100
1000
0000
0100
0010
0100
0010
0100
0000
0010
0000
0010
0001
,  // measure 164
0010
0001
0010
0000
0001
0010
0001
0010
0001
0000
1000
0100
1000
0100
1000
0000
,  // measure 165
0100
0010
0100
0010
0100
0000
0100
0000
0010
0000
0010
0000
1000
0000
1000
0000
,  // measure 166
1000
0001
0001
0001
0100
0100
0100
0010
,  // measure 167
0010
0000
0001
0000
0001
0010
0100
1000
0100
0010
0001
0010
0100
0010
0100
0010
,  // measure 168
0100
0000
1000
0000
0100
0000
0020
0001
0000
0031
0010
0000
0100
0000
0200
1000
,  // measure 169
0000
1300
0100
0000
0001
0000
0002
1000
0000
1003
0001
0000
1000
0000
0000
0000
,  // measure 170
0110
0000
1000
0100
0010
0001
0100
0010
,  // measure 171
0000
0000
1000
0000
0100
0000
0010
0000
0001
0000
0000
0010
0000
0000
0001
0000
,  // measure 172
1100
0100
0110
0100
0100
0100
0100
0010
,  // measure 173
0110
1001
0000
1000
0000
1001
0000
1001
,  // measure 174
0000
1000
0000
0100
0010
0001
0000
1000
,  // measure 175
0100
0010
0001
0010
0100
1000
0000
2002
,  // measure 176
0000
0000
0000
0000
,  // measure 177
0000
0000
0000
0000
,  // measure 178
0000
0000
0000
0000
,  // measure 179
0000
0000
0000
0000
,  // measure 180
0000
0000
0000
0000
0000
0000
0000
3003
;
