#VERSION:0.83;
#TITLE:irony;
#SUBTITLE:;
#ARTIST:ClariS;
#TITLETRANSLIT:;
#SUBTITLETRANSLIT:;
#ARTISTTRANSLIT:;
#GENRE:XROSS;
#ORIGIN:;
#CREDIT:MUINELIM;
#BANNER:irony.png;
#BACKGROUND:irony-bg.png;
#PREVIEWVID:;
#JACKET:irony-jacket.png;
#CDIMAGE:;
#DISCIMAGE:;
#LYRICSPATH:;
#CDTITLE:;
#MUSIC:irony.mp3;
#OFFSET:0.056000;
#SAMPLESTART:50.996395;
#SAMPLELENGTH:12.539185;
#SELECTABLE:YES;
#DISPLAYBPM:133.000000;
#BPMS:0.000=133.980;
#STOPS:;
#DELAYS:;
#WARPS:;
#TIMESIGNATURES:0.000=4=4;
#TICKCOUNTS:0.000=1;
#COMBOS:0.000=1;
#SPEEDS:0.000=1.000=0.000=0;
#SCROLLS:0.000=1.000;
#FAKES:;
#LABELS:0.000=Song Start;
#BGCHANGES:0.000=irony.avi=1.000=0=0=0=StretchNoLoop====,
99999=-nosongbg-=1.000=0=0=0 // don't automatically add -songbackground-
;
#KEYSOUNDS:;
#ATTACKS:
;

//---------------dance-single - ----------------
#NOTEDATA:;
#CHARTNAME:;
#STEPSTYPE:dance-single;
#DESCRIPTION:;
#CHARTSTYLE:;
#DIFFICULTY:Beginner;
#METER:3;
#RADARVALUES:0.117882,0.166429,0.011151,0.033453,0.000000,74.000000,73.000000,1.000000,3.000000,0.000000,0.000000,0.000000,0.000000,0.000000,0.117882,0.166429,0.011151,0.033453,0.000000,74.000000,73.000000,1.000000,3.000000,0.000000,0.000000,0.000000,0.000000,0.000000;
#CREDIT:MILEN;
#DISPLAYBPM:133.000000;
#NOTES:
0000
0000
0000
0000
,
0000
0000
0000
0000
,
0000
0000
0000
0000
,
0000
0000
0000
0000
,
0000
0000
0000
0100
,
0000
0000
0000
0100
,
0000
0000
0000
0100
,
0000
0100
0000
0100
,
0100
0200
0300
0100
,
0000
0001
0000
1000
,
0000
0010
0000
0100
,
0000
0001
0000
1000
,
0000
0010
0000
0010
,
0000
0000
0000
0001
,
0000
0000
0000
0100
,
0000
0000
0000
1000
,
0000
0000
0000
0010
,
0000
0000
0000
1000
,
0000
0000
0000
0100
,
0000
0000
0000
0001
,
0000
0000
0000
0010
,
0000
0000
0000
1000
,
0000
0000
0000
0100
,
0000
0000
0000
0001
,
0000
0000
0000
0100
,
0000
0000
0000
1000
,
0000
0000
0000
0010
,
0000
0000
0000
0001
,
0000
0100
0000
1000
,
0000
1000
0000
1000
,
1000
1000
0000
0001
,
0000
0001
0000
0001
,
0001
0001
0000
0100
,
0000
0100
0000
0100
,
0100
0100
0000
0010
,
0000
0010
0000
0010
,
0010
0010
0000
1000
,
0000
0100
0000
0001
,
0000
0010
0000
0001
,
0000
0100
0000
1000
,
0000
0010
0000
0001
,
0000
0100
0000
1000
,
0000
0010
0000
1000
,
0000
0100
0000
0001
,
0000
0010
0000
1000
,
0000
0000
0000
0001
,
0000
0000
0000
0100
,
0000
0000
0000
0010
,
0000
0000
0000
0220
,
0000
0000
0000
0330
;

//---------------dance-single - ----------------
#NOTEDATA:;
#CHARTNAME:;
#STEPSTYPE:dance-single;
#DESCRIPTION:;
#CHARTSTYLE:;
#DIFFICULTY:Easy;
#METER:4;
#RADARVALUES:0.184788,0.249643,0.044604,0.111510,0.000000,116.000000,112.000000,4.000000,10.000000,0.000000,0.000000,0.000000,0.000000,0.000000,0.184788,0.249643,0.044604,0.111510,0.000000,116.000000,112.000000,4.000000,10.000000,0.000000,0.000000,0.000000,0.000000,0.000000;
#CREDIT:MILEN;
#DISPLAYBPM:133.000000;
#NOTES:
0000
0000
0000
0000
,
0000
0000
0000
0000
,
0000
0000
0000
0000
,
0000
0000
0000
0000
,
0000
0000
0000
0100
,
0000
0100
0000
0100
,
0001
1000
0000
0100
,
1000
0001
0000
0100
,
0100
0001
1000
1001
,
0000
0010
0000
0100
,
0000
0010
0000
1000
,
0000
0001
0000
0100
,
0000
0010
0000
0100
,
0100
0100
0000
0001
,
0000
1000
0000
0010
,
0010
0010
0000
1000
,
0000
0001
0000
0100
,
0010
0100
0000
0001
,
0000
1000
0000
0010
,
0100
0010
0000
1000
,
0000
0001
0000
0100
,
0000
1000
0000
0010
,
0001
0010
0000
1000
,
0000
0100
0000
0001
,
0010
0001
0000
0100
,
0000
1000
0000
0010
,
0000
0001
0000
0100
,
0000
0100
0000
0100
,
0100
0001
1000
1001
,
0000
0010
0000
0100
,
0010
0100
0000
1000
,
0000
0100
0000
0010
,
0100
0010
0000
0001
,
0000
0010
0000
0100
,
0010
0200
0300
0020
,
0030
2000
3000
0002
,
0003
1001
0000
1000
,
0001
0100
0010
1000
,
0001
0001
0000
0100
,
0010
1000
0001
0100
,
0010
0010
0000
1000
,
0100
0010
0000
0001
,
0010
0100
0000
1000
,
0010
0100
0001
0100
,
0100
0100
0010
2000
,
0000
3000
0000
0002
,
0000
0003
0000
0200
,
0000
0300
0000
0020
,
0000
0030
0000
0220
,
0000
0000
0000
0330
;

//---------------dance-single - ----------------
#NOTEDATA:;
#CHARTNAME:;
#STEPSTYPE:dance-single;
#DESCRIPTION:;
#CHARTSTYLE:;
#DIFFICULTY:Medium;
#METER:6;
#RADARVALUES:0.321786,0.443810,0.133812,0.156114,0.000000,202.000000,190.000000,12.000000,14.000000,0.000000,0.000000,0.000000,0.000000,0.000000,0.321786,0.443810,0.133812,0.156114,0.000000,202.000000,190.000000,12.000000,14.000000,0.000000,0.000000,0.000000,0.000000,0.000000;
#CREDIT:MILEN;
#DISPLAYBPM:133.000000;
#NOTES:
0000
0000
0000
0000
,
0000
0000
0000
0000
,
0000
0000
0000
0000
,
0000
0000
0000
0000
,
0000
0000
0000
0100
,
0000
0100
0000
0100
,
0001
1000
0100
1000
,
0001
0200
0300
0010
,
0010
0000
0100
0010
0100
0000
0010
0000
,
1000
0001
0100
0010
,
1000
0001
0100
0010
,
1000
0100
0010
0001
,
0100
0010
0110
1000
,
0100
1000
0100
0001
,
0100
0001
0100
1000
,
0010
1000
0010
0001
,
0010
0001
0010
1000
,
0100
0001
0100
1000
,
0010
0001
0010
1000
,
0100
0001
1000
0010
,
0001
0100
0010
1001
,
1000
0001
1000
0020
,
0130
0002
0103
2000
,
3010
0200
0310
0002
,
1000
0000
1003
0000
1000
0010
1000
0000
,
0001
0000
1000
0000
0001
0100
0001
0000
,
1000
0000
0001
0000
1000
0100
1000
0000
,
0001
0010
0001
0000
0100
0000
0010
0000
,
0100
0000
0001
1000
0002
0000
0103
0000
,
0100
0010
0000
1000
0000
0001
0000
0100
,
0010
0000
0110
0000
1000
0001
1000
0000
,
0010
0100
0000
0001
0000
1000
0000
0010
,
0100
0000
0110
0000
0001
1000
0001
0000
,
0100
0010
0000
1000
0000
0001
0000
0010
,
0000
0100
0000
1000
0000
0010
0000
0001
,
0000
0100
0000
1000
0000
0010
0000
0100
,
0000
0220
0000
0000
0330
0000
0010
1000
,
0100
0000
1000
0000
0001
0000
0010
0001
,
0100
0000
0001
0000
1000
0000
0010
0100
,
0001
0000
1000
0000
0001
0000
0100
0010
,
1000
0001
1000
0010
,
0001
0100
1000
0010
,
0001
0000
0100
0000
1000
0000
2002
3003
,
0000
0120
0000
0100
0100
0130
0000
1010
,
0000
0101
0000
1010
0000
0101
0001
0000
,
0010
0100
1000
0001
,
0100
0010
1000
0100
,
0010
0001
1000
0010
,
0100
0000
0001
1000
0001
1000
2002
0000
,
0000
0000
0000
3003
;

//---------------dance-single - ----------------
#NOTEDATA:;
#CHARTNAME:;
#STEPSTYPE:dance-single;
#DESCRIPTION:;
#CHARTSTYLE:;
#DIFFICULTY:Hard;
#METER:10;
#RADARVALUES:0.476307,0.499286,0.356832,0.200718,0.128237,299.000000,267.000000,32.000000,18.000000,0.000000,0.000000,0.000000,0.000000,0.000000,0.476307,0.499286,0.356832,0.200718,0.128237,299.000000,267.000000,32.000000,18.000000,0.000000,0.000000,0.000000,0.000000,0.000000;
#CREDIT:MILEN;
#DISPLAYBPM:133.000000;
#NOTES:
0000
0000
0000
0000
,
0000
0000
0000
0000
,
0000
0000
0000
0000
,
0000
0000
0000
0000
,
0000
0000
0000
0100
,
0000
0000
0100
0000
0000
0000
0100
0001
,
1000
0020
0000
0130
0010
0200
0000
0000
,
0000
0302
0000
1000
1000
1003
0000
1010
,
0000
0101
0000
0011
0000
1100
1000
0000
,
0010
0000
0100
0001
0010
0100
1000
0000
,
0010
0000
0100
0001
1000
0100
0010
0000
,
0001
0000
1000
0010
0100
0001
0010
0000
,
0100
0000
1000
0010
0100
0001
2002
3003
,
1000
0100
1000
0000
0001
0100
0001
0000
,
1000
0010
1000
0000
0001
0010
0001
0000
,
0100
0010
1000
0000
0010
0100
0001
0000
,
1000
0100
0010
0000
0001
0010
0100
0000
,
1000
0010
0001
0000
0001
0010
1000
0000
,
0001
0100
1000
0000
1000
0100
0001
0000
,
1000
0010
0100
0000
0001
0100
0010
0110
,
0000
1010
0000
0101
0001
1000
0100
1000
,
0100
0010
0001
0100
0010
1000
0001
0000
,
0101
1000
1100
0120
,
0000
0001
0031
0000
0001
0100
0000
0100
,
0010
1000
0001
0000
0010
0100
2100
0000
,
0000
0010
3020
0000
0100
0230
0000
0001
,
0001
0302
0000
0000
1000
1003
1001
0000
,
0010
0100
0000
0100
0010
1000
0001
0100
,
0010
0000
1000
0000
0001
0000
0000
0001
0100
0000
0010
0000
0110
0000
0000
0010
,
1000
0000
0000
0000
0110
0000
0000
0100
0001
0000
0000
0000
0010
0000
0100
0000
,
1000
0000
0001
0000
0020
0000
0000
0000
0130
0000
0000
0000
1001
0000
0000
0001
,
0100
0000
0000
0000
1001
0000
0000
1000
0010
0000
0000
0000
0100
0000
0001
0000
,
1000
0000
0010
0000
0200
0000
0000
0000
0301
0000
0001
0000
0011
0000
0000
0010
,
0100
0000
0000
0000
1100
0000
0000
0100
0010
0000
0000
0000
0001
0000
0100
0000
,
1000
0001
0000
0010
1000
0001
0000
0100
,
0001
1001
0000
1010
0000
0101
0000
0011
,
0000
0000
1100
0000
0100
0000
0010
0000
0001
0000
0100
0000
0010
0000
0000
0010
,
1000
0000
0000
1000
0100
0000
0000
0100
0010
0000
0000
0010
0001
0000
0100
0000
,
0001
0000
0010
0000
0002
0000
0000
0000
0103
0000
0100
0000
0010
0000
0000
0010
,
1000
0000
0000
1000
0001
0000
0000
0001
0100
0000
0000
0100
0010
0000
1000
0000
,
0100
0000
1000
0000
0020
0000
0000
0000
0130
0000
0100
0000
0001
0000
0000
0001
,
1000
0000
0000
1000
0100
0000
0000
0100
0010
0000
0000
0010
0001
0000
0000
0001
,
0100
0000
0000
0100
0010
0000
0000
0010
1000
0000
0001
0000
2001
0000
0000
0000
,
3010
0210
0000
0301
1000
1100
0000
0011
,
0000
1010
0000
0101
0000
1001
0010
0000
,
1000
0000
0100
0010
0001
1000
0010
0000
,
0100
0000
0001
0010
0100
1000
0010
0000
,
0100
0000
0001
1000
0100
0010
0001
0000
,
0100
0000
0000
0000
0010
0000
1000
0001
1000
0000
0001
0000
2002
0000
0000
0000
,
0000
0000
0000
3003
;

//---------------dance-double - ----------------
#NOTEDATA:;
#CHARTNAME:;
#STEPSTYPE:dance-double;
#DESCRIPTION:;
#CHARTSTYLE:;
#DIFFICULTY:Easy;
#METER:4;
#RADARVALUES:0.162486,0.249643,0.055755,0.111510,0.000000,102.000000,97.000000,5.000000,10.000000,0.000000,0.000000,0.000000,0.000000,0.000000,0.162486,0.249643,0.055755,0.111510,0.000000,102.000000,97.000000,5.000000,10.000000,0.000000,0.000000,0.000000,0.000000,0.000000;
#CREDIT:MILEN;
#DISPLAYBPM:133.000000;
#NOTES:
00000000
00000000
00000000
00000000
,
00000000
00000000
00000000
00000000
,
00000000
00000000
00000000
00000000
,
00000000
00000000
00000000
00000000
,
00000000
00000000
00000000
00001000
,
00000000
00001000
00000000
00001000
,
00100000
00001000
00000000
00010000
,
00000100
00010000
00000000
00001000
,
00010000
00001000
00010000
00011000
,
00000000
00001000
00000000
01000000
,
00000000
00010000
00000000
10000000
,
00000000
00100000
00000000
01000000
,
00000000
00010000
00000000
00100000
,
00000000
00001000
00000000
00010000
,
00000000
00000100
00000000
00000010
,
00000000
00000001
00000000
00000100
,
00000000
00001000
00000000
00010000
,
00000000
01000000
00000000
10000000
,
00000000
00100000
00000000
01000000
,
00000000
00001000
00000000
00010000
,
00000000
00000100
00000000
00000010
,
00000000
00000001
00000000
00001000
,
00000000
00000010
00000000
00010000
,
00000000
00001000
00000000
00100000
,
00000000
01000000
00000000
10000000
,
00000000
00100000
00000000
00010000
,
00000000
00001000
00000000
00000100
,
00000000
00000001
00000000
00000010
,
00000000
00001000
00000000
00011000
,
00000000
00010000
00000000
00000100
,
00000000
00000010
00000000
00000001
,
00000000
00000100
00000000
00001000
,
00000000
00010000
00000000
00100000
,
00000000
10000000
00000000
01000000
,
00000000
00020000
00030000
00002000
,
00003000
00020000
00030000
00002000
,
00003000
00011000
00000000
00010000
,
00000100
00010000
00000000
00001000
,
01000000
00001000
00000000
00010000
,
00000010
00010000
00000000
00001000
,
00100000
00001000
00000000
00010000
,
00001000
00100000
00000000
00001000
,
00010000
00000010
00000000
00010000
,
00001000
01000000
00000000
00001000
,
00010000
00000100
00000000
00000120
,
00000000
00000030
00000000
00002000
,
00000000
00003000
00000000
00020000
,
00000000
00030000
00000000
02000000
,
00000000
03000000
00000000
02200000
,
00000000
00000000
00000000
03300000
;

//---------------dance-double - ----------------
#NOTEDATA:;
#CHARTNAME:;
#STEPSTYPE:dance-double;
#DESCRIPTION:;
#CHARTSTYLE:;
#DIFFICULTY:Medium;
#METER:7;
#RADARVALUES:0.324972,0.360596,0.078057,0.100359,0.000000,204.000000,197.000000,7.000000,9.000000,0.000000,0.000000,0.000000,0.000000,0.000000,0.324972,0.360596,0.078057,0.100359,0.000000,204.000000,197.000000,7.000000,9.000000,0.000000,0.000000,0.000000,0.000000,0.000000;
#CREDIT:MILEN;
#DISPLAYBPM:133.000000;
#NOTES:
00000000
00000000
00000000
00000000
,
00000000
00000000
00000000
00000000
,
00000000
00000000
00000000
00000000
,
00000000
00000000
00000000
00000000
,
00000000
00000000
00000000
01000000
,
00001000
00010000
00000100
00001000
,
00000010
00010000
00001000
00100000
,
00010000
20020000
30030000
10000000
,
01000000
00000000
00010000
00001000
00010000
00000000
00000100
00000000
,
00001000
00000010
00000100
00000001
,
00001000
00000100
00000010
00000001
,
00000100
00001000
00010000
00100000
,
10000000
00010000
10010000
10000000
,
01000000
10000000
01000000
00010000
,
01000000
00010000
01000000
00010000
,
00001000
00010000
00001000
00000010
,
00001000
00000010
00001000
00000010
,
00000001
00000100
00000001
00000100
,
00001000
00000100
00001000
00000100
,
00001000
00010000
00001000
00010000
,
01000000
00010000
01000000
10000000
,
00100000
00010000
00100000
10000000
,
01000000
00010000
00001000
00000100
,
00000001
00000010
00001000
00000010
,
00000001
00000000
00000100
00000000
00001000
00010000
00001000
00000000
,
00010000
00000000
01000000
00000000
10000000
00100000
10000000
00000000
,
01000000
00000000
00010000
00000000
00001000
00010000
00001000
00000000
,
00000100
00000000
00000001
00000000
00000010
00000100
00000010
00000000
,
00000001
00000100
00002000
00013000
,
00010000
00001000
00000000
00010000
00000000
01000000
00000000
10000000
,
00100000
01000000
00100000
00000000
01000000
00010000
01000000
00000000
,
00001000
00010000
00000000
00000100
00000000
00000010
00000000
00000001
,
00000100
00000001
00001000
00000000
00000100
00010000
00000100
00000000
,
00000010
00000001
00000000
00000100
00000000
00001000
00000000
00010000
,
00001000
01000000
00000000
00001000
00010000
00000100
00000000
00010000
,
00001000
00100000
00000000
00001000
00010000
00000010
00000000
00010000
,
00000000
00022000
00000000
00000000
00033000
00000000
00001000
00010000
,
01000000
00000000
10000000
00000000
01000000
00000000
00010000
00001000
,
00010000
00000000
00001000
00010000
00001000
00000000
00010000
00001000
,
00000100
00000000
00000001
00000000
00000100
00000000
00001000
00010000
,
00001000
00000000
00010000
00001000
00010000
00000000
00100000
00000000
,
10000000
01000000
00100000
00010000
,
00001000
00000010
00000100
00000102
,
00000000
00002003
00000000
00003010
00000100
00000010
00000000
00010010
,
00000000
00010000
00000000
00101000
00000000
00001000
00001000
00000000
,
00010000
00100000
01000000
00100000
,
00010000
00001000
00000100
00000010
,
00000100
00001000
00010000
00100000
,
10000000
01000000
00010000
00022000
,
00000000
00000000
00000000
00033000
;

//---------------dance-double - ----------------
#NOTEDATA:;
#CHARTNAME:;
#STEPSTYPE:dance-double;
#DESCRIPTION:;
#CHARTSTYLE:;
#DIFFICULTY:Hard;
#METER:11;
#RADARVALUES:0.495423,0.527024,0.200718,0.044604,0.000000,311.000000,293.000000,18.000000,4.000000,0.000000,0.000000,0.000000,0.000000,0.000000,0.495423,0.527024,0.200718,0.044604,0.000000,311.000000,293.000000,18.000000,4.000000,0.000000,0.000000,0.000000,0.000000,0.000000;
#CREDIT:MILEN;
#DISPLAYBPM:133.000000;
#NOTES:
// measure 0
00000000
00000000
00000000
00000000
,  // measure 1
00000000
00000000
00000000
00000000
,  // measure 2
00000000
00000000
00000000
00000000
,  // measure 3
00000000
00000000
00000000
00000000
,  // measure 4
00000000
00000000
00000000
00001000
,  // measure 5
00010000
01000000
10000000
00010000
,  // measure 6
01000000
00001000
00010000
00000010
,  // measure 7
00001000
00000001
00000010
00001000
,  // measure 8
00010000
00000000
00001000
00010000
00011000
00000000
00001000
00000000
,  // measure 9
00100000
00000000
01000000
10000000
00100000
10000000
01000000
00000000
,  // measure 10
00010000
00000000
00001000
00100000
01000000
00100000
00001000
00000000
,  // measure 11
00010000
00000000
00000100
00000010
00000001
00000010
00000100
00000000
,  // measure 12
00001000
00000000
00000010
00000100
00000001
00000100
00000101
00000000
,  // measure 13
00000001
00001000
00000100
00000010
00000001
00001000
00000010
00010000
,  // measure 14
00001000
00100000
01000000
10000000
00100000
01000000
00001000
00010000
,  // measure 15
00000100
00001000
00000010
00000100
00000001
00001000
00000100
00000010
,  // measure 16
00001000
00010000
01000000
00100000
00010000
10000000
10000000
00100000
,  // measure 17
01000000
00010000
00100000
01000000
10000000
00010000
01000000
00001000
,  // measure 18
00010000
00000100
00000010
00000001
00001000
00000010
00000100
00001000
,  // measure 19
00010000
00100000
01000000
00010000
10000000
01000000
01000000
00100000
,  // measure 20
00001000
00010000
00000010
00001000
00000100
00000010
00000001
00000100
,  // measure 21
00001000
00010000
00100000
00010000
00001000
00000010
00000001
00000100
,  // measure 22
00001000
00000100
00000001
00000100
00001000
00000100
00000001
00000010
,  // measure 23
00000100
00010000
00001000
00100000
01000000
10000000
00100000
00010000
,  // measure 24
00100000
10000000
00100000
00010000
00100000
10000000
01000000
00100000
,  // measure 25
00001000
00010000
00100000
00001000
00000010
00010000
00001000
00000100
,  // measure 26
00010000
01000000
00001000
00010000
00100000
10000000
01000000
00010000
,  // measure 27
00001000
00000010
00000001
00000100
00001000
00010000
01000000
10000000
,  // measure 28
00100000
00010000
00001000
00000100
00000001
00000010
00000011
00000000
,  // measure 29
00000001
00000100
00000001
00000000
00000100
00001000
00000100
00000000
,  // measure 30
00001000
00010000
00001000
00000000
00010000
01000000
00010000
00000000
,  // measure 31
01000000
10000000
01000000
00000000
10000000
00100000
10000000
00000000
,  // measure 32
00100000
00010000
00100000
00000000
00010000
00001000
00011000
00000000
,  // measure 33
00010000
00000100
00000010
00000000
00000001
00000100
00001000
00000000
,  // measure 34
00010000
00100000
10000000
00000000
01000000
00100000
00010000
00000000
,  // measure 35
00001000
00000010
00000100
00000000
00000001
00000011
00000000
00001010
,  // measure 36
00000000
00022000
00000000
00000000
00033000
00000000
00010000
00001000
,  // measure 37
00000100
00000001
00000010
00000100
00010000
00001000
00000100
00000001
,  // measure 38
00000010
00001000
00011000
00000000
00001000
00010000
00100000
10000000
,  // measure 39
01000000
00100000
00001000
00010000
00100000
10000000
01000000
00100000
,  // measure 40
00001000
00010000
00011000
00000000
00001000
00100000
01000000
00010000
,  // measure 41
00001000
00000010
00000100
00001000
00000010
00010000
00001000
01000000
,  // measure 42
00010000
00100000
01000000
00010000
00001000
00000010
00000101
00000000
,  // measure 43
00001000
00011000
00000000
00100000
10000000
11000000
00000000
01010000
,  // measure 44
00000000
00011000
00000000
00001100
00000000
00000101
00000101
00000000
,  // measure 45
00000010
00000000
00001000
00000100
00000010
00000001
00000100
00000000
,  // measure 46
00001000
00000000
01000000
00010000
00100000
01000000
10000000
00000000
,  // measure 47
00100000
00000000
00010000
00001000
00000100
00000010
00000001
00000000
,  // measure 48
00000010
00000000
00001000
00010000
01000000
00100000
20200000
00000000
,  // measure 49
00000000
00000000
00000000
30300000
;
