#TITLE:Zelophilia;
#SUBTITLE:;
#ARTIST:ぺのれり feat.ぁゅ;
#TITLETRANSLIT:;
#SUBTITLETRANSLIT:;
#ARTISTTRANSLIT:Penoreri feat. Ayu;
#GENRE:VARIETY;
#CREDIT:MUINELIM;
#BANNER:Zelophilia.png;
#JACKET:Zelophilia-jacket.png;
#BACKGROUND:Zelophilia-bg.png;
#LYRICSPATH:;
#CDTITLE:;
#MUSIC:Zelophilia.mp3;
#OFFSET:-0.049000;
#SAMPLESTART:52.500614;
#SAMPLELENGTH:15.403873;
#SELECTABLE:YES;
#BPMS:0.000000=155;
#STOPS:
;
#BGCHANGES:;
#KEYSOUNDS:;
#ATTACKS:;

//---------------dance-single - ----------------
#NOTES:
     dance-single:
     :
     Beginner:
     2:
     0.100858,0.154952,0.032837,0.000000,0.000000,86.000000,82.000000,4.000000,0.000000,0.000000,0.000000,0.100858,0.154952,0.032837,0.000000,0.000000,86.000000,82.000000,4.000000,0.000000,0.000000,0.000000:
// measure 0
0000
0000
0000
0000
,  // measure 1
0000
0000
0000
0000
,  // measure 2
0000
0000
0000
0000
,  // measure 3
0000
0000
0000
0000
,  // measure 4
0000
0000
0000
0000
,  // measure 5
0000
0000
0000
0000
,  // measure 6
0000
0000
0000
0000
,  // measure 7
1000
0000
0001
0000
,  // measure 8
1000
0000
0001
0000
,  // measure 9
0100
0000
0000
0000
,  // measure 10
0100
0000
0000
0000
,  // measure 11
0100
0000
0000
0000
,  // measure 12
0100
0000
0000
0000
,  // measure 13
0100
0000
0100
0000
,  // measure 14
0100
0000
0100
0000
,  // measure 15
0100
0000
0000
0000
,  // measure 16
0000
0110
0000
0000
,  // measure 17
0000
0000
0000
0000
,  // measure 18
0010
0000
0000
0000
,  // measure 19
1000
0000
0000
0000
,  // measure 20
0001
0000
0000
0000
,  // measure 21
0100
0000
0000
0000
,  // measure 22
0010
0000
0010
0000
,  // measure 23
0010
0000
0000
0000
,  // measure 24
1000
0000
0000
0000
,  // measure 25
0001
0000
0000
0000
,  // measure 26
1000
0000
0000
0000
,  // measure 27
0010
0000
0000
0000
,  // measure 28
0100
0000
0000
0000
,  // measure 29
0010
0000
0000
0000
,  // measure 30
1000
0000
1000
0000
,  // measure 31
1000
0000
1000
0000
,  // measure 32
1000
0000
1000
0000
,  // measure 33
1000
0000
0000
0000
,  // measure 34
0001
0000
0000
0000
,  // measure 35
0100
0000
0000
0000
,  // measure 36
0010
0000
0000
0000
,  // measure 37
1000
0000
0000
0000
,  // measure 38
0001
0000
0000
0000
,  // measure 39
0100
0000
0000
0000
,  // measure 40
0010
0000
0000
0000
,  // measure 41
1000
0000
0000
0000
,  // measure 42
0001
0000
0000
0000
,  // measure 43
0010
0000
0000
0000
,  // measure 44
0100
0000
0000
0000
,  // measure 45
1000
0000
0000
0000
,  // measure 46
0001
0000
0000
0000
,  // measure 47
0010
0000
0000
0000
,  // measure 48
0100
0000
0000
0000
,  // measure 49
1000
0000
0000
0000
,  // measure 50
0010
0000
0000
0000
,  // measure 51
0000
0000
0000
0000
,  // measure 52
0010
0000
0000
0000
,  // measure 53
0010
0000
0000
0000
,  // measure 54
0010
0000
0010
0000
,  // measure 55
0010
0000
0000
0000
,  // measure 56
0100
0000
0100
0000
,  // measure 57
0100
0000
0000
0000
,  // measure 58
0001
0000
0000
0000
,  // measure 59
0000
0000
0000
0000
,  // measure 60
1000
0000
0000
0000
,  // measure 61
0010
0000
0010
0000
,  // measure 62
0010
0000
0100
0000
,  // measure 63
0100
0000
0100
0000
,  // measure 64
0001
0000
0000
0000
,  // measure 65
1000
0000
0000
0000
,  // measure 66
0010
0000
0000
0000
,  // measure 67
0100
0000
0000
0000
,  // measure 68
0010
0000
0000
0000
,  // measure 69
0100
0000
0000
0000
,  // measure 70
0010
0000
0100
0000
,  // measure 71
0010
0000
0100
0000
,  // measure 72
0010
0000
0010
0000
,  // measure 73
0000
0110
0000
0000
,  // measure 74
0000
0000
0000
0000
,  // measure 75
1001
0000
1001
0000
;

//---------------dance-single - ----------------
#NOTES:
     dance-single:
     :
     Easy:
     8:
     0.303747,0.342023,0.139559,0.139559,0.000000,259.000000,242.000000,17.000000,17.000000,0.000000,0.000000,0.303747,0.342023,0.139559,0.139559,0.000000,259.000000,242.000000,17.000000,17.000000,0.000000,0.000000:
0000
0000
0000
0000
,
0000
0000
0000
0000
,
0000
0000
0000
0000
,
0000
0000
0000
0000
,
0000
0000
0000
0000
,
1000
0100
0010
0001
,
0010
0000
0001
0001
,
0200
0000
0000
0300
,
0010
1000
1001
1001
,
0010
1000
0100
0000
,
0010
0001
0100
0000
,
0010
1000
0100
0000
,
0010
0001
0200
0300
,
0010
0010
1000
1000
,
0001
0001
0100
0100
,
0010
0010
0000
1000
0000
0001
0000
0100
,
0000
0220
0000
0000
,
0000
0000
0000
0330
,
0110
0000
0000
0000
0000
0000
0000
1000
,
0001
1000
0000
0000
0000
0000
0000
0000
,
0001
0000
1000
0000
,
0010
0000
0100
0100
,
0001
0010
0001
0010
,
0100
1000
0100
1000
,
0020
0130
0020
0130
,
0020
0130
0110
0110
,
1000
0001
1000
0100
,
0001
0010
1000
0100
,
0001
0010
1000
0100
,
0001
0010
1000
0001
,
1001
0000
0000
0000
0010
0000
0100
0100
,
0000
0000
0010
0000
0100
0000
0010
0010
,
0000
0000
1000
0000
0001
0000
0100
0010
,
0100
0000
0110
0110
,
1000
0100
0001
0000
,
1000
0100
0001
0000
,
1000
1100
0001
0100
,
1000
0001
1001
0000
,
0001
0010
1000
0000
,
0001
0010
1000
0000
,
0001
0010
1000
0010
,
0001
0100
0020
0130
,
0100
0001
0010
0000
,
0100
0001
0010
0000
,
0100
0101
0010
1000
,
0001
0100
0110
0000
,
0010
1000
0100
0000
,
0010
1000
0100
0000
,
0010
1000
0100
0001
,
0100
1000
0010
0200
,
0310
0010
0010
0010
,
0010
0010
0010
1000
,
0001
0100
0010
1000
,
0001
0010
0100
1000
,
0010
0100
0001
1000
,
0000
0010
0100
0010
0100
0010
0100
0100
,
0000
0010
1000
0001
,
0100
1000
0010
0001
,
2002
0000
0000
0000
,
0000
3003
1000
0100
,
1000
0001
0010
0001
,
0100
0100
0100
0100
,
1010
0100
0001
0010
,
0011
0100
1000
0010
,
0200
0000
0302
0000
,
2003
0000
3020
0130
,
0100
0001
1000
0001
,
0100
1000
0001
1000
,
0010
0001
1000
0001
,
0100
1000
0001
1000
,
0010
0010
0000
0000
0001
0001
0000
0000
,
0100
0100
0000
0000
1000
1000
0000
0000
,
0010
0010
0000
0100
0000
0001
0000
1000
,
0000
0220
0000
0000
,
0000
0000
0000
0330
,
0010
0100
0001
0000
0100
0010
1000
0000
;

//---------------dance-single - ----------------
#NOTES:
     dance-single:
     :
     Medium:
     12:
     0.482007,0.530325,0.262700,0.164187,0.180606,411.000000,379.000000,32.000000,20.000000,0.000000,0.000000,0.482007,0.530325,0.262700,0.164187,0.180606,411.000000,379.000000,32.000000,20.000000,0.000000,0.000000:
0000
0000
0000
0000
,
0000
0000
0000
0000
,
0000
0000
0000
0000
,
0000
0000
0000
0000
,
0000
0000
0000
0000
0000
0000
0000
1000
,
1000
0000
0010
1000
0100
0010
0001
0100
,
0100
0000
0110
0000
0010
1000
0001
0000
,
0010
0001
0010
0001
0010
0001
0010
0001
,
0100
0010
1000
0001
1001
0000
1001
0000
,
0010
0001
0100
1000
,
0010
0001
0100
1000
,
0010
0001
0100
1000
,
0010
0001
0100
1000
,
0010
0100
0001
0000
0010
0100
1000
0000
,
0010
0100
0001
0000
0010
0100
1000
0000
,
0010
0100
0000
0001
0000
1000
0000
0010
0000
0100
0000
0001
0000
1000
0000
0010
,
0000
0220
0000
0000
,
0000
0000
0000
0330
,
1001
0000
0000
0000
0000
0000
0000
0010
,
0100
0010
0000
0000
1000
0000
0001
0000
,
0100
0000
0010
1000
0001
0000
0010
0001
,
1000
0000
0000
0010
0100
0000
0110
0000
,
0010
1000
0100
0000
1000
0000
0001
0000
,
0010
0001
0100
0000
0001
0000
1000
0000
,
1020
0130
0201
0310
,
1020
0130
0101
1001
,
0100
0000
0000
0100
0000
0000
0100
0000
0010
0000
0001
0000
1000
0000
0100
0000
,
0010
0001
1000
0010
0100
0001
0010
0100
,
1000
0100
0001
0100
1000
0100
0001
0100
,
1000
0000
0100
0000
0010
0000
0001
0000
0100
0000
0000
0100
0000
0000
0010
0000
,
1010
0000
0000
0000
1000
0000
0100
0000
0010
0000
0000
0010
0000
0000
0011
0000
,
0000
0000
0001
0000
0100
0000
0010
0000
1000
0000
0000
1000
0000
0000
1001
0000
,
0000
0001
1000
0100
0000
1000
0001
0100
,
0220
0330
1001
1001
,
0001
0000
0000
0100
1000
0000
0000
0000
0001
0000
0000
0100
1000
0000
0000
0000
,
0001
0000
0000
0100
1000
0000
0000
0000
0001
0000
0100
0000
0010
0000
0100
0000
,
0001
0000
0011
0000
0010
0100
1000
0001
,
0100
0010
1000
1001
,
1000
0000
0000
0100
0001
0000
0000
0000
1000
0000
0000
0100
0001
0000
0000
0000
,
1000
0000
0000
0100
0001
0000
0000
0000
0100
0000
1000
0000
0010
0000
0100
0000
,
0020
0000
1030
0100
1000
0001
0010
0100
,
1000
0000
0000
0001
0000
0000
1001
0000
0000
0000
1000
0000
0010
0000
0100
0000
,
0010
0000
0000
1000
0100
0000
0000
0000
0010
0000
0000
1000
0100
0000
0000
0000
,
0010
0000
0000
1000
0100
0000
0000
0000
0010
0000
0100
0000
1000
0000
0010
0000
,
0100
0000
0101
0000
0001
1000
0100
0010
,
0012
0103
2100
3010
,
0010
0000
0000
0001
0100
0000
0000
0000
0010
0000
0000
0001
0100
0000
0000
0000
,
0010
0000
0000
0001
0100
0000
0000
0000
0010
0000
1000
0000
0010
0000
0100
0000
,
0001
0000
0010
0100
1000
0010
0100
0001
,
1000
0000
0000
0001
0000
0000
0110
0000
0000
0000
0010
0000
1000
0000
0100
0000
,
0020
0000
0000
0000
,
0000
0000
0000
0000
0031
0001
0010
0100
,
1000
0010
0100
0001
,
1000
0100
0010
0001
,
0100
0010
1000
0001
0100
0010
1000
0001
,
0100
0000
0010
0000
0010
0000
0010
0000
0010
0000
0010
0000
0010
0000
0010
1000
,
0000
0000
0100
0000
0010
0000
0000
0001
0000
0000
0100
0000
0000
0010
0000
0000
,
1000
1000
0001
0001
0010
0100
1000
0000
,
0110
0000
0000
0220
0000
0000
0000
0000
0000
0000
0000
0000
0000
0000
0000
0000
,
0000
0000
0330
0000
0010
1000
0100
1000
,
0001
0000
0010
0001
0100
0000
0001
1000
,
1100
1010
0011
0101
,
1000
0100
0010
0000
0100
0010
0001
0000
,
0100
0010
1000
0001
0010
0100
1000
0010
,
0220
0030
0002
0300
,
2000
0003
0010
3010
,
0010
1000
0100
0000
1000
0100
0001
0000
,
0100
0001
0010
0000
0001
0010
1000
0000
,
0010
1000
0100
0000
1000
0100
0001
0000
,
0100
0001
0010
0000
0001
0010
1000
0100
,
0010
0000
0000
0001
0000
0000
0100
0000
0010
0000
0000
1000
0000
0000
0001
0000
,
0010
0000
0000
0100
0000
0000
1000
0000
0010
0000
0000
0100
0000
0000
0001
0000
,
1000
0100
0000
0010
0000
0001
0000
1000
0000
0100
0000
0010
0000
0001
0000
0100
,
0000
0220
0000
0000
,
0000
0000
0000
0330
,
0010
0000
1000
0100
0000
0000
0010
0000
0001
0000
0100
0020
0000
0000
0000
0000
,
0030
0000
0000
0000
;

//---------------dance-single - ----------------
#NOTES:
     dance-single:
     :
     Hard:
     16:
     0.786927,0.967064,0.476144,0.550028,0.886612,671.000000,613.000000,58.000000,67.000000,0.000000,0.000000,0.786927,0.967064,0.476144,0.550028,0.886612,671.000000,613.000000,58.000000,67.000000,0.000000,0.000000:
0000
0000
0000
0000
,
0000
0000
0000
0000
,
0000
0000
0000
0000
,
0000
0000
0000
0000
,
0000
0000
0000
0000
0000
0000
0000
1000
,
1001
0000
0000
0000
0000
0000
0000
0000
0000
0001
0000
0000
0100
0000
0000
0000
0010
0000
0000
0000
0100
0000
0000
0000
0010
0000
0000
0000
1000
0000
0000
0000
0100
0000
0000
0000
0010
0000
0000
0001
0000
0000
0000
0000
0000
0011
0000
0000
,
0000
0000
0002
0000
0103
0000
0100
0000
0010
1000
0000
1100
0000
0000
1001
0000
,
0001
0100
0001
0100
0001
0100
0001
0100
0001
0100
0001
0100
0001
0100
0001
0100
,
0010
1000
0001
0100
0010
1000
1001
0000
0000
1001
0000
0000
,
0001
0100
0000
0000
0100
0010
0000
0000
0010
1000
0000
0000
1000
0100
0000
0000
,
0100
0010
0000
0000
0010
0001
0000
0000
0001
0100
0000
0000
0100
0010
0000
0000
,
0010
1000
0000
0000
1000
0100
0000
0000
0100
0001
0000
0000
0001
0010
0000
0000
,
0010
1000
0000
0000
1000
0001
0000
0000
0001
0100
0000
0100
0000
0220
0330
0000
,
0010
1000
0010
0000
1000
0000
0001
0000
0010
0001
0010
0000
0001
0000
1000
0000
,
0100
1000
0100
0000
1000
0000
0001
0000
0100
0001
0100
0000
0001
0000
1000
0000
,
0010
0100
0000
0101
0000
0001
0000
0110
0000
1000
0000
1010
0000
0010
0000
1001
,
0000
0220
0000
0330
,
0100
0001
0010
0100
1000
0010
0100
0001
1000
0100
0010
0001
,
1001
0000
0000
0000
0000
0000
0000
1000
,
0100
0020
0000
0000
0032
0000
0203
0000
,
0320
0000
1030
0010
0100
0001
0010
0100
,
1100
0000
0000
1001
0000
0000
0011
0000
0010
0100
0010
0100
0010
0100
0010
0100
,
1000
0000
0000
1000
0010
0000
0000
0010
0100
0000
0000
0100
0001
0000
0000
0001
,
0010
0000
0010
0001
0100
0000
0010
0100
0010
0000
0100
0010
1000
0000
0100
0010
,
0200
0000
0000
2300
0000
0000
3020
0000
0230
0000
0000
0302
0000
0000
2003
0000
,
3200
0000
0000
0320
0000
0000
0031
0000
0101
0000
0000
0000
1010
0000
0000
0000
,
2000
0000
0000
0002
3000
0000
0013
0001
0010
0000
0001
0100
0001
0000
1000
0010
,
1000
0000
0100
1000
0100
0000
0010
0100
0010
0000
0001
0010
0001
0000
0100
0001
,
0100
0000
0010
1000
0010
0000
1000
0001
1000
0000
0010
0100
0010
0000
1000
0100
,
0010
0000
0100
0010
0001
0000
0101
0000
1000
0010
0000
1010
0000
0000
1100
0000
,
0120
0000
0000
0000
0031
0000
0100
0000
0110
0000
0000
1010
0000
0000
0202
0000
,
0303
0000
0100
0001
1000
0100
0010
0000
0110
0000
0000
0011
0000
0000
2200
0000
,
3300
0000
1000
0100
0010
0100
1000
0000
0010
0000
0100
0000
0001
0000
1000
0000
,
1001
0000
0000
0010
0200
0000
0000
0000
0310
0000
0000
0000
2002
0000
3003
0000
,
0001
0000
0010
0100
0010
0000
0000
0000
0001
0000
0010
0100
0010
0000
0000
0000
,
0001
0000
0010
0100
0010
0000
0000
0000
0001
0000
0100
0000
1000
0000
0100
0000
,
0101
0000
0021
0130
0010
0001
0100
1000
,
0100
0001
0010
1000
0010
0001
1001
0000
,
1000
0000
0010
0100
0010
0000
0000
0000
1000
0000
0010
0100
0010
0000
0000
0000
,
1000
0000
0010
0100
0010
0000
0000
0000
1000
0000
0010
0000
0001
0000
0010
0000
,
1010
0000
1200
0310
0010
0001
0100
0010
,
1010
0000
0000
0101
0000
0000
2002
0000
3003
0000
1000
0000
0010
0000
0100
0000
,
0001
0000
0010
0100
1000
0000
0000
0000
0001
0000
1000
0010
0100
0000
0000
0000
,
0001
0000
0010
0100
1000
0000
0000
0000
0001
0000
0100
0000
0010
0000
1000
0000
,
1100
0000
0210
1300
1000
0010
0001
0010
,
1000
0100
0001
0100
1000
0001
1001
0000
,
1000
0000
0100
0010
0001
0000
0000
0000
1000
0000
0010
0100
0001
0000
0000
0000
,
1000
0000
0100
0010
0001
0000
0000
0000
1000
0000
0010
0000
0100
0000
0001
0000
,
0011
0000
0010
0100
1000
0001
0010
0100
,
1000
0000
0000
0000
0010
0000
0000
0000
0100
0000
0000
0000
0001
0000
0000
0000
0010
0000
0000
0000
0100
0000
0000
0000
1000
0000
0000
0020
0000
0000
0000
0000
0000
0000
0000
0000
0130
0000
0000
0001
0000
0000
0100
0000
0000
0001
0000
0000
,
1000
0010
1000
0010
1000
0010
1000
0010
1000
0010
1000
0010
1000
0010
1000
0010
,
1000
0010
1000
0010
1000
0010
1000
0010
0200
0000
0301
0000
0001
0010
0000
0210
,
0000
0000
1300
0000
0010
0000
0001
0000
0010
0100
0000
0102
0000
0000
0013
0000
,
0010
0000
0200
0000
0000
1300
0010
0100
0010
1000
0010
0100
0002
0000
0000
0000
,
0013
0000
0100
0000
1000
0000
0100
0000
0001
0100
0000
0010
0000
0001
0000
1001
,
0000
1000
0010
0100
0001
1000
0100
0010
0001
1000
0010
0100
0001
1000
0100
0020
,
0000
0031
0001
0000
0100
0100
0000
0010
0010
0000
1000
1000
0000
0001
0010
0100
,
1000
0010
0100
0001
0010
0000
0000
1000
0100
0000
0000
0001
2000
0000
0000
0000
,
3020
0000
0000
0230
0000
0000
0302
0000
0000
0023
0000
0000
0130
0000
1000
0000
,
0020
0000
0000
0230
0000
0000
0302
0000
0000
2003
0000
0000
3100
0000
0010
0000
,
0002
0000
0000
0203
0000
0000
0320
0000
0000
2030
0000
0000
3001
0000
0010
0000
,
0011
0101
1100
1010
,
0010
0000
0100
0000
0001
0010
0001
0000
0100
0000
0010
0000
1000
0100
1000
0000
,
0010
0000
0100
0000
0001
0000
0010
0200
0000
0000
0310
0000
0001
0100
1000
0000
,
0200
0000
0000
0302
0000
0000
0023
0000
0000
0230
0000
0000
2300
0000
3020
0000
,
0130
0000
0001
0000
1000
0000
0100
0000
0010
0000
0001
0000
0101
0000
0000
0000
0000
0000
2020
0000
0000
3030
0000
0000
,
1000
0100
0010
0000
0100
1000
0010
0000
1000
0100
0010
0000
0100
0000
1000
0000
,
0010
0100
0001
0000
0100
0010
0001
0000
0010
0100
0001
0000
0010
0000
0100
0000
,
1000
0010
0001
0000
0010
1000
0001
0000
1000
0010
0001
0000
0010
0000
1000
0000
,
0001
0100
1000
0000
0100
0001
1000
0000
0001
0100
0000
0100
0000
0220
0330
0000
,
0010
1000
0100
1000
0010
0000
0100
0000
0001
0010
0100
0010
0001
0000
1000
0000
,
0010
0100
0001
0010
0100
0000
0010
0000
1000
0010
0001
0010
0100
0000
0110
0000
,
1000
0100
0000
0110
0000
0001
0000
0011
0000
1000
0000
1100
0000
0001
0000
1001
,
0000
0220
0000
0330
,
0010
0000
0000
0000
1000
0000
0000
0000
0100
0000
0000
0000
0001
0000
0000
0000
1000
0000
0000
0000
0010
0000
0000
0000
0001
0000
0000
0000
0100
0000
0000
0000
0010
0000
0000
0000
1000
0000
0000
0001
0000
0000
1000
0000
0000
0001
0000
0000
,
0010
0100
1000
0010
0100
0000
1000
0000
0100
0001
0010
0200
0020
0000
0000
0000
,
0330
0000
0000
0000
;

//---------------dance-double - ----------------
#NOTES:
     dance-double:
     :
     Easy:
     8:
     0.292019,0.373116,0.131350,0.139559,0.000000,249.000000,233.000000,16.000000,17.000000,0.000000,0.000000,0.292019,0.373116,0.131350,0.139559,0.000000,249.000000,233.000000,16.000000,17.000000,0.000000,0.000000:
00000000
00000000
00000000
00000000
,
00000000
00000000
00000000
00000000
,
00000000
00000000
00000000
00000000
,
00000000
00000000
00000000
00000000
,
00000000
00000000
00000000
00000000
,
00001000
00010000
00100000
01000000
,
00010000
00000000
00100000
00100000
,
00002000
00000000
00000000
00003000
,
00010000
00001000
00011000
00011000
,
00010000
00000000
00000100
00000000
,
00001000
00000000
00000010
00000000
,
00010000
00000000
00001000
00000000
,
00100000
00000000
00020000
00030000
,
10000000
01000000
00100000
00001000
,
00010000
00000100
00000010
00000001
,
00000100
00001000
00010000
00001000
,
00000000
00022000
00000000
00000000
,
00000000
00000000
00000000
00033000
,
00011000
00000000
00000000
00000000
00000000
00000000
00000000
00001000
,
00010000
00001000
00000000
00000000
00000000
00000000
00000000
00000000
,
00100000
00000000
00010000
00000000
,
10000000
00000000
00100000
00100000
,
00010000
00001000
00010000
00000010
,
00000100
00000010
00010000
00001000
,
00200000
01300000
00020000
00031000
,
00000020
00000130
00010000
00011000
,
00001000
00010000
01000000
10000000
,
00100000
00010000
00001000
00000100
,
00000001
00000010
00001000
00010000
,
01000000
10000000
00100000
00010000
,
00011000
00000000
00100000
00010000
,
01000000
00000000
00000100
00001000
,
00000010
00000000
00010000
00001000
,
00011000
00000000
00011000
00011000
,
00010000
01000000
10000000
00000000
,
10000000
01000000
00010000
00000000
,
00010000
00011000
00001000
00000100
,
00000001
00000100
00001000
00000000
,
00001000
00000100
00000001
00000000
,
00000001
00000100
00001000
00000000
,
00001000
00010000
00100000
10000000
,
00100000
00010000
00002000
00013000
,
00010000
00100000
01000000
00000000
,
10000000
01000000
00100000
00000000
,
00010000
00100000
00001000
00000010
,
00000001
00001000
00000100
00000000
,
00001000
00000010
00000100
00000000
,
00000010
00001000
00000100
00000000
,
00001000
00000010
00010000
00100000
,
01000000
00010000
00100000
02000000
,
13000000
00100000
10000000
00100000
,
10000000
00100000
10000000
10100000
,
00010000
01000000
00100000
00010000
,
00001000
00000100
00000010
00001000
,
00000101
00000001
00000010
00000100
,
00000000
00010000
00001000
00010000
00001000
00010000
00001000
00010000
,
00000000
00100000
10000000
01000000
,
00100000
00001000
00010000
00001000
,
00022000
00000000
00000000
00000000
,
00000000
00033000
00010000
00000100
,
00010000
00001000
01000000
00001000
,
00010000
00010000
00010000
00010000
,
00011000
00001000
00100000
00010000
,
01000000
10000000
01000000
00100000
,
00020000
00000000
00030200
00000000
,
00002300
00000000
00003002
00001003
,
00001001
00001000
00000100
00010000
,
00001000
00100000
00010000
01000000
,
10000000
01000000
00010000
00100000
,
00001000
00000010
00000001
00000010
,
00000100
00000100
00000000
00000000
00010000
00010000
00000000
00000000
,
00001000
00001000
00000000
00000000
00100000
00100000
00000000
00000000
,
10000000
00100000
00010000
00001000
,
00000000
00022000
00000000
00000000
,
00000000
00000000
00000000
00033000
,
00001000
00000100
00000010
00000000
00010000
00100000
01000000
00000000
;

//---------------dance-double - ----------------
#NOTES:
     dance-double:
     :
     Medium:
     12:
     0.491390,0.530325,0.320166,0.123141,0.119036,419.000000,380.000000,39.000000,15.000000,0.000000,0.000000,0.491390,0.530325,0.320166,0.123141,0.119036,419.000000,380.000000,39.000000,15.000000,0.000000,0.000000:
00000000
00000000
00000000
00000000
,
00000000
00000000
00000000
00000000
,
00000000
00000000
00000000
00000000
,
00000000
00000000
00000000
00000000
,
00000000
00000000
00000000
00000000
00000000
00000000
00000000
00001000
,
00001000
00000000
00010000
00001000
00000100
00000010
00001000
00000100
,
00000100
00000000
00010100
00000000
00010000
00001000
00100000
00000000
,
00010000
01000000
00010000
01000000
00010000
01000000
00010000
01000000
,
00100000
10000000
01000000
00010000
00011000
00000000
00011000
00000000
,
00001000
00100000
00010000
00000010
,
00001000
00100000
00010000
00000010
,
00000100
00010000
01000000
00001000
,
00000100
00010000
01000000
00001000
,
00000100
00000010
00000001
00000000
00001000
00000100
00000010
00000000
,
00001000
00010000
00100000
00000000
10000000
01000000
00100000
00000000
,
00010000
01000000
00000000
00010000
00000000
01000000
00000000
00001000
00000000
00010000
00000000
00000100
00000000
00001000
00000000
00000010
,
00000000
00000220
00000000
00000000
,
00000000
00000000
00000000
00000330
,
00001001
00000000
00000000
00000000
00000000
00000000
00000000
00000001
,
00000100
00001000
00000000
00000000
00010000
00000000
00001000
00000000
,
00011000
00000000
00010000
00100000
10000000
00000000
10000000
01000000
,
00010000
00000000
00000000
00001000
00010000
00000000
00011000
00000000
,
00001000
00100000
00001000
00000000
00010000
00000000
00001000
00000000
,
00010000
00000010
00010000
00000000
00001000
00000000
00010000
00000000
,
00012000
01003000
00021000
00030100
,
00012000
00103000
00011000
00010010
,
00000010
00000000
00000000
00000010
00000000
00000000
00000010
00000000
00001000
00000000
00000100
00000000
00000010
00000000
00000001
00000000
,
00000100
00001000
00010000
00100000
10000000
01000000
00100000
00010000
,
00001000
00010000
01000000
00010000
00001000
00010000
01000000
00010000
,
00001000
00000000
00000100
00000000
00000010
00000000
00000001
00000000
00000100
00000000
00000000
00000100
00000000
00000000
00000010
00000000
,
00001010
00000000
00000000
00000000
00001000
00000000
00000100
00000000
00010000
00000000
00000000
00001000
00000000
00000000
00101000
00000000
,
00000000
00000000
00100000
00000000
00010000
00000000
01000000
00000000
00100000
00000000
00000000
10000000
00000000
00000000
11000000
00000000
,
00000000
01000000
00100000
00001000
00000000
00010000
00001000
00010000
,
00022000
00033000
00010100
01001000
,
00001000
00010000
01000000
00000000
00001000
00010000
01000000
00000000
,
00001000
00010000
01000000
00000000
10000000
00100000
00010000
00001000
,
00011000
00000000
00010100
00000000
00000100
00000010
00000001
00001000
,
00000100
00000010
00001000
00011000
,
00010000
00001000
00000100
00000000
00010000
00001000
00000100
00000000
,
00010000
00001000
00000100
00000000
00000001
00000010
00001000
00010000
,
00011000
00000000
00001000
00100000
01000000
10000000
00100000
00010000
,
00001000
00000000
00000000
00010000
00000000
00000000
00011000
00000000
00000000
00000000
00001000
00000000
00010000
00000000
00100000
00000000
,
01000000
00010000
00100000
00000000
01000000
00010000
00100000
00000000
,
01000000
00010000
00100000
00000000
00010000
01000000
00100000
00010000
,
00001000
00000000
00001010
00000000
00000010
00000001
00000100
00001000
,
00011000
00101000
00011000
00010010
,
00000010
00001000
00000100
00000000
00000010
00001000
00000100
00000000
,
00000010
00001000
00000100
00000000
00000010
00000001
00000100
00001000
,
00010000
00000000
00100000
10000000
01000000
00010000
00001000
00010000
,
00011000
00000000
00000000
00011000
00000000
00000000
00011000
00000000
00000000
00000000
00001000
00000000
00100000
00000000
01000000
00000000
,
20000000
00000000
00000000
00000000
,
00000000
00000000
00000000
00000000
30100000
00001000
00000010
00000100
,
00000001
00000010
00000100
00010000
,
00001000
00100000
01000000
10000000
,
00100000
01000000
00010000
00100000
01000000
00010000
00001000
00000010
,
00000001
00000100
00010000
00000100
00000001
00000100
00010000
00000100
,
00000001
00000010
00000100
00001000
00000010
00000100
00001000
00010000
,
00100000
10000000
01000000
00010000
00001000
00000100
00000001
00000000
,
00001001
00000000
00000000
00000220
00000000
00000000
00000000
00000000
00000000
00000000
00000000
00000000
00000000
00000000
00000000
00000000
,
00000000
00000000
00000330
00000000
00000010
00001000
00000100
00010000
,
01000000
10000000
00100000
00010000
,
00011000
00101000
00010010
00000110
,
00000100
00000001
00000010
00000000
00000100
00001000
00000010
00000000
,
00010000
00001000
01000000
00100000
10000000
01000000
00100000
00001000
,
00022000
00003000
00000100
00000000
,
01000000
00000000
00001000
00031000
,
00001000
00010000
00100000
00000000
00010000
00100000
10000000
00000000
,
01000000
00010000
00001000
00000000
00010000
00001000
00000100
00000000
,
00000001
00000010
00001000
00000000
00000010
00001000
00010000
00000000
,
00100000
10000000
01000000
00000000
10000000
01000000
00100000
00010000
,
00001000
00000000
00000000
00000010
00000000
00000000
00000100
00000000
00000001
00000000
00000000
00000010
00000000
00000000
00000100
00000000
,
00010000
00000000
00000000
00001000
00000000
00000000
00100000
00000000
01000000
00000000
00000000
10000000
00000000
00000000
00100000
00000000
,
01000000
00010000
00000000
00100000
00000000
00010000
00000000
00100000
00000000
00001000
00000000
00010000
00000000
00000100
00000000
00000010
,
00000000
00000202
00000000
00000000
,
00000000
00000000
00000000
00000303
,
00000001
00000000
00000100
00001000
00000100
00000000
00010000
00000000
01000000
00000000
00100000
20000000
00000000
00000000
00000000
00000000
,
30000000
00000000
00000000
00000000
;

//---------------dance-double - ----------------
#NOTES:
     dance-double:
     :
     Hard:
     16:
     0.740016,0.967064,0.385840,0.574656,0.874298,631.000000,584.000000,47.000000,70.000000,0.000000,0.000000,0.740016,0.967064,0.385840,0.574656,0.874298,631.000000,584.000000,47.000000,70.000000,0.000000,0.000000:
00000000
00000000
00000000
00000000
,
00000000
00000000
00000000
00000000
,
00000000
00000000
00000000
00000000
,
00000000
00000000
00000000
00000000
,
00000000
00000000
00000000
00000000
00000000
00000000
00000000
00010000
,
00011000
00000000
00000000
00000000
00000000
00000000
00000000
00000000
00000000
00001000
00000000
00000000
01000000
00000000
00000000
00000000
00001000
00000000
00000000
00000000
00010000
00000000
00000000
00000000
00000100
00000000
00000000
00000000
00010000
00000000
00000000
00000000
00000010
00000000
00000000
00000000
00010000
00000000
00000000
00001000
00000000
00000000
00000000
00000000
00000000
00011000
00000000
00000000
,
00000000
00000000
00010000
00000000
01000000
00000000
10000000
00000000
00100000
01000000
00000000
00020000
00000000
00000000
00230000
00000000
,
00301000
00010000
00001000
00010000
00001000
00010000
00001000
00010000
00001000
00010000
00001000
00010000
00001000
00010000
00001000
00010000
,
00000100
00001000
00000001
00000010
00000100
00010000
00011000
00000000
00000000
00011000
00000000
00000000
,
00010000
00001000
00000000
00000000
00100000
00010000
00000000
00000000
01000000
00100000
00000000
00000000
10000000
00010000
00000000
00000000
,
00100000
00001000
00000000
00000000
00010000
00000100
00000000
00000000
00001000
00000001
00000000
00000000
00000010
00000100
00000000
00000000
,
00001000
00000100
00000000
00000000
00010000
00001000
00000000
00000000
00100000
00010000
00000000
00000000
10000000
00100000
00000000
00000000
,
01000000
00010000
00000000
00000000
00001000
00000010
00000000
00000000
00000100
00000001
00000000
00001000
00000000
00002002
00003003
00000000
,
00000001
00000001
00000100
00001000
00010000
00010000
00100000
10000000
,
01000000
01000000
00010000
00001000
00000010
00000010
00000001
00000100
,
00001000
00010000
00000000
00010100
00000000
00001000
00000000
01001000
00000000
00010000
00000000
00010010
00000000
00001000
00000000
00101000
,
00000000
00022000
00000000
00033000
,
00001000
00010000
00100000
01000000
00010000
00100000
01000000
10000000
01000000
00100000
00001000
00010000
,
00011000
00000000
00000000
00000000
00000000
00000000
00000000
00001000
,
00000010
00000002
00000000
00000000
00002003
00000000
00003200
00000000
,
00000320
00000000
00001030
00010000
00100000
10000000
01000000
00100000
,
00110000
00000000
00000000
00101000
00000000
00000000
00011000
00000000
00010000
00000100
00010000
00000100
00010000
00000100
00010000
00000100
,
00001000
00000000
00000000
00001000
00000010
00000000
00000000
00000010
00000100
00000000
00000000
00000100
00000001
00000000
00000000
00000001
,
00000010
00000000
00000100
00000000
00001000
00000000
00010000
00000000
00100000
00000000
01000000
00000000
10000000
00000000
00100000
01000000
,
00020000
00000000
00000000
00230000
00000000
00000000
00302000
00000000
00023000
00000000
00000000
00030200
00000000
00000000
00002300
00000000
,
00003020
00000000
00000000
00000230
00000000
00000000
00000301
00000000
00001001
00000000
00000000
00000000
00001001
00000000
00000000
00000000
,
00000200
00000000
00000000
00000020
00000300
00000000
00001030
00000100
00010000
00000000
00001000
00000000
00100000
00000000
00010000
00100000
,
01000000
00000000
10000000
00000000
00100000
00000000
01000000
00100000
00010000
00000000
00001000
00000000
00010000
00000000
00000100
00001000
,
00000010
00000000
00000100
00000000
00000001
00000000
00001000
00000100
00000010
00000000
00000001
00000000
00000100
00000000
00001000
00010000
,
00100000
00000000
10000000
00000000
01000000
00000000
01100000
00000000
00100000
00001000
00000000
00011000
00000000
00000000
00001100
00000000
,
00001020
00000000
00000000
00000000
00000130
00000000
00000001
00000000
00000010
00000000
00000000
00001000
00000000
00000000
00022000
00000000
,
00033000
00000000
00001000
00010000
00001000
00010000
00100000
00000000
10000000
00000000
00000000
01000000
00000000
00000000
02200000
00000000
,
03300000
00000000
00100000
00010000
00100000
00010000
01000000
00000000
00001000
00000000
00010000
00000000
00000100
00000000
00000010
00000000
,
00000011
00000000
00000000
00001000
00000200
00000000
00000000
00000000
00010300
00000000
00000000
00000000
00022000
00000000
00033000
00000000
,
00001000
00010000
00100000
10000000
00000000
00000000
10000000
00100000
00010000
00001000
00000000
00000000
,
00001000
00000000
00010000
00000000
00100000
00000000
10000000
00000000
00000000
00000000
00000000
00000000
01000000
00000000
00000000
00010000
00000000
00000000
00001000
00000000
00000000
00010000
00000000
00000000
,
00010100
00000000
00000200
00000310
00000010
00000001
00000100
00001000
,
00000100
00000001
00000010
00001000
00000010
00000001
00001001
00000000
,
00000001
00000100
00001000
00010000
00000000
00000000
00010000
00001000
00000100
00000001
00000000
00000000
,
00000001
00000000
00000100
00000000
00001000
00000000
00010000
00000000
00000000
00000000
00000000
00000000
00001000
00000000
00000000
00010000
00000000
00000000
00100000
00000000
00000000
10000000
00000000
00000000
,
11000000
00000000
02000000
03100000
00100000
00010000
00100000
01000000
,
10000000
00000000
00000000
00100000
00000000
00000000
02020000
00000000
03030000
00000000
00010000
00000000
10000000
01000000
10000000
00000000
,
00100000
00010000
00001000
00000100
00000000
00000000
00000100
00001000
00010000
00100000
00000000
00000000
,
00100000
00000000
00010000
00000000
00001000
00000000
00000100
00000000
00000000
00000000
00000000
00000000
00000001
00000000
00000000
00000010
00000000
00000000
00000100
00000000
00000000
00001000
00000000
00000000
,
00001010
00000000
00000020
00010030
00010000
00001000
00000010
00001000
,
00010000
00100000
00010000
00001000
00000100
00000001
00000011
00000000
,
00000010
00001000
00010000
01000000
00000000
00000000
01000000
00010000
00001000
00000010
00000000
00000000
,
00000010
00000000
00001000
00000000
00010000
00000000
01000000
00000000
00000000
00000000
00000000
00000000
10000000
00000000
00000000
00100000
00000000
00000000
01000000
00000000
00000000
00010000
00000000
00000000
,
00110000
00000000
00100000
01000000
10000000
00100000
00010000
00001000
,
00100000
00000000
00000000
00000000
01000000
00000000
00000000
00000000
10000000
00000000
00000000
00000000
00100000
00000000
00000000
00000000
01000000
00000000
00000000
00000000
00010000
00000000
00000000
00000000
00100000
00000000
00000000
00002000
00000000
00000000
00000000
00000000
00000000
00000000
00000000
00000000
00013000
00000000
00000000
00000100
00000000
00000000
00010000
00000000
00000000
00000100
00000000
00000000
,
00010000
00001000
00010000
00001000
00010000
00001000
00010000
00001000
00010000
00001000
00010000
00001000
00010000
00001000
00010000
00001000
,
00010000
00001000
00010000
00001000
00010000
00001000
00010000
00001000
00020000
00000000
00000000
00000000
00031000
00000010
00000000
00000012
,
00000000
00000000
00000103
00000000
00001000
00000000
00000100
00000000
00000010
00010000
00000000
00002000
00000000
00000000
00103000
00000000
,
00100000
00000000
02000000
00000000
00000000
13000000
00100000
10000000
00100000
10000000
00100000
01000000
00020000
00000000
00000000
00000000
,
00130000
00000000
01000000
00000000
00010000
00000000
00001000
00000000
00000010
00000001
00000000
00000100
00000000
00000010
00000000
00001010
,
00000000
00001000
00000100
00010000
00000100
00001000
00000100
00010000
00000100
00001000
00000010
00001000
00000100
00010000
00000100
00002000
,
00000000
00003001
00000100
00000000
00000010
00001000
00000000
00010000
01000000
00000000
00100000
10000000
00000000
01000000
00100000
00010000
,
01000000
00100000
00010000
00001000
00200000
00000000
00000000
00000000
02300000
00000000
00000000
00000000
03010000
00001000
00010000
00001000
,
00000020
00000000
00000000
00000032
00000000
00000000
00000203
00000000
00000000
00000320
00000000
00000000
00001030
00000000
00000100
00000000
,
00020000
00000000
00000000
00032000
00000000
00000000
00203000
00000000
00000000
02300000
00000000
00000000
13000000
00000000
00100000
00000000
,
00020000
00000000
00000000
00032000
00000000
00000000
00003020
00000000
00000000
00000032
00000000
00000000
00000103
00000000
00000010
00000000
,
00010010
00101000
00010100
01001000
,
01000000
00000000
00100000
00000000
10000000
01000000
10000000
00000000
01000000
00000000
00100000
00000000
00001000
00010000
00001000
00000000
,
00000100
00000000
00000010
00000000
00001000
00000000
00000001
00000200
00000000
00000000
00000310
00000000
00000010
00010000
00001000
00000000
,
00200000
00000000
00000000
02300000
00000000
00000000
03020000
00000000
00000000
00032000
00000000
00000000
00003020
00000000
00000230
00000000
,
00001300
00000000
00000010
00000000
00010000
00000000
00001000
00000000
00100000
00000000
00010000
00000000
01010000
00000000
00000000
00000000
00000000
00000000
20200000
00000000
00000000
30300000
00000000
00000000
,
10000000
01000000
00000000
00000000
01000000
00010000
00000000
00000000
00010000
00001000
00000000
00000000
00001000
00000100
00000000
00000000
,
00000100
00001000
00000000
00000000
00001000
00010000
00000000
00000000
00010000
01000000
00000000
00000000
01000000
00010000
00000000
00000000
,
00010000
00001000
00000000
00000000
00001000
00000010
00000000
00000000
00000010
00000001
00000000
00000000
00000001
00000100
00000000
00000000
,
00000100
00001000
00000000
00000000
00001000
00010000
00000000
00000000
00010000
00100000
00000000
10000000
00000000
22000000
33000000
00000000
,
01000000
00100000
00010000
00000000
01000000
00000000
00001000
00000000
00010000
00001000
00000100
00000000
00000010
00000000
00001000
00000000
,
00000001
00000010
00000100
00000000
00001000
00000000
00000010
00000000
00010000
00100000
01000000
00000000
00010000
00000000
00110000
00000000
,
10000000
01000000
00000000
00110000
00000000
00001000
00000000
00011000
00000000
00000100
00000000
00001100
00000000
00000010
00000000
00000101
,
00000000
00002020
00000000
00003030
,
00001000
00000000
00000000
00000000
00000100
00000000
00000000
00000000
00000010
00000000
00000000
00000000
00000100
00000000
00000000
00000000
00010000
00000000
00000000
00000000
00001000
00000000
00000000
00000000
00100000
00000000
00000000
00000000
01000000
00000000
00000000
00000000
00100000
00000000
00000000
00000000
00010000
00000000
00000000
10000000
00000000
00000000
00010000
00000000
00000000
10000000
00000000
00000000
,
01000000
00010000
00001000
00000000
00000020
00000000
00000130
00000000
00000010
00001000
00010000
00000000
02200000
00000000
00000000
00000000
,
03300000
00000000
00000000
00000000
;
